<?xml version="1.0" standalone="no"?>
<!DOCTYPE svg PUBLIC "-//W3C//DTD SVG 1.1//EN" "http://www.w3.org/Graphics/SVG/1.1/DTD/svg11.dtd" >
<svg xmlns="http://www.w3.org/2000/svg" xmlns:xlink="http://www.w3.org/1999/xlink" version="1.1">
<metadata>
Created by FontForge 20170731 at Tue Mar 10 13:57:51 2020
 By Aleksey,,,
(c) 2020 Goldman Sachs. All rights reserved.
</metadata>
<defs>
<font id="GoldmanSans-Thin" horiz-adv-x="580" >
  <font-face 
    font-family="Goldman Sans Thin"
    font-weight="200"
    font-stretch="normal"
    units-per-em="1000"
    panose-1="2 11 3 3 2 2 3 2 2 4"
    ascent="712"
    descent="-288"
    x-height="504"
    cap-height="674"
    bbox="-158 -244 1075 914"
    underline-thickness="77"
    underline-position="-192"
    unicode-range="U+000D-FEFF"
  />
<missing-glyph horiz-adv-x="500" 
d="M65 0v674h370v-674h-370zM97 30h306v614h-306v-614z" />
    <glyph glyph-name="f_f" unicode="ff" horiz-adv-x="629" 
d="M120 0v476h-102v28h102v58q0 156 128 156q18 0 35 -2t30 -7v-28q-16 4 -29 5.5t-30 1.5q-55 0 -78.5 -29.5t-23.5 -100.5v-54h261v58q0 156 139 156q15 0 32.5 -2.5t35.5 -7.5v-28q-21 5 -34 6.5t-28 1.5q-62 0 -87.5 -29.5t-25.5 -100.5v-54h175v-28h-175v-476h-32v476
h-261v-476h-32z" />
    <glyph glyph-name="f_i" unicode="fi" horiz-adv-x="561" 
d="M120 0v476h-102v28h102v58q0 156 128 156q18 0 35 -2t30 -7v-28q-16 4 -29 5.5t-30 1.5q-55 0 -78.5 -29.5t-23.5 -100.5v-54h161v-28h-161v-476h-32zM418 629v54h50v-54h-50zM431 0v476h-72v28h104v-504h-32z" />
    <glyph glyph-name="f_j" unicode="fj" horiz-adv-x="561" 
d="M120 0v476h-102v28h102v58q0 156 128 156q18 0 35 -2t30 -7v-28q-16 4 -29 5.5t-30 1.5q-55 0 -78.5 -29.5t-23.5 -100.5v-54h161v-28h-161v-476h-32zM418 629v54h50v-54h-50zM375 -201q-35 0 -53 8v28q18 -6 45 -6q37 0 50.5 22t13.5 68v557h-72v28h104v-598
q0 -51 -21.5 -79t-66.5 -28z" />
    <glyph glyph-name="f_f_i" unicode="ffi" horiz-adv-x="854" 
d="M120 0v476h-102v28h102v58q0 156 128 156q18 0 35 -2t30 -7v-28q-16 4 -29 5.5t-30 1.5q-55 0 -78.5 -29.5t-23.5 -100.5v-54h261v58q0 156 128 156q18 0 35 -2t30 -7v-28q-16 4 -29 5.5t-30 1.5q-55 0 -78.5 -29.5t-23.5 -100.5v-54h161v-28h-161v-476h-32v476h-261
v-476h-32zM711 629v54h50v-54h-50zM724 0v476h-72v28h104v-504h-32z" />
    <glyph glyph-name="f_f_j" unicode="ffj" horiz-adv-x="854" 
d="M120 0v476h-102v28h102v58q0 156 128 156q18 0 35 -2t30 -7v-28q-16 4 -29 5.5t-30 1.5q-55 0 -78.5 -29.5t-23.5 -100.5v-54h261v58q0 156 128 156q18 0 35 -2t30 -7v-28q-16 4 -29 5.5t-30 1.5q-55 0 -78.5 -29.5t-23.5 -100.5v-54h161v-28h-161v-476h-32v476h-261
v-476h-32zM711 629v54h50v-54h-50zM668 -201q-35 0 -53 8v28q18 -6 45 -6q37 0 50.5 22t13.5 68v557h-72v28h104v-598q0 -51 -21.5 -79t-66.5 -28z" />
    <glyph glyph-name=".notdef" horiz-adv-x="500" 
d="M65 0v674h370v-674h-370zM97 30h306v614h-306v-614z" />
    <glyph glyph-name="uni0000" horiz-adv-x="0" 
 />
    <glyph glyph-name="uni0000" horiz-adv-x="0" 
 />
    <glyph glyph-name="uni000D" unicode="&#xd;" horiz-adv-x="229" 
 />
    <glyph glyph-name="space" unicode=" " horiz-adv-x="229" 
 />
    <glyph glyph-name="exclam" unicode="!" horiz-adv-x="207" 
d="M89 179l-3 495h35l-3 -495h-29zM82 0v70h43v-70h-43z" />
    <glyph glyph-name="quotedbl" unicode="&#x22;" horiz-adv-x="302" 
d="M75 442l-4 270h37l-4 -270h-29zM198 442l-4 270h37l-4 -270h-29z" />
    <glyph glyph-name="numbersign" unicode="#" 
d="M115 0l31 187h-103v28h108l40 244h-125v28h130l31 187h31l-31 -187h176l31 187h31l-31 -187h103v-28h-108l-40 -244h125v-28h-130l-31 -187h-31l31 187h-176l-31 -187h-31zM182 215h176l40 244h-176z" />
    <glyph glyph-name="dollar" unicode="$" 
d="M279 -67v94q-60 1 -117.5 14t-90.5 32l11 29q81 -43 197 -45v265l-21 4q-91 18 -130 52.5t-39 96.5q0 69 50 109.5t140 44.5v97h31v-97q96 -2 174 -39l-10 -27q-41 18 -80 26.5t-84 9.5v-251l10 -2q69 -13 109.5 -33t58 -51.5t17.5 -79.5q0 -72 -50 -111.5t-145 -43.5
v-94h-31zM263 357l16 -3v245q-156 -7 -156 -125q0 -50 31 -76t109 -41zM315 315l-5 1v-259q161 7 161 124q0 40 -14 65t-48 41.5t-94 27.5z" />
    <glyph glyph-name="percent" unicode="%" horiz-adv-x="781" 
d="M166 0l409 674h39l-409 -674h-39zM725 178q0 -91 -35 -139t-101 -48t-100.5 48t-34.5 139q0 92 34.5 139.5t101.5 47.5q66 0 100.5 -47.5t34.5 -139.5zM486 178q0 -158 103 -158q104 0 104 158t-103 158q-104 0 -104 -158zM327 496q0 -91 -35 -139t-101 -48t-100.5 48
t-34.5 139q0 92 34.5 139.5t101.5 47.5q66 0 100.5 -47.5t34.5 -139.5zM88 496q0 -158 103 -158q104 0 104 158t-103 158q-104 0 -104 -158z" />
    <glyph glyph-name="ampersand" unicode="&#x26;" horiz-adv-x="668" 
d="M268 -13q-101 0 -156.5 47.5t-55.5 133.5q0 126 123 198q-23 31 -33 63.5t-10 71.5q0 87 57.5 136.5t157.5 49.5t166 -37l-12 -28q-68 33 -151 33q-89 0 -137 -40t-48 -115q0 -39 13.5 -72.5t46 -69t90.5 -82.5l166 -134q23 47 34.5 110.5t11.5 140.5h-119v30h149v-26
q0 -175 -52 -274l152 -123h-50l-118 96q-72 -109 -225 -109zM90 169q0 -72 47.5 -111.5t132.5 -39.5q135 0 199 97l-204 166q-41 33 -67 62q-52 -28 -80 -73t-28 -101z" />
    <glyph glyph-name="quotesingle" unicode="'" horiz-adv-x="179" 
d="M75 442l-4 270h37l-4 -270h-29z" />
    <glyph glyph-name="parenleft" unicode="(" horiz-adv-x="343" 
d="M247 -162q-67 98 -102 210.5t-35 241.5t35 242t102 210h36q-139 -205 -139 -452t139 -452h-36z" />
    <glyph glyph-name="parenright" unicode=")" horiz-adv-x="343" 
d="M96 -162h-36q139 205 139 452t-139 452h36q68 -97 102.5 -210t34.5 -242t-34.5 -241.5t-102.5 -210.5z" />
    <glyph glyph-name="asterisk" unicode="*" horiz-adv-x="472" 
d="M131 345l-26 19l110 145l-165 53l10 32l163 -60l-3 178h32l-3 -178l163 60l10 -32l-165 -53l110 -145l-26 -19l-105 149z" />
    <glyph glyph-name="plus" unicode="+" 
d="M275 116v203h-201v29h201v203h30v-203h201v-29h-201v-203h-30z" />
    <glyph glyph-name="comma" unicode="," horiz-adv-x="187" 
d="M49 -150l24 220h43l-39 -220h-28z" />
    <glyph glyph-name="hyphen" unicode="-" horiz-adv-x="401" 
d="M71 260v32h259v-32h-259z" />
    <glyph glyph-name="period" unicode="." horiz-adv-x="187" 
d="M72 0v70h43v-70h-43z" />
    <glyph glyph-name="slash" unicode="/" horiz-adv-x="379" 
d="M25 -162l295 904h34l-295 -904h-34z" />
    <glyph glyph-name="zero" unicode="0" 
d="M517 338q0 -172 -57.5 -261.5t-169.5 -89.5t-169.5 89.5t-57.5 261.5t57.5 260.5t169.5 88.5t169.5 -88.5t57.5 -260.5zM97 338q0 -158 49 -239t144 -81t144 81t49 239q0 157 -49 237.5t-144 80.5t-144 -80.5t-49 -237.5z" />
    <glyph glyph-name="one" unicode="1" 
d="M88 0v29h203v569h-198v27l147 2q34 1 44 8t12 31l3 36h25v-673h186v-29h-422z" />
    <glyph glyph-name="two" unicode="2" 
d="M68 0v28l207 195q62 58 97 102t50 83t15 83q0 80 -46 122.5t-132 42.5q-91 0 -169 -45l-13 26q82 50 183 50t156 -51t55 -144q0 -47 -17 -91.5t-54.5 -92t-101.5 -106.5l-186 -173h373v-29h-417z" />
    <glyph glyph-name="three" unicode="3" 
d="M81 638q38 23 86.5 36t99.5 13q96 0 150.5 -46t54.5 -127q0 -61 -34.5 -104.5t-93.5 -59.5q70 -15 109 -61t39 -117q0 -88 -59.5 -136.5t-166.5 -48.5q-57 0 -109.5 13.5t-90.5 38.5l13 27q78 -48 187 -48q94 0 143 39.5t49 115.5t-51 117.5t-143 41.5h-69l1 30h68
q80 0 127 41t47 111q0 68 -45 105t-128 37q-88 0 -172 -45z" />
    <glyph glyph-name="four" unicode="4" 
d="M383 0v181h-347v27l332 466h47v-464h126v-29h-126v-181h-32zM74 210h309v434z" />
    <glyph glyph-name="five" unicode="5" 
d="M272 -13q-124 0 -208 57l15 27q80 -53 192 -53q199 0 199 166q0 83 -48.5 128t-138.5 45q-96 0 -171 -56l-26 17v356h384v-29h-352v-311q69 54 169 54q102 0 159.5 -54t57.5 -151q0 -96 -59 -146t-173 -50z" />
    <glyph glyph-name="six" unicode="6" 
d="M303 -13q-114 0 -174 85t-60 247q0 182 64.5 275t190.5 93q43 0 85.5 -11.5t76.5 -31.5l-12 -27q-71 39 -150 39q-221 0 -221 -339v-7v-17q32 47 88.5 75t119.5 28q94 0 148 -53.5t54 -147.5q0 -95 -56.5 -151.5t-153.5 -56.5zM306 365q-58 0 -110.5 -27.5t-90.5 -76.5
q9 -118 59.5 -180.5t138.5 -62.5q82 0 129 47.5t47 129.5q0 80 -45.5 125t-127.5 45z" />
    <glyph glyph-name="seven" unicode="7" 
d="M77 645v29h435v-30l-280 -644h-36l281 645h-400z" />
    <glyph glyph-name="eight" unicode="8" 
d="M290 -13q-108 0 -170 49.5t-62 136.5q0 74 39.5 120t109.5 55q-59 10 -93 52.5t-34 109.5q0 83 56.5 130t153.5 47q98 0 154 -47t56 -130q0 -67 -34.5 -109.5t-94.5 -52.5q71 -9 111 -55t40 -120q0 -87 -62 -136.5t-170 -49.5zM290 362q177 0 177 145q0 72 -45.5 110.5
t-131.5 38.5t-131.5 -38.5t-45.5 -110.5q0 -145 177 -145zM290 18q94 0 146 41.5t52 115.5q0 156 -198 156t-198 -156q0 -74 52 -115.5t146 -41.5z" />
    <glyph glyph-name="nine" unicode="9" 
d="M277 687q114 0 174 -85t60 -246q0 -182 -64.5 -275.5t-190.5 -93.5q-43 0 -85 11.5t-77 31.5l12 27q71 -39 150 -39q221 0 221 340v7v17q-32 -47 -88.5 -75t-119.5 -28q-94 0 -148 53.5t-54 147.5q0 95 57 151t153 56zM101 480q0 -80 45.5 -125t127.5 -45
q58 0 110.5 27.5t90.5 76.5q-9 117 -59.5 179.5t-138.5 62.5q-81 0 -128.5 -47t-47.5 -129z" />
    <glyph glyph-name="colon" unicode=":" horiz-adv-x="187" 
d="M72 0v70h43v-70h-43zM72 434v70h43v-70h-43z" />
    <glyph glyph-name="semicolon" unicode=";" horiz-adv-x="187" 
d="M49 -150l24 220h43l-39 -220h-28zM72 434v70h43v-70h-43z" />
    <glyph glyph-name="less" unicode="&#x3c;" 
d="M506 549v-32l-388 -182l388 -182v-33l-432 203v23z" />
    <glyph glyph-name="equal" unicode="=" 
d="M74 441v29h432v-29h-432zM74 199v29h432v-29h-432z" />
    <glyph glyph-name="greater" unicode="&#x3e;" 
d="M74 120v32l388 182l-388 182v33l432 -203v-23z" />
    <glyph glyph-name="question" unicode="?" horiz-adv-x="473" 
d="M192 179q0 42 9 73t32 59t63 60q35 29 55 51.5t28 45.5t8 52q0 136 -163 136q-91 0 -174 -44l-11 27q82 48 186 48q95 0 145.5 -43t50.5 -123q0 -50 -22.5 -88.5t-80.5 -85.5q-38 -31 -59 -56t-29 -50.5t-8 -61.5h-30zM185 0v70h43v-70h-43z" />
    <glyph glyph-name="at" unicode="@" horiz-adv-x="953" 
d="M487 -212q-197 0 -302 105t-105 303q0 135 48 231.5t138.5 148t216.5 51.5q186 0 288 -98t102 -277q0 -122 -44.5 -191t-124.5 -69q-91 0 -113 76q-49 -76 -150 -76q-61 0 -95.5 31t-34.5 87q0 62 43 95.5t124 33.5h108v42q0 68 -26 95.5t-88 27.5q-63 0 -127 -30l-10 25
q60 33 142 33q73 0 106 -34t33 -108v-166q0 -104 89 -104q64 0 100 61.5t36 169.5q0 165 -94 255.5t-264 90.5q-115 0 -198.5 -48t-128 -138t-44.5 -215q0 -184 96 -281t279 -97q147 0 251 56l11 -26q-49 -28 -117.5 -44t-144.5 -16zM448 20q84 0 138 77v115h-106
q-138 0 -138 -103q0 -89 106 -89z" />
    <glyph glyph-name="A" unicode="A" horiz-adv-x="596" 
d="M39 0l238 674h45l235 -674h-35l-71 203h-305l-71 -203h-36zM157 233h283l-141 405z" />
    <glyph glyph-name="B" unicode="B" horiz-adv-x="616" 
d="M115 0v674h212q190 0 190 -173q0 -59 -27.5 -98.5t-75.5 -51.5q62 -11 96 -55t34 -117q0 -88 -51.5 -133.5t-150.5 -45.5h-227zM321 643h-172v-281h195q65 0 102 37t37 103q0 141 -162 141zM345 331h-196v-300h188q89 0 130.5 36.5t41.5 112.5q0 151 -164 151z" />
    <glyph glyph-name="C" unicode="C" horiz-adv-x="552" 
d="M331 -13q-261 0 -261 337q0 175 70.5 269t201.5 94q88 0 160 -40l-12 -27q-67 35 -147 35q-116 0 -177 -85t-61 -246q0 -154 57 -229.5t173 -75.5q45 0 86 9t71 25l12 -27q-31 -18 -77 -28.5t-96 -10.5z" />
    <glyph glyph-name="D" unicode="D" horiz-adv-x="650" 
d="M115 0v674h184q140 0 211.5 -85t71.5 -252q0 -166 -71.5 -251.5t-211.5 -85.5h-184zM293 643h-144v-612h144q254 0 254 306t-254 306z" />
    <glyph glyph-name="E" unicode="E" horiz-adv-x="559" 
d="M115 0v674h375v-31h-341v-282h288v-31h-288v-299h345v-31h-379z" />
    <glyph glyph-name="F" unicode="F" horiz-adv-x="522" 
d="M115 0v674h361v-31h-327v-296h293v-31h-293v-316h-34z" />
    <glyph glyph-name="G" unicode="G" horiz-adv-x="633" 
d="M352 -13q-145 0 -212.5 83t-67.5 261q0 175 74 265.5t217 90.5q98 0 175 -41l-12 -28q-79 37 -162 37q-257 0 -257 -324q0 -163 59 -238t189 -75q43 0 86 6.5t71 17.5v256h-184v31h218v-307q-35 -16 -88 -25.5t-106 -9.5z" />
    <glyph glyph-name="H" unicode="H" horiz-adv-x="667" 
d="M115 0v674h34v-309h369v309h34v-674h-34v334h-369v-334h-34z" />
    <glyph glyph-name="I" unicode="I" horiz-adv-x="264" 
d="M115 0v674h34v-674h-34z" />
    <glyph glyph-name="J" unicode="J" horiz-adv-x="440" 
d="M168 -13q-61 0 -117 31l12 28q47 -27 107 -27q69 0 98.5 40t29.5 134v450h-197v31h231v-482q0 -107 -39 -156t-125 -49z" />
    <glyph glyph-name="K" unicode="K" horiz-adv-x="554" 
d="M115 0v674h34v-332l311 332h43l-315 -337l344 -337h-48l-335 329v-329h-34z" />
    <glyph glyph-name="L" unicode="L" horiz-adv-x="509" 
d="M115 0v674h34v-643h321v-31h-355z" />
    <glyph glyph-name="M" unicode="M" horiz-adv-x="823" 
d="M115 0v674h50l247 -537l246 537h50v-674h-33v636l-246 -536h-35l-246 536v-636h-33z" />
    <glyph glyph-name="N" unicode="N" horiz-adv-x="679" 
d="M115 0v674h46l369 -631v631h34v-674h-46l-369 631v-631h-34z" />
    <glyph glyph-name="O" unicode="O" horiz-adv-x="660" 
d="M330 -13q-125 0 -191.5 90t-66.5 260t66.5 260t191.5 90t191.5 -90t66.5 -260t-66.5 -260t-191.5 -90zM330 19q109 0 166 81.5t57 236.5t-57 236.5t-166 81.5t-166 -81.5t-57 -236.5t57 -236.5t166 -81.5z" />
    <glyph glyph-name="P" unicode="P" horiz-adv-x="588" 
d="M115 0v674h206q215 0 215 -203q0 -200 -215 -200h-172v-271h-34zM316 643h-167v-341h167q96 0 140.5 40.5t44.5 128.5t-45 130t-140 42z" />
    <glyph glyph-name="Q" unicode="Q" horiz-adv-x="660" 
d="M331 -13q-126 0 -192.5 90t-66.5 260t66.5 260t192.5 90q125 0 191 -90t66 -260q0 -261 -147 -328l149 -85l-16 -27l-172 98q-33 -8 -71 -8zM331 19q109 0 165.5 81.5t56.5 236.5t-57 236.5t-166 81.5t-166 -81.5t-57 -236.5t57.5 -236.5t166.5 -81.5z" />
    <glyph glyph-name="R" unicode="R" horiz-adv-x="605" 
d="M115 0v674h204q202 0 202 -192q0 -166 -149 -189l187 -293h-40l-184 290h-186v-290h-34zM314 643h-165v-322h168q88 0 128.5 39t40.5 122t-41.5 122t-130.5 39z" />
    <glyph glyph-name="S" unicode="S" horiz-adv-x="536" 
d="M252 -13q-57 0 -109 11.5t-89 32.5l13 29q78 -41 185 -41q93 0 136.5 35.5t43.5 111.5q0 65 -33.5 100t-116.5 56l-47 12q-85 22 -123 62t-38 109q0 86 55.5 134t152.5 48q44 0 90.5 -11.5t78.5 -30.5l-13 -27q-28 18 -69 27.5t-87 9.5q-85 0 -129 -38t-44 -110
q0 -57 31.5 -89t107.5 -52l45 -12q93 -25 133.5 -68t40.5 -117q0 -182 -215 -182z" />
    <glyph glyph-name="T" unicode="T" horiz-adv-x="512" 
d="M239 0v643h-217v31h468v-31h-217v-643h-34z" />
    <glyph glyph-name="U" unicode="U" horiz-adv-x="649" 
d="M325 -13q-115 0 -168 66.5t-53 208.5v412h34v-417q0 -124 45 -181t142 -57q98 0 142 56.5t44 181.5v417h34v-412q0 -143 -52.5 -209t-167.5 -66z" />
    <glyph glyph-name="V" unicode="V" horiz-adv-x="577" 
d="M264 0l-225 674h36l212 -638l215 638h36l-229 -674h-45z" />
    <glyph glyph-name="W" unicode="W" horiz-adv-x="821" 
d="M199 0l-161 674h36l147 -637l168 629h45l166 -628l149 636h34l-162 -674h-42l-168 633l-169 -633h-43z" />
    <glyph glyph-name="X" unicode="X" horiz-adv-x="576" 
d="M56 0l210 343l-201 331h41l180 -300l183 300h39l-202 -329l214 -345h-41l-192 314l-192 -314h-39z" />
    <glyph glyph-name="Y" unicode="Y" horiz-adv-x="545" 
d="M255 0v250l-226 424h40l205 -389l205 389h37l-227 -425v-249h-34z" />
    <glyph glyph-name="Z" unicode="Z" horiz-adv-x="550" 
d="M65 0v22l376 621h-370v31h413v-22l-376 -621h382v-31h-425z" />
    <glyph glyph-name="bracketleft" unicode="[" horiz-adv-x="372" 
d="M122 -162v904h214v-30h-181v-844h181v-30h-214z" />
    <glyph glyph-name="backslash" unicode="\" horiz-adv-x="379" 
d="M354 -162h-34l-295 904h34z" />
    <glyph glyph-name="bracketright" unicode="]" horiz-adv-x="372" 
d="M250 -162h-214v30h181v844h-181v30h214v-904z" />
    <glyph glyph-name="asciicircum" unicode="^" 
d="M69 236l208 438h26l208 -438h-35l-186 394l-187 -394h-34z" />
    <glyph glyph-name="underscore" unicode="_" horiz-adv-x="456" 
d="M30 -84v29h396v-29h-396z" />
    <glyph glyph-name="grave" unicode="`" horiz-adv-x="225" 
d="M160 614l-130 164h43l122 -164h-35z" />
    <glyph glyph-name="a" unicode="a" horiz-adv-x="512" 
d="M209 -12q-70 0 -109 36.5t-39 102.5q0 75 51.5 115t148.5 40h128v48q0 87 -31 122.5t-105 35.5q-39 0 -75 -9t-78 -29l-11 25q34 20 77.5 31t88.5 11q87 0 126.5 -42t39.5 -135v-340h-28l-4 79q-66 -91 -180 -91zM213 17q108 0 176 97v140h-126q-169 0 -169 -126
q0 -54 30.5 -82.5t88.5 -28.5z" />
    <glyph glyph-name="b" unicode="b" horiz-adv-x="564" 
d="M306 -13q-112 0 -176 87l-3 -74h-29v712h32v-282q66 87 176 87q94 0 143 -67.5t49 -197.5q0 -265 -192 -265zM302 16q163 0 163 236t-163 236q-51 0 -92.5 -22t-79.5 -69v-290q71 -91 172 -91z" />
    <glyph glyph-name="c" unicode="c" horiz-adv-x="455" 
d="M270 -13q-101 0 -154 67t-53 195q0 129 55 198.5t157 69.5q39 0 74.5 -9t58.5 -25l-13 -27q-52 31 -119 31q-180 0 -180 -238q0 -114 44.5 -173t129.5 -59q81 0 128 38l12 -27q-50 -41 -140 -41z" />
    <glyph glyph-name="d" unicode="d" horiz-adv-x="564" 
d="M258 -13q-94 0 -143 67.5t-49 197.5q0 265 192 265q112 0 176 -87v282h32v-712h-29l-3 74q-65 -87 -176 -87zM262 16q51 0 92.5 22t79.5 69v290q-71 91 -172 91q-163 0 -163 -236t163 -236z" />
    <glyph glyph-name="e" unicode="e" horiz-adv-x="507" 
d="M272 -13q-211 0 -211 261q0 128 53 198.5t150 70.5q94 0 143 -65t49 -188v-21h-362q3 -226 180 -226q87 0 142 47l15 -26q-60 -51 -159 -51zM264 487q-79 0 -123 -56.5t-47 -159.5h329q-1 105 -41.5 160.5t-117.5 55.5z" />
    <glyph glyph-name="f" unicode="f" horiz-adv-x="336" 
d="M120 0v476h-102v28h102v58q0 156 139 156q15 0 32.5 -2.5t35.5 -7.5v-28q-21 5 -34 6.5t-28 1.5q-62 0 -87.5 -29.5t-25.5 -100.5v-54h175v-28h-175v-476h-32z" />
    <glyph glyph-name="g" unicode="g" horiz-adv-x="564" 
d="M265 -201q-102 0 -173 44l13 28q68 -43 159 -43q87 0 128.5 45.5t41.5 140.5v66q-65 -87 -176 -87q-94 0 -143 67.5t-49 197.5q0 259 192 259q112 0 176 -87l3 74h29v-492q0 -213 -201 -213zM262 22q51 0 92.5 22t79.5 69v284q-71 91 -172 91q-163 0 -163 -230
q0 -236 163 -236z" />
    <glyph glyph-name="h" unicode="h" horiz-adv-x="557" 
d="M98 0v712h32v-284q65 89 181 89q80 0 118 -43.5t38 -134.5v-339h-32v334q0 80 -30.5 117t-97.5 37q-102 0 -177 -91v-397h-32z" />
    <glyph glyph-name="i" unicode="i" horiz-adv-x="245" 
d="M102 629v54h50v-54h-50zM115 0v476h-74v28h106v-504h-32z" />
    <glyph glyph-name="j" unicode="j" horiz-adv-x="245" 
d="M102 629v54h50v-54h-50zM59 -201q-35 0 -53 8v28q18 -6 45 -6q37 0 50.5 22t13.5 68v557h-74v28h106v-598q0 -51 -21.5 -79t-66.5 -28z" />
    <glyph glyph-name="k" unicode="k" horiz-adv-x="462" 
d="M98 0v712h32v-443l253 235h43l-257 -238l276 -266h-44l-271 261v-261h-32z" />
    <glyph glyph-name="l" unicode="l" horiz-adv-x="277" 
d="M181 -7q-43 0 -63 23t-20 72v624h32v-615q0 -44 12 -59t47 -15q21 0 50 8v-28q-24 -10 -58 -10z" />
    <glyph glyph-name="m" unicode="m" horiz-adv-x="852" 
d="M98 0v504h29l3 -75q59 88 165 88q111 0 141 -95q66 95 175 95q151 0 151 -178v-339h-32v334q0 79 -30 116.5t-93 37.5q-96 0 -165 -91q4 -24 4 -52v-345h-32v340q0 148 -125 148q-91 0 -159 -91v-397h-32z" />
    <glyph glyph-name="n" unicode="n" horiz-adv-x="557" 
d="M98 0v504h29l3 -76q65 89 181 89q80 0 118 -43.5t38 -134.5v-339h-32v334q0 80 -30.5 117t-97.5 37q-102 0 -177 -91v-397h-32z" />
    <glyph glyph-name="o" unicode="o" horiz-adv-x="536" 
d="M268 -13q-100 0 -152.5 68t-52.5 197t52.5 197t152.5 68t152.5 -68t52.5 -197t-52.5 -197t-152.5 -68zM268 17q172 0 172 235t-172 235t-172 -235t172 -235z" />
    <glyph glyph-name="p" unicode="p" horiz-adv-x="564" 
d="M98 -192v696h29l3 -75q65 88 176 88q94 0 143 -67.5t49 -197.5q0 -265 -192 -265q-112 0 -176 87v-266h-32zM302 16q163 0 163 236t-163 236q-51 0 -92.5 -22t-79.5 -69v-290q71 -91 172 -91z" />
    <glyph glyph-name="q" unicode="q" horiz-adv-x="564" 
d="M434 -192v266q-65 -87 -176 -87q-94 0 -143 67.5t-49 197.5q0 265 192 265q112 0 176 -87l3 74h29v-696h-32zM262 16q51 0 92.5 22t79.5 69v290q-71 91 -172 91q-163 0 -163 -236t163 -236z" />
    <glyph glyph-name="r" unicode="r" horiz-adv-x="355" 
d="M98 0v504h29l3 -92q65 95 186 95h16v-32h-8q-129 0 -194 -102v-373h-32z" />
    <glyph glyph-name="s" unicode="s" horiz-adv-x="439" 
d="M215 -13q-52 0 -95.5 12t-75.5 35l14 28q38 -25 73 -35t84 -10q62 0 100 30.5t38 80.5q0 48 -27 74t-92 39l-37 8q-76 17 -107 47t-31 85q0 62 45.5 99t121.5 37q89 0 149 -36l-13 -26q-57 32 -135 32q-62 0 -98.5 -28t-36.5 -76q0 -43 26.5 -66.5t92.5 -37.5l32 -7
q79 -17 111 -49t32 -93q0 -66 -45.5 -104.5t-125.5 -38.5z" />
    <glyph glyph-name="t" unicode="t" horiz-adv-x="365" 
d="M246 -7q-67 0 -95.5 34.5t-28.5 115.5v333h-101v26l70 2q20 1 27.5 7.5t8.5 24.5l5 99h22v-131h182v-28h-182v-325q0 -74 21.5 -101t79.5 -27q17 0 31.5 2t38.5 6v-28q-31 -10 -79 -10z" />
    <glyph glyph-name="u" unicode="u" horiz-adv-x="551" 
d="M240 -13q-76 0 -113 42.5t-37 130.5v344h32v-339q0 -78 29 -113.5t93 -35.5q104 0 177 91v397h32v-504h-29l-3 73q-68 -86 -181 -86z" />
    <glyph glyph-name="v" unicode="v" horiz-adv-x="464" 
d="M211 0l-184 504h36l170 -473l170 473h34l-184 -504h-42z" />
    <glyph glyph-name="w" unicode="w" horiz-adv-x="701" 
d="M168 0l-140 504h34l128 -477l140 454h40l140 -451l130 474h33l-141 -504h-44l-138 446l-138 -446h-44z" />
    <glyph glyph-name="x" unicode="x" horiz-adv-x="446" 
d="M33 0l168 257l-161 247h38l144 -222l146 222h37l-162 -246l170 -258h-38l-153 232l-152 -232h-37z" />
    <glyph glyph-name="y" unicode="y" horiz-adv-x="457" 
d="M83 -201q-29 0 -47 8v28q11 -3 20.5 -4.5t22.5 -1.5q31 0 51 9.5t35 34t31 69.5l15 42l-189 520h36l169 -475l170 475h33l-216 -596q-22 -61 -51 -85t-80 -24z" />
    <glyph glyph-name="z" unicode="z" horiz-adv-x="458" 
d="M56 0v24l302 452h-296v28h335v-25l-301 -451h306v-28h-346z" />
    <glyph glyph-name="braceleft" unicode="{" horiz-adv-x="411" 
d="M288 -173q-65 0 -101 29t-36 87q0 29 10 60t35 81q23 47 31 70t8 43q0 34 -21 56t-74 22h-79v30h79q53 0 74 22.5t21 55.5q0 20 -8 43t-31 70q-25 50 -35 81.5t-10 59.5q0 58 36 87t101 29q18 0 38 -2.5t49 -10.5v-30q-29 8 -50.5 10t-35.5 2q-49 0 -77 -20t-28 -65
q0 -25 9.5 -53.5t33.5 -78.5q23 -48 32 -74t9 -47q0 -34 -18.5 -61t-55.5 -33q37 -6 55.5 -33t18.5 -61q0 -21 -9 -47t-32 -74q-24 -49 -33.5 -78t-9.5 -54q0 -45 28 -65t77 -20q14 0 35.5 2.5t50.5 9.5v-30q-29 -7 -49 -10t-38 -3z" />
    <glyph glyph-name="bar" unicode="|" horiz-adv-x="275" 
d="M122 -192v934h31v-934h-31z" />
    <glyph glyph-name="braceright" unicode="}" horiz-adv-x="411" 
d="M123 -173q-18 0 -38 3t-49 10v30q29 -7 50.5 -9.5t35.5 -2.5q50 0 77.5 20t27.5 65q0 25 -9.5 54t-33.5 78q-23 48 -32 74t-9 47q0 34 18.5 61t55.5 33q-37 6 -55.5 33t-18.5 61q0 21 9 47t32 74q24 50 33.5 78.5t9.5 53.5q0 45 -27.5 65t-77.5 20q-14 0 -35.5 -2
t-50.5 -10v30q29 8 49 10.5t38 2.5q65 0 101 -29t36 -87q0 -28 -10 -59.5t-35 -81.5q-23 -47 -31 -70t-8 -43q0 -33 21.5 -55.5t73.5 -22.5h79v-30h-79q-52 0 -73.5 -22t-21.5 -56q0 -20 8 -43t31 -70q25 -50 35 -81t10 -60q0 -58 -36 -87t-101 -29z" />
    <glyph glyph-name="asciitilde" unicode="~" 
d="M415 216q-34 0 -59 17.5t-60 65.5l-35 48q-31 42 -51.5 57.5t-46.5 15.5q-31 0 -49 -17t-25 -60t-7 -120h-30q0 86 10.5 135.5t34.5 70.5t67 21q34 0 59.5 -17.5t60.5 -65.5l35 -48q31 -42 52 -57.5t46 -15.5q31 0 48.5 18t25 61t7.5 118h30q0 -84 -10.5 -133.5
t-35.5 -71.5t-67 -22z" />
    <glyph glyph-name="uni00A0" unicode="&#xa0;" horiz-adv-x="229" 
 />
    <glyph glyph-name="exclamdown" unicode="&#xa1;" horiz-adv-x="207" 
d="M82 434v70h43v-70h-43zM86 -170l3 495h29l3 -495h-35z" />
    <glyph glyph-name="cent" unicode="&#xa2;" 
d="M292 -48v85q-189 18 -189 255q0 239 189 262v85h31v-83h10q75 0 140 -34l-13 -27q-31 15 -66 23.5t-67 8.5h-4v-463h3q33 0 68.5 10t68.5 28l12 -26q-63 -41 -149 -41h-3v-83h-31zM135 293q0 -207 157 -227v459q-157 -20 -157 -232z" />
    <glyph glyph-name="sterling" unicode="&#xa3;" 
d="M91 0v29q42 41 64.5 71.5t31.5 61.5t9 70q0 28 -4 52t-10 45h-114v29h105q-12 37 -24 73.5t-12 83.5q0 80 56 126t152 46q81 0 143 -40l-14 -26q-59 34 -129 34q-83 0 -129 -38t-46 -107q0 -41 12 -77l25 -75h215v-29h-206q5 -22 9 -46t4 -52q0 -60 -21 -105t-74 -97h374
v-29h-417z" />
    <glyph glyph-name="currency" unicode="&#xa4;" 
d="M88 109l-21 20l89 89q-37 46 -37 114q0 67 36 113l-88 88l21 21l87 -87q46 39 115 39t115 -39l87 87l21 -20l-88 -88q36 -46 36 -114t-36 -114l88 -88l-21 -21l-88 88q-46 -40 -114 -40t-114 40zM290 186q62 0 100.5 40t38.5 106q0 65 -38.5 105t-100.5 40t-100.5 -40
t-38.5 -105q0 -66 38.5 -106t100.5 -40z" />
    <glyph glyph-name="yen" unicode="&#xa5;" 
d="M113 133v25h160v115h-160v25h150l-206 376h40l194 -361l196 361h37l-206 -376h149v-25h-160v-115h160v-25h-160v-133h-34v133h-160z" />
    <glyph glyph-name="section" unicode="&#xa7;" horiz-adv-x="542" 
d="M264 -52q-53 0 -102.5 11t-86.5 31l12 28q36 -19 82 -29.5t94 -10.5q79 0 120 28t41 83q0 51 -32.5 75.5t-110.5 32.5l-38 4q-91 10 -129 41.5t-38 96.5q0 40 21.5 72t60.5 51q-73 32 -73 116q0 66 51 103t142 37q53 0 102.5 -11t86.5 -31l-12 -28q-36 19 -82 29.5
t-94 10.5q-79 0 -120 -28t-41 -83q0 -51 32.5 -75.5t110.5 -32.5l38 -4q90 -10 128.5 -42t38.5 -97q0 -39 -21.5 -71t-60.5 -51q73 -32 73 -116q0 -66 -51 -103t-142 -37zM297 225q32 -3 57 -10q37 15 58.5 44.5t21.5 64.5q0 54 -32 79t-109 33l-48 5q-32 3 -57 10
q-37 -15 -58.5 -45t-21.5 -65q0 -54 31 -78.5t110 -32.5z" />
    <glyph glyph-name="dieresis" unicode="&#xa8;" horiz-adv-x="286" 
d="M30 629v54h50v-54h-50zM206 629v54h50v-54h-50z" />
    <glyph glyph-name="copyright" unicode="&#xa9;" horiz-adv-x="794" 
d="M395 -13q-103 0 -178.5 42.5t-116 120.5t-40.5 186q0 107 41.5 186t117 122t178.5 43t178.5 -43t117 -122t41.5 -186t-41.5 -185.5t-117.5 -121t-180 -42.5zM395 16q94 0 163 39.5t107 111.5t38 169q0 98 -37.5 170.5t-106.5 112t-162 39.5q-92 0 -161 -40t-107 -112
t-38 -170t37.5 -170t105.5 -111t161 -39zM408 139q-164 0 -164 193q0 101 44 154t126 53q59 0 102 -24l-11 -26q-37 21 -89 21q-138 0 -138 -178q0 -164 134 -164q56 0 93 21l10 -26q-46 -24 -107 -24z" />
    <glyph glyph-name="ordfeminine" unicode="&#xaa;" horiz-adv-x="396" 
d="M168 305q-52 0 -81 28t-29 77q0 53 36.5 81t106.5 28h91v31q0 60 -21 84.5t-73 24.5q-28 0 -53.5 -6t-56.5 -20l-9 25q26 14 58 21.5t64 7.5q64 0 93 -30.5t29 -98.5v-244h-27l-3 54q-45 -63 -125 -63zM172 333q72 0 120 64v97h-89q-113 0 -113 -85q0 -76 82 -76z" />
    <glyph glyph-name="guillemotleft" unicode="&#xab;" horiz-adv-x="581" 
d="M263 47l-208 213l208 213h42l-207 -213l208 -213h-43zM478 47l-208 213l208 213h42l-207 -213l208 -213h-43z" />
    <glyph glyph-name="logicalnot" unicode="&#xac;" 
d="M472 213v203h-402v29h432v-232h-30z" />
    <glyph glyph-name="uni00AD" unicode="&#xad;" horiz-adv-x="401" 
d="M71 260v32h259v-32h-259z" />
    <glyph glyph-name="registered" unicode="&#xae;" horiz-adv-x="575" 
d="M287 214q-70 0 -122.5 29.5t-81.5 82.5t-29 124t29 124.5t82 83t123 29.5q71 0 123 -29.5t81 -82.5t29 -124t-29 -124.5t-81.5 -83t-123.5 -29.5zM287 241q94 0 149.5 57t55.5 152t-55.5 152.5t-148.5 57.5t-149 -57t-56 -152t55.5 -152.5t148.5 -57.5zM206 325v261h85
q40 0 62.5 -20.5t22.5 -58.5q0 -31 -15.5 -49.5t-41.5 -22.5l72 -110h-32l-68 106h-58v-106h-27zM290 561h-57v-105h58q57 0 57 52q0 28 -13.5 40.5t-44.5 12.5z" />
    <glyph glyph-name="degree" unicode="&#xb0;" horiz-adv-x="440" 
d="M220 395q-63 0 -102.5 40.5t-39.5 105.5t39.5 105.5t102.5 40.5t102.5 -40.5t39.5 -105.5t-39.5 -105.5t-102.5 -40.5zM220 423q50 0 80 32t30 86q0 53 -30 85.5t-80 32.5q-49 0 -79.5 -32.5t-30.5 -85.5t30 -85.5t80 -32.5z" />
    <glyph glyph-name="uni00B2" unicode="&#xb2;" horiz-adv-x="344" 
d="M48 400v26l120 101q46 39 64 67.5t18 61.5q0 39 -23 60t-66 21q-52 0 -93 -32l-14 23q41 37 109 37q57 0 88 -29t31 -82q0 -40 -20 -72t-72 -75l-94 -78h201v-29h-249z" />
    <glyph glyph-name="uni00B3" unicode="&#xb3;" horiz-adv-x="345" 
d="M161 391q-74 0 -124 39l13 24q47 -35 110 -35q47 0 72.5 20t25.5 57q0 33 -26.5 51.5t-74.5 18.5h-44l1 28h43q43 0 68 20t25 54q0 32 -23.5 50.5t-64.5 18.5q-55 0 -98 -32l-14 23q21 17 52 27t63 10q53 0 85 -25.5t32 -69.5q0 -34 -19.5 -57.5t-51.5 -31.5
q37 -6 58 -29.5t21 -58.5q0 -47 -35 -74.5t-94 -27.5z" />
    <glyph glyph-name="acute" unicode="&#xb4;" horiz-adv-x="225" 
d="M30 614l122 164h43l-130 -164h-35z" />
    <glyph glyph-name="paragraph" unicode="&#xb6;" horiz-adv-x="568" 
d="M312 -192v442h-34q-113 0 -164.5 55.5t-51.5 156.5t51.5 156.5t164.5 55.5h68v-866h-34zM412 -192v866h34v-866h-34z" />
    <glyph glyph-name="periodcentered" unicode="&#xb7;" horiz-adv-x="187" 
d="M72 220v70h43v-70h-43z" />
    <glyph glyph-name="cedilla" unicode="&#xb8;" horiz-adv-x="271" 
d="M123 -239q-22 0 -44.5 3t-48.5 12v28q26 -8 49.5 -10.5t41.5 -2.5q46 0 66.5 14.5t20.5 45.5q0 32 -23.5 47t-85.5 18l19 95l30 -1l-14 -68q50 -6 78.5 -26.5t28.5 -65.5q0 -89 -118 -89z" />
    <glyph glyph-name="uni00B9" unicode="&#xb9;" horiz-adv-x="253" 
d="M139 400v293h-99v27l71 2q17 1 23 6.5t8 21.5l2 14h26v-364h-31z" />
    <glyph glyph-name="ordmasculine" unicode="&#xba;" horiz-adv-x="408" 
d="M204 305q-72 0 -110 49t-38 142t38 142t110 49t110 -49t38 -142t-38 -142t-110 -49zM204 333q116 0 116 163t-116 163t-116 -163t116 -163z" />
    <glyph glyph-name="guillemotright" unicode="&#xbb;" horiz-adv-x="581" 
d="M103 47h-43l208 213l-207 213h42l208 -213zM318 47h-43l208 213l-207 213h42l208 -213z" />
    <glyph glyph-name="onequarter" unicode="&#xbc;" horiz-adv-x="729" 
d="M124 0l409 674h39l-409 -674h-39zM588 0v90h-189v25l178 241h41v-239h70v-27h-70v-90h-30zM435 117h153v207zM139 318v293h-99v27l71 2q17 1 23 6.5t8 21.5l2 14h26v-364h-31z" />
    <glyph glyph-name="onehalf" unicode="&#xbd;" horiz-adv-x="766" 
d="M124 0l409 674h39l-409 -674h-39zM470 0v26l120 101q46 39 64 67.5t18 61.5q0 39 -23 60t-66 21q-52 0 -93 -32l-14 23q41 37 109 37q57 0 88 -29t31 -82q0 -40 -20 -72t-72 -75l-94 -78h201v-29h-249zM139 318v293h-99v27l71 2q17 1 23 6.5t8 21.5l2 14h26v-364h-31z
" />
    <glyph glyph-name="threequarters" unicode="&#xbe;" horiz-adv-x="802" 
d="M197 0l409 674h39l-409 -674h-39zM661 0v90h-189v25l178 241h41v-239h70v-27h-70v-90h-30zM508 117h153v207zM161 309q-74 0 -124 39l13 24q47 -35 110 -35q47 0 72.5 20t25.5 57q0 33 -26.5 51.5t-74.5 18.5h-44l1 28h43q43 0 68 20t25 54q0 32 -23.5 50.5t-64.5 18.5
q-55 0 -98 -32l-14 23q21 17 52 27t63 10q53 0 85 -25.5t32 -69.5q0 -34 -19.5 -57.5t-51.5 -31.5q37 -6 58 -29.5t21 -58.5q0 -47 -35 -74.5t-94 -27.5z" />
    <glyph glyph-name="questiondown" unicode="&#xbf;" horiz-adv-x="473" 
d="M245 434v70h43v-70h-43zM248 -184q-94 0 -145 43.5t-51 122.5q0 50 22.5 89t80.5 86q39 32 59.5 56.5t28.5 50.5t8 61h30q0 -42 -9 -73t-31.5 -58.5t-63.5 -60.5q-35 -28 -55 -51t-28 -46t-8 -53q0 -136 163 -136q91 0 174 44l11 -27q-82 -48 -186 -48z" />
    <glyph glyph-name="Agrave" unicode="&#xc0;" horiz-adv-x="596" 
d="M39 0l238 674h45l235 -674h-35l-71 203h-305l-71 -203h-36zM157 233h283l-141 405zM293 753l-136 143h46l130 -143h-40z" />
    <glyph glyph-name="Aacute" unicode="&#xc1;" horiz-adv-x="596" 
d="M39 0l238 674h45l235 -674h-35l-71 203h-305l-71 -203h-36zM157 233h283l-141 405zM245 753l130 143h46l-136 -143h-40z" />
    <glyph glyph-name="Acircumflex" unicode="&#xc2;" horiz-adv-x="596" 
d="M39 0l238 674h45l235 -674h-35l-71 203h-305l-71 -203h-36zM157 233h283l-141 405zM164 753l120 143h34l117 -143h-39l-95 117l-98 -117h-39z" />
    <glyph glyph-name="Atilde" unicode="&#xc3;" horiz-adv-x="596" 
d="M39 0l238 674h45l235 -674h-35l-71 203h-305l-71 -203h-36zM157 233h283l-141 405zM143 753q0 77 16.5 109.5t59.5 32.5q30 0 47.5 -14t35.5 -37l20 -26q15 -19 27.5 -30t31.5 -11q28 0 37 26t9 88h30q0 -77 -16.5 -109.5t-59.5 -32.5q-30 0 -47 14t-35 37l-20 26
q-15 20 -28 30.5t-32 10.5q-28 0 -37 -26t-9 -88h-30z" />
    <glyph glyph-name="Adieresis" unicode="&#xc4;" horiz-adv-x="596" 
d="M39 0l238 674h45l235 -674h-35l-71 203h-305l-71 -203h-36zM157 233h283l-141 405zM187 781v54h50v-54h-50zM363 781v54h50v-54h-50z" />
    <glyph glyph-name="Aring" unicode="&#xc5;" horiz-adv-x="596" 
d="M39 0l238 674h45l235 -674h-35l-71 203h-305l-71 -203h-36zM157 233h283l-141 405zM300 736q-39 0 -63.5 24.5t-24.5 64.5t24.5 64.5t63.5 24.5t63.5 -24.5t24.5 -64.5t-24.5 -64.5t-63.5 -24.5zM300 762q26 0 42.5 17t16.5 46t-16.5 46t-42.5 17t-42.5 -17t-16.5 -46
t16.5 -46t42.5 -17z" />
    <glyph glyph-name="AE" unicode="&#xc6;" horiz-adv-x="907" 
d="M29 0l426 674h383v-31h-330v-282h277v-31h-277v-299h334v-31h-368v203h-277l-128 -203h-40zM216 233h258v409z" />
    <glyph glyph-name="Ccedilla" unicode="&#xc7;" horiz-adv-x="552" 
d="M331 -13q-261 0 -261 337q0 175 70.5 269t201.5 94q88 0 160 -40l-12 -27q-67 35 -147 35q-116 0 -177 -85t-61 -246q0 -154 57 -229.5t173 -75.5q45 0 86 9t71 25l12 -27q-31 -18 -77 -28.5t-96 -10.5zM321 -239q-25 0 -47 3.5t-46 12.5v28q26 -8 46 -11t47 -3
q79 0 79 58q0 33 -21.5 48t-87.5 19l19 95l30 -1l-14 -68q49 -6 78 -26.5t29 -66.5q0 -42 -29.5 -65t-82.5 -23z" />
    <glyph glyph-name="Egrave" unicode="&#xc8;" horiz-adv-x="559" 
d="M115 0v674h375v-31h-341v-282h288v-31h-288v-299h345v-31h-379zM296 753l-136 143h46l130 -143h-40z" />
    <glyph glyph-name="Eacute" unicode="&#xc9;" horiz-adv-x="559" 
d="M115 0v674h375v-31h-341v-282h288v-31h-288v-299h345v-31h-379zM248 753l130 143h46l-136 -143h-40z" />
    <glyph glyph-name="Ecircumflex" unicode="&#xca;" horiz-adv-x="559" 
d="M115 0v674h375v-31h-341v-282h288v-31h-288v-299h345v-31h-379zM167 753l120 143h34l117 -143h-39l-95 117l-98 -117h-39z" />
    <glyph glyph-name="Edieresis" unicode="&#xcb;" horiz-adv-x="559" 
d="M115 0v674h375v-31h-341v-282h288v-31h-288v-299h345v-31h-379zM190 781v54h50v-54h-50zM366 781v54h50v-54h-50z" />
    <glyph glyph-name="Igrave" unicode="&#xcc;" horiz-adv-x="264" 
d="M115 0v674h34v-674h-34zM125 753l-136 143h46l130 -143h-40z" />
    <glyph glyph-name="Iacute" unicode="&#xcd;" horiz-adv-x="264" 
d="M115 0v674h34v-674h-34zM77 753l130 143h46l-136 -143h-40z" />
    <glyph glyph-name="Icircumflex" unicode="&#xce;" horiz-adv-x="264" 
d="M115 0v674h34v-674h-34zM-4 753l120 143h34l117 -143h-39l-95 117l-98 -117h-39z" />
    <glyph glyph-name="Idieresis" unicode="&#xcf;" horiz-adv-x="264" 
d="M115 0v674h34v-674h-34zM19 781v54h50v-54h-50zM195 781v54h50v-54h-50z" />
    <glyph glyph-name="Eth" unicode="&#xd0;" horiz-adv-x="659" 
d="M124 0v330h-84v31h84v313h184q142 0 212.5 -86.5t70.5 -250.5t-70.5 -250.5t-212.5 -86.5h-184zM345 330h-187v-299h144q131 0 192.5 77.5t61.5 228.5q0 152 -61.5 229t-192.5 77h-144v-282h187v-31z" />
    <glyph glyph-name="Ntilde" unicode="&#xd1;" horiz-adv-x="679" 
d="M115 0v674h46l369 -631v631h34v-674h-46l-369 631v-631h-34zM183 753q0 77 16.5 109.5t59.5 32.5q30 0 47.5 -14t35.5 -37l20 -26q15 -19 27.5 -30t31.5 -11q28 0 37 26t9 88h30q0 -77 -16.5 -109.5t-59.5 -32.5q-30 0 -47 14t-35 37l-20 26q-15 20 -28 30.5t-32 10.5
q-28 0 -37 -26t-9 -88h-30z" />
    <glyph glyph-name="Ograve" unicode="&#xd2;" horiz-adv-x="660" 
d="M330 -13q-125 0 -191.5 90t-66.5 260t66.5 260t191.5 90t191.5 -90t66.5 -260t-66.5 -260t-191.5 -90zM330 19q109 0 166 81.5t57 236.5t-57 236.5t-166 81.5t-166 -81.5t-57 -236.5t57 -236.5t166 -81.5zM323 753l-136 143h46l130 -143h-40z" />
    <glyph glyph-name="Oacute" unicode="&#xd3;" horiz-adv-x="660" 
d="M330 -13q-125 0 -191.5 90t-66.5 260t66.5 260t191.5 90t191.5 -90t66.5 -260t-66.5 -260t-191.5 -90zM330 19q109 0 166 81.5t57 236.5t-57 236.5t-166 81.5t-166 -81.5t-57 -236.5t57 -236.5t166 -81.5zM275 753l130 143h46l-136 -143h-40z" />
    <glyph glyph-name="Ocircumflex" unicode="&#xd4;" horiz-adv-x="660" 
d="M330 -13q-125 0 -191.5 90t-66.5 260t66.5 260t191.5 90t191.5 -90t66.5 -260t-66.5 -260t-191.5 -90zM330 19q109 0 166 81.5t57 236.5t-57 236.5t-166 81.5t-166 -81.5t-57 -236.5t57 -236.5t166 -81.5zM194 753l120 143h34l117 -143h-39l-95 117l-98 -117h-39z" />
    <glyph glyph-name="Otilde" unicode="&#xd5;" horiz-adv-x="660" 
d="M330 -13q-125 0 -191.5 90t-66.5 260t66.5 260t191.5 90t191.5 -90t66.5 -260t-66.5 -260t-191.5 -90zM330 19q109 0 166 81.5t57 236.5t-57 236.5t-166 81.5t-166 -81.5t-57 -236.5t57 -236.5t166 -81.5zM173 753q0 77 16.5 109.5t59.5 32.5q30 0 47.5 -14t35.5 -37
l20 -26q15 -19 27.5 -30t31.5 -11q28 0 37 26t9 88h30q0 -77 -16.5 -109.5t-59.5 -32.5q-30 0 -47 14t-35 37l-20 26q-15 20 -28 30.5t-32 10.5q-28 0 -37 -26t-9 -88h-30z" />
    <glyph glyph-name="Odieresis" unicode="&#xd6;" horiz-adv-x="660" 
d="M330 -13q-125 0 -191.5 90t-66.5 260t66.5 260t191.5 90t191.5 -90t66.5 -260t-66.5 -260t-191.5 -90zM330 19q109 0 166 81.5t57 236.5t-57 236.5t-166 81.5t-166 -81.5t-57 -236.5t57 -236.5t166 -81.5zM217 781v54h50v-54h-50zM393 781v54h50v-54h-50z" />
    <glyph glyph-name="multiply" unicode="&#xd7;" 
d="M117 141l-21 21l173 172l-173 172l21 21l173 -172l172 172l21 -21l-172 -172l172 -172l-21 -21l-172 172z" />
    <glyph glyph-name="Oslash" unicode="&#xd8;" horiz-adv-x="660" 
d="M100 -20l-25 18l59 85q-62 90 -62 254q0 170 66.5 260t191.5 90q111 0 176 -71l54 78l25 -18l-59 -85q62 -90 62 -254q0 -170 -66.5 -260t-191.5 -90q-111 0 -176 71zM107 337q0 -143 49 -223l330 473q-56 68 -156 68q-109 0 -166 -81.5t-57 -236.5zM330 19
q109 0 166 81.5t57 236.5q0 143 -48 224l-330 -475q56 -67 155 -67z" />
    <glyph glyph-name="Ugrave" unicode="&#xd9;" horiz-adv-x="649" 
d="M325 -13q-115 0 -168 66.5t-53 208.5v412h34v-417q0 -124 45 -181t142 -57q98 0 142 56.5t44 181.5v417h34v-412q0 -143 -52.5 -209t-167.5 -66zM318 753l-136 143h46l130 -143h-40z" />
    <glyph glyph-name="Uacute" unicode="&#xda;" horiz-adv-x="649" 
d="M325 -13q-115 0 -168 66.5t-53 208.5v412h34v-417q0 -124 45 -181t142 -57q98 0 142 56.5t44 181.5v417h34v-412q0 -143 -52.5 -209t-167.5 -66zM270 753l130 143h46l-136 -143h-40z" />
    <glyph glyph-name="Ucircumflex" unicode="&#xdb;" horiz-adv-x="649" 
d="M325 -13q-115 0 -168 66.5t-53 208.5v412h34v-417q0 -124 45 -181t142 -57q98 0 142 56.5t44 181.5v417h34v-412q0 -143 -52.5 -209t-167.5 -66zM189 753l120 143h34l117 -143h-39l-95 117l-98 -117h-39z" />
    <glyph glyph-name="Udieresis" unicode="&#xdc;" horiz-adv-x="649" 
d="M325 -13q-115 0 -168 66.5t-53 208.5v412h34v-417q0 -124 45 -181t142 -57q98 0 142 56.5t44 181.5v417h34v-412q0 -143 -52.5 -209t-167.5 -66zM212 781v54h50v-54h-50zM388 781v54h50v-54h-50z" />
    <glyph glyph-name="Yacute" unicode="&#xdd;" horiz-adv-x="545" 
d="M255 0v250l-226 424h40l205 -389l205 389h37l-227 -425v-249h-34zM219 753l130 143h46l-136 -143h-40z" />
    <glyph glyph-name="Thorn" unicode="&#xde;" horiz-adv-x="596" 
d="M115 0v674h34v-131h184q107 0 159 -48.5t52 -148.5q0 -197 -211 -197h-184v-149h-34zM328 512h-179v-332h179q95 0 138 39.5t43 126.5q0 86 -43 126t-138 40z" />
    <glyph glyph-name="germandbls" unicode="&#xdf;" 
d="M322 -7q-49 0 -82 11v28q36 -9 80 -9q164 0 164 162q0 86 -47.5 131.5t-138.5 45.5h-30v28h30q71 0 109.5 39t38.5 110t-40.5 110t-114.5 39q-161 0 -161 -176v-512h-32v514q0 204 193 204q89 0 138.5 -47.5t49.5 -133.5q0 -121 -108 -158q70 -13 108 -64t38 -131
q0 -191 -195 -191z" />
    <glyph glyph-name="agrave" unicode="&#xe0;" horiz-adv-x="512" 
d="M209 -12q-70 0 -109 36.5t-39 102.5q0 75 51.5 115t148.5 40h128v48q0 87 -31 122.5t-105 35.5q-39 0 -75 -9t-78 -29l-11 25q34 20 77.5 31t88.5 11q87 0 126.5 -42t39.5 -135v-340h-28l-4 79q-66 -91 -180 -91zM213 17q108 0 176 97v140h-126q-169 0 -169 -126
q0 -54 30.5 -82.5t88.5 -28.5zM264 614l-130 164h43l122 -164h-35z" />
    <glyph glyph-name="aacute" unicode="&#xe1;" horiz-adv-x="512" 
d="M209 -12q-70 0 -109 36.5t-39 102.5q0 75 51.5 115t148.5 40h128v48q0 87 -31 122.5t-105 35.5q-39 0 -75 -9t-78 -29l-11 25q34 20 77.5 31t88.5 11q87 0 126.5 -42t39.5 -135v-340h-28l-4 79q-66 -91 -180 -91zM213 17q108 0 176 97v140h-126q-169 0 -169 -126
q0 -54 30.5 -82.5t88.5 -28.5zM217 614l122 164h43l-130 -164h-35z" />
    <glyph glyph-name="acircumflex" unicode="&#xe2;" horiz-adv-x="512" 
d="M209 -12q-70 0 -109 36.5t-39 102.5q0 75 51.5 115t148.5 40h128v48q0 87 -31 122.5t-105 35.5q-39 0 -75 -9t-78 -29l-11 25q34 20 77.5 31t88.5 11q87 0 126.5 -42t39.5 -135v-340h-28l-4 79q-66 -91 -180 -91zM213 17q108 0 176 97v140h-126q-169 0 -169 -126
q0 -54 30.5 -82.5t88.5 -28.5zM117 614l123 164h34l123 -164h-37l-103 137l-103 -137h-37z" />
    <glyph glyph-name="atilde" unicode="&#xe3;" horiz-adv-x="512" 
d="M209 -12q-70 0 -109 36.5t-39 102.5q0 75 51.5 115t148.5 40h128v48q0 87 -31 122.5t-105 35.5q-39 0 -75 -9t-78 -29l-11 25q34 20 77.5 31t88.5 11q87 0 126.5 -42t39.5 -135v-340h-28l-4 79q-66 -91 -180 -91zM213 17q108 0 176 97v140h-126q-169 0 -169 -126
q0 -54 30.5 -82.5t88.5 -28.5zM100 614q0 83 17 115t60 32q26 0 43.5 -12t39.5 -41l19 -26q18 -24 30.5 -33.5t28.5 -9.5q27 0 36.5 24.5t9.5 94.5h31q0 -83 -17 -115t-61 -32q-25 0 -42.5 12t-39.5 41l-19 26q-18 24 -30 33.5t-29 9.5q-27 0 -36.5 -25t-9.5 -94h-31z" />
    <glyph glyph-name="adieresis" unicode="&#xe4;" horiz-adv-x="512" 
d="M209 -12q-70 0 -109 36.5t-39 102.5q0 75 51.5 115t148.5 40h128v48q0 87 -31 122.5t-105 35.5q-39 0 -75 -9t-78 -29l-11 25q34 20 77.5 31t88.5 11q87 0 126.5 -42t39.5 -135v-340h-28l-4 79q-66 -91 -180 -91zM213 17q108 0 176 97v140h-126q-169 0 -169 -126
q0 -54 30.5 -82.5t88.5 -28.5zM145 629v54h50v-54h-50zM321 629v54h50v-54h-50z" />
    <glyph glyph-name="aring" unicode="&#xe5;" horiz-adv-x="512" 
d="M209 -12q-70 0 -109 36.5t-39 102.5q0 75 51.5 115t148.5 40h128v48q0 87 -31 122.5t-105 35.5q-39 0 -75 -9t-78 -29l-11 25q34 20 77.5 31t88.5 11q87 0 126.5 -42t39.5 -135v-340h-28l-4 79q-66 -91 -180 -91zM213 17q108 0 176 97v140h-126q-169 0 -169 -126
q0 -54 30.5 -82.5t88.5 -28.5zM258 610q-39 0 -63.5 24.5t-24.5 64.5t24.5 64.5t63.5 24.5t63.5 -24.5t24.5 -64.5t-24.5 -64.5t-63.5 -24.5zM258 636q26 0 42.5 17t16.5 46t-16.5 46t-42.5 17t-42.5 -17t-16.5 -46t16.5 -46t42.5 -17z" />
    <glyph glyph-name="ae" unicode="&#xe6;" horiz-adv-x="824" 
d="M209 -12q-70 0 -109 36.5t-39 102.5q0 71 51.5 109t148.5 38h125q0 84 -12 130.5t-41 65t-80 18.5q-39 0 -75 -9t-78 -29l-11 25q34 20 77.5 31t88.5 11q71 0 108.5 -30t46.5 -96q43 126 174 126q91 0 140 -64.5t49 -185.5v-21h-355q2 -229 178 -229q86 0 141 47l15 -26
q-63 -51 -158 -51q-136 0 -184 115q-72 -114 -201 -114zM584 487q-77 0 -120 -55t-46 -158h322q-1 102 -41.5 157.5t-114.5 55.5zM213 17q115 0 187 114q-14 50 -14 115h-123q-169 0 -169 -118q0 -54 30.5 -82.5t88.5 -28.5z" />
    <glyph glyph-name="ccedilla" unicode="&#xe7;" horiz-adv-x="455" 
d="M270 -13q-101 0 -154 67t-53 195q0 129 55 198.5t157 69.5q39 0 74.5 -9t58.5 -25l-13 -27q-52 31 -119 31q-180 0 -180 -238q0 -114 44.5 -173t129.5 -59q81 0 128 38l12 -27q-50 -41 -140 -41zM246 -239q-22 0 -44.5 3t-48.5 12v28q26 -8 49.5 -10.5t41.5 -2.5
q46 0 66.5 14.5t20.5 45.5q0 32 -23.5 47t-85.5 18l19 95l30 -1l-14 -68q50 -6 78.5 -26.5t28.5 -65.5q0 -89 -118 -89z" />
    <glyph glyph-name="egrave" unicode="&#xe8;" horiz-adv-x="507" 
d="M272 -13q-211 0 -211 261q0 128 53 198.5t150 70.5q94 0 143 -65t49 -188v-21h-362q3 -226 180 -226q87 0 142 47l15 -26q-60 -51 -159 -51zM264 487q-79 0 -123 -56.5t-47 -159.5h329q-1 105 -41.5 160.5t-117.5 55.5zM272 614l-130 164h43l122 -164h-35z" />
    <glyph glyph-name="eacute" unicode="&#xe9;" horiz-adv-x="507" 
d="M272 -13q-211 0 -211 261q0 128 53 198.5t150 70.5q94 0 143 -65t49 -188v-21h-362q3 -226 180 -226q87 0 142 47l15 -26q-60 -51 -159 -51zM264 487q-79 0 -123 -56.5t-47 -159.5h329q-1 105 -41.5 160.5t-117.5 55.5zM225 614l122 164h43l-130 -164h-35z" />
    <glyph glyph-name="ecircumflex" unicode="&#xea;" horiz-adv-x="507" 
d="M272 -13q-211 0 -211 261q0 128 53 198.5t150 70.5q94 0 143 -65t49 -188v-21h-362q3 -226 180 -226q87 0 142 47l15 -26q-60 -51 -159 -51zM264 487q-79 0 -123 -56.5t-47 -159.5h329q-1 105 -41.5 160.5t-117.5 55.5zM125 614l123 164h34l123 -164h-37l-103 137
l-103 -137h-37z" />
    <glyph glyph-name="edieresis" unicode="&#xeb;" horiz-adv-x="507" 
d="M272 -13q-211 0 -211 261q0 128 53 198.5t150 70.5q94 0 143 -65t49 -188v-21h-362q3 -226 180 -226q87 0 142 47l15 -26q-60 -51 -159 -51zM264 487q-79 0 -123 -56.5t-47 -159.5h329q-1 105 -41.5 160.5t-117.5 55.5zM153 629v54h50v-54h-50zM329 629v54h50v-54h-50z
" />
    <glyph glyph-name="igrave" unicode="&#xec;" horiz-adv-x="245" 
d="M115 0v476h-74v28h106v-504h-32zM116 614l-130 164h43l122 -164h-35z" />
    <glyph glyph-name="iacute" unicode="&#xed;" horiz-adv-x="245" 
d="M115 0v476h-74v28h106v-504h-32zM69 614l122 164h43l-130 -164h-35z" />
    <glyph glyph-name="icircumflex" unicode="&#xee;" horiz-adv-x="245" 
d="M115 0v476h-74v28h106v-504h-32zM-31 614l123 164h34l123 -164h-37l-103 137l-103 -137h-37z" />
    <glyph glyph-name="idieresis" unicode="&#xef;" horiz-adv-x="245" 
d="M115 0v476h-74v28h106v-504h-32zM-3 629v54h50v-54h-50zM173 629v54h50v-54h-50z" />
    <glyph glyph-name="eth" unicode="&#xf0;" horiz-adv-x="553" 
d="M280 -13q-98 0 -151 62.5t-53 179.5q0 113 50.5 175t144.5 62q59 0 102 -24.5t75 -76.5q-12 90 -49 154.5t-104 107.5l-142 -86l-14 23l130 79q-54 30 -128 51l11 24q84 -21 146 -57l84 51l14 -23l-73 -45q84 -58 124 -151.5t40 -228.5t-53 -206t-154 -71zM109 229
q0 -101 44.5 -156.5t125.5 -55.5q175 0 175 247q0 14 -0.5 28.5t-2.5 34.5q-36 59 -77.5 84t-99.5 25q-165 0 -165 -207z" />
    <glyph glyph-name="ntilde" unicode="&#xf1;" horiz-adv-x="557" 
d="M98 0v504h29l3 -76q65 89 181 89q80 0 118 -43.5t38 -134.5v-339h-32v334q0 80 -30.5 117t-97.5 37q-102 0 -177 -91v-397h-32zM124 614q0 83 17 115t60 32q26 0 43.5 -12t39.5 -41l19 -26q18 -24 30.5 -33.5t28.5 -9.5q27 0 36.5 24.5t9.5 94.5h31q0 -83 -17 -115
t-61 -32q-25 0 -42.5 12t-39.5 41l-19 26q-18 24 -30 33.5t-29 9.5q-27 0 -36.5 -25t-9.5 -94h-31z" />
    <glyph glyph-name="ograve" unicode="&#xf2;" horiz-adv-x="536" 
d="M268 -13q-100 0 -152.5 68t-52.5 197t52.5 197t152.5 68t152.5 -68t52.5 -197t-52.5 -197t-152.5 -68zM268 17q172 0 172 235t-172 235t-172 -235t172 -235zM274 614l-130 164h43l122 -164h-35z" />
    <glyph glyph-name="oacute" unicode="&#xf3;" horiz-adv-x="536" 
d="M268 -13q-100 0 -152.5 68t-52.5 197t52.5 197t152.5 68t152.5 -68t52.5 -197t-52.5 -197t-152.5 -68zM268 17q172 0 172 235t-172 235t-172 -235t172 -235zM227 614l122 164h43l-130 -164h-35z" />
    <glyph glyph-name="ocircumflex" unicode="&#xf4;" horiz-adv-x="536" 
d="M268 -13q-100 0 -152.5 68t-52.5 197t52.5 197t152.5 68t152.5 -68t52.5 -197t-52.5 -197t-152.5 -68zM268 17q172 0 172 235t-172 235t-172 -235t172 -235zM127 614l123 164h34l123 -164h-37l-103 137l-103 -137h-37z" />
    <glyph glyph-name="otilde" unicode="&#xf5;" horiz-adv-x="536" 
d="M268 -13q-100 0 -152.5 68t-52.5 197t52.5 197t152.5 68t152.5 -68t52.5 -197t-52.5 -197t-152.5 -68zM268 17q172 0 172 235t-172 235t-172 -235t172 -235zM110 614q0 83 17 115t60 32q26 0 43.5 -12t39.5 -41l19 -26q18 -24 30.5 -33.5t28.5 -9.5q27 0 36.5 24.5
t9.5 94.5h31q0 -83 -17 -115t-61 -32q-25 0 -42.5 12t-39.5 41l-19 26q-18 24 -30 33.5t-29 9.5q-27 0 -36.5 -25t-9.5 -94h-31z" />
    <glyph glyph-name="odieresis" unicode="&#xf6;" horiz-adv-x="536" 
d="M268 -13q-100 0 -152.5 68t-52.5 197t52.5 197t152.5 68t152.5 -68t52.5 -197t-52.5 -197t-152.5 -68zM268 17q172 0 172 235t-172 235t-172 -235t172 -235zM155 629v54h50v-54h-50zM331 629v54h50v-54h-50z" />
    <glyph glyph-name="divide" unicode="&#xf7;" 
d="M269 466v70h42v-70h-42zM74 319v29h432v-29h-432zM269 131v70h42v-70h-42z" />
    <glyph glyph-name="oslash" unicode="&#xf8;" horiz-adv-x="536" 
d="M89 -41l-23 17l51 77q-54 68 -54 199q0 129 52.5 197t152.5 68q80 0 131 -45l48 73l23 -17l-51 -77q54 -68 54 -199q0 -129 -52.5 -197t-152.5 -68q-80 0 -130 44zM96 252q0 -112 40 -171l245 365q-44 41 -113 41q-172 0 -172 -235zM268 17q172 0 172 235q0 116 -40 172
l-244 -366q42 -41 112 -41z" />
    <glyph glyph-name="ugrave" unicode="&#xf9;" horiz-adv-x="551" 
d="M240 -13q-76 0 -113 42.5t-37 130.5v344h32v-339q0 -78 29 -113.5t93 -35.5q104 0 177 91v397h32v-504h-29l-3 73q-68 -86 -181 -86zM276 614l-130 164h43l122 -164h-35z" />
    <glyph glyph-name="uacute" unicode="&#xfa;" horiz-adv-x="551" 
d="M240 -13q-76 0 -113 42.5t-37 130.5v344h32v-339q0 -78 29 -113.5t93 -35.5q104 0 177 91v397h32v-504h-29l-3 73q-68 -86 -181 -86zM229 614l122 164h43l-130 -164h-35z" />
    <glyph glyph-name="ucircumflex" unicode="&#xfb;" horiz-adv-x="551" 
d="M240 -13q-76 0 -113 42.5t-37 130.5v344h32v-339q0 -78 29 -113.5t93 -35.5q104 0 177 91v397h32v-504h-29l-3 73q-68 -86 -181 -86zM129 614l123 164h34l123 -164h-37l-103 137l-103 -137h-37z" />
    <glyph glyph-name="udieresis" unicode="&#xfc;" horiz-adv-x="551" 
d="M240 -13q-76 0 -113 42.5t-37 130.5v344h32v-339q0 -78 29 -113.5t93 -35.5q104 0 177 91v397h32v-504h-29l-3 73q-68 -86 -181 -86zM157 629v54h50v-54h-50zM333 629v54h50v-54h-50z" />
    <glyph glyph-name="yacute" unicode="&#xfd;" horiz-adv-x="457" 
d="M83 -201q-29 0 -47 8v28q11 -3 20.5 -4.5t22.5 -1.5q31 0 51 9.5t35 34t31 69.5l15 42l-189 520h36l169 -475l170 475h33l-216 -596q-22 -61 -51 -85t-80 -24zM185 614l122 164h43l-130 -164h-35z" />
    <glyph glyph-name="thorn" unicode="&#xfe;" horiz-adv-x="564" 
d="M98 -192v904h32v-282q66 87 176 87q94 0 143 -67.5t49 -197.5q0 -265 -192 -265q-112 0 -176 87v-266h-32zM302 16q163 0 163 236t-163 236q-51 0 -92.5 -22t-79.5 -69v-290q71 -91 172 -91z" />
    <glyph glyph-name="ydieresis" unicode="&#xff;" horiz-adv-x="457" 
d="M83 -201q-29 0 -47 8v28q11 -3 20.5 -4.5t22.5 -1.5q31 0 51 9.5t35 34t31 69.5l15 42l-189 520h36l169 -475l170 475h33l-216 -596q-22 -61 -51 -85t-80 -24zM113 629v54h50v-54h-50zM289 629v54h50v-54h-50z" />
    <glyph glyph-name="Abreve" unicode="&#x102;" horiz-adv-x="596" 
d="M39 0l238 674h45l235 -674h-35l-71 203h-305l-71 -203h-36zM157 233h283l-141 405zM300 749q-70 0 -102.5 39t-32.5 108h32q0 -57 24.5 -88t78.5 -31t78.5 31t24.5 88h32q0 -69 -32.5 -108t-102.5 -39z" />
    <glyph glyph-name="abreve" unicode="&#x103;" horiz-adv-x="512" 
d="M209 -12q-70 0 -109 36.5t-39 102.5q0 75 51.5 115t148.5 40h128v48q0 87 -31 122.5t-105 35.5q-39 0 -75 -9t-78 -29l-11 25q34 20 77.5 31t88.5 11q87 0 126.5 -42t39.5 -135v-340h-28l-4 79q-66 -91 -180 -91zM213 17q108 0 176 97v140h-126q-169 0 -169 -126
q0 -54 30.5 -82.5t88.5 -28.5zM258 611q-70 0 -102.5 39t-32.5 108h32q0 -57 24.5 -88t78.5 -31t78.5 31t24.5 88h32q0 -69 -32.5 -108t-102.5 -39z" />
    <glyph glyph-name="Aogonek" unicode="&#x104;" horiz-adv-x="596" 
d="M39 0l238 674h45l235 -674h-35l-71 203h-305l-71 -203h-36zM157 233h283l-141 405zM530 -201q-47 0 -71.5 23t-24.5 63q0 35 22 68t74 61l27 -14q-52 -29 -71 -56.5t-19 -56.5q0 -31 17 -44.5t52 -13.5q25 0 43 6v-28q-18 -8 -49 -8z" />
    <glyph glyph-name="aogonek" unicode="&#x105;" horiz-adv-x="512" 
d="M209 -12q-70 0 -109 36.5t-39 102.5q0 75 51.5 115t148.5 40h128v48q0 87 -31 122.5t-105 35.5q-39 0 -75 -9t-78 -29l-11 25q34 20 77.5 31t88.5 11q87 0 126.5 -42t39.5 -135v-340h-28l-4 79q-66 -91 -180 -91zM213 17q108 0 176 97v140h-126q-169 0 -169 -126
q0 -54 30.5 -82.5t88.5 -28.5zM393 -201q-46 0 -70.5 22.5t-24.5 62.5q0 35 22 68.5t74 61.5l27 -14q-52 -29 -71 -56.5t-19 -56.5q0 -31 17 -44.5t52 -13.5q25 0 43 6v-28q-18 -8 -50 -8z" />
    <glyph glyph-name="Cacute" unicode="&#x106;" horiz-adv-x="552" 
d="M331 -13q-261 0 -261 337q0 175 70.5 269t201.5 94q88 0 160 -40l-12 -27q-67 35 -147 35q-116 0 -177 -85t-61 -246q0 -154 57 -229.5t173 -75.5q45 0 86 9t71 25l12 -27q-31 -18 -77 -28.5t-96 -10.5zM280 753l130 143h46l-136 -143h-40z" />
    <glyph glyph-name="cacute" unicode="&#x107;" horiz-adv-x="455" 
d="M270 -13q-101 0 -154 67t-53 195q0 129 55 198.5t157 69.5q39 0 74.5 -9t58.5 -25l-13 -27q-52 31 -119 31q-180 0 -180 -238q0 -114 44.5 -173t129.5 -59q81 0 128 38l12 -27q-50 -41 -140 -41zM217 614l122 164h43l-130 -164h-35z" />
    <glyph glyph-name="Eogonek" unicode="&#x118;" horiz-adv-x="559" 
d="M115 0v674h375v-31h-341v-282h288v-31h-288v-299h345v-31q-92 -51 -92 -113q0 -58 69 -58q25 0 43 6v-28q-18 -8 -49 -8q-46 0 -71 22.5t-25 63.5q0 68 78 115h-332z" />
    <glyph glyph-name="eogonek" unicode="&#x119;" horiz-adv-x="507" 
d="M395 -201q-46 0 -71.5 24t-25.5 67q0 59 48 107q-33 -9 -74 -9q-104 0 -157.5 66t-53.5 194t53 198.5t150 70.5q94 0 143 -65t49 -188v-21h-362q3 -225 180 -225q83 0 142 47l14 -24q-52 -38 -75.5 -73.5t-23.5 -74.5q0 -34 17 -49t54 -15q25 0 43 6v-28q-18 -8 -50 -8z
M264 487q-79 0 -123 -56.5t-47 -159.5h329q-1 105 -41.5 160.5t-117.5 55.5z" />
    <glyph glyph-name="dotlessi" unicode="&#x131;" horiz-adv-x="245" 
d="M115 0v476h-74v28h106v-504h-32z" />
    <glyph glyph-name="IJ" unicode="&#x132;" horiz-adv-x="704" 
d="M115 0v674h34v-674h-34zM432 -13q-61 0 -117 31l12 28q47 -27 107 -27q69 0 98.5 40t29.5 134v450h-197v31h231v-482q0 -107 -39 -156t-125 -49z" />
    <glyph glyph-name="ij" unicode="&#x133;" horiz-adv-x="490" 
d="M102 629v54h50v-54h-50zM115 0v476h-74v28h106v-504h-32zM347 629v54h50v-54h-50zM304 -201q-35 0 -53 8v28q18 -6 45 -6q37 0 50.5 22t13.5 68v557h-74v28h106v-598q0 -51 -21.5 -79t-66.5 -28z" />
    <glyph glyph-name="Lslash" unicode="&#x141;" horiz-adv-x="519" 
d="M125 0v277l-88 -48v32l88 48v365h34v-346l187 102v-32l-187 -102v-265h321v-31h-355z" />
    <glyph glyph-name="lslash" unicode="&#x142;" horiz-adv-x="292" 
d="M190 -7q-43 0 -63 23t-20 72v260l-80 -43v30l80 43v334h32v-317l117 62v-30l-117 -62v-268q0 -44 12 -59t47 -15q21 0 50 8v-28q-24 -10 -58 -10z" />
    <glyph glyph-name="Nacute" unicode="&#x143;" horiz-adv-x="679" 
d="M115 0v674h46l369 -631v631h34v-674h-46l-369 631v-631h-34zM285 753l130 143h46l-136 -143h-40z" />
    <glyph glyph-name="nacute" unicode="&#x144;" horiz-adv-x="557" 
d="M98 0v504h29l3 -76q65 89 181 89q80 0 118 -43.5t38 -134.5v-339h-32v334q0 80 -30.5 117t-97.5 37q-102 0 -177 -91v-397h-32zM241 614l122 164h43l-130 -164h-35z" />
    <glyph glyph-name="OE" unicode="&#x152;" horiz-adv-x="984" 
d="M324 -13q-122 0 -187 90t-65 260t65 260t187 90q165 0 217 -157v144h374v-31h-340v-282h287v-31h-287v-299h344v-31h-378v143q-51 -156 -217 -156zM324 19q107 0 162 81t55 237t-55 237t-162 81q-106 0 -161.5 -81.5t-55.5 -236.5t55.5 -236.5t161.5 -81.5z" />
    <glyph glyph-name="oe" unicode="&#x153;" horiz-adv-x="886" 
d="M268 -13q-100 0 -152.5 68t-52.5 197t52.5 197t152.5 68q73 0 121 -37.5t68 -110.5q21 72 68.5 110t117.5 38q94 0 143 -65t49 -188v-21h-362q3 -226 180 -226q87 0 142 47l15 -26q-60 -51 -159 -51q-154 0 -195 144q-20 -70 -68 -107t-120 -37zM643 487
q-79 0 -123 -56.5t-47 -159.5h329q-1 105 -41.5 160.5t-117.5 55.5zM268 17q172 0 172 235t-172 235t-172 -235t172 -235z" />
    <glyph glyph-name="Sacute" unicode="&#x15a;" horiz-adv-x="536" 
d="M252 -13q-57 0 -109 11.5t-89 32.5l13 29q78 -41 185 -41q93 0 136.5 35.5t43.5 111.5q0 65 -33.5 100t-116.5 56l-47 12q-85 22 -123 62t-38 109q0 86 55.5 134t152.5 48q44 0 90.5 -11.5t78.5 -30.5l-13 -27q-28 18 -69 27.5t-87 9.5q-85 0 -129 -38t-44 -110
q0 -57 31.5 -89t107.5 -52l45 -12q93 -25 133.5 -68t40.5 -117q0 -182 -215 -182zM217 753l130 143h46l-136 -143h-40z" />
    <glyph glyph-name="sacute" unicode="&#x15b;" horiz-adv-x="439" 
d="M215 -13q-52 0 -95.5 12t-75.5 35l14 28q38 -25 73 -35t84 -10q62 0 100 30.5t38 80.5q0 48 -27 74t-92 39l-37 8q-76 17 -107 47t-31 85q0 62 45.5 99t121.5 37q89 0 149 -36l-13 -26q-57 32 -135 32q-62 0 -98.5 -28t-36.5 -76q0 -43 26.5 -66.5t92.5 -37.5l32 -7
q79 -17 111 -49t32 -93q0 -66 -45.5 -104.5t-125.5 -38.5zM187 614l122 164h43l-130 -164h-35z" />
    <glyph glyph-name="Scaron" unicode="&#x160;" horiz-adv-x="536" 
d="M252 -13q-57 0 -109 11.5t-89 32.5l13 29q78 -41 185 -41q93 0 136.5 35.5t43.5 111.5q0 65 -33.5 100t-116.5 56l-47 12q-85 22 -123 62t-38 109q0 86 55.5 134t152.5 48q44 0 90.5 -11.5t78.5 -30.5l-13 -27q-28 18 -69 27.5t-87 9.5q-85 0 -129 -38t-44 -110
q0 -57 31.5 -89t107.5 -52l45 -12q93 -25 133.5 -68t40.5 -117q0 -182 -215 -182zM257 753l-119 143h39l97 -117l96 117h38l-118 -143h-33z" />
    <glyph glyph-name="scaron" unicode="&#x161;" horiz-adv-x="439" 
d="M215 -13q-52 0 -95.5 12t-75.5 35l14 28q38 -25 73 -35t84 -10q62 0 100 30.5t38 80.5q0 48 -27 74t-92 39l-37 8q-76 17 -107 47t-31 85q0 62 45.5 99t121.5 37q89 0 149 -36l-13 -26q-57 32 -135 32q-62 0 -98.5 -28t-36.5 -76q0 -43 26.5 -66.5t92.5 -37.5l32 -7
q79 -17 111 -49t32 -93q0 -66 -45.5 -104.5t-125.5 -38.5zM211 614l-123 164h36l104 -137l103 137h36l-123 -164h-33z" />
    <glyph glyph-name="Wcircumflex" unicode="&#x174;" horiz-adv-x="821" 
d="M199 0l-161 674h36l147 -637l168 629h45l166 -628l149 636h34l-162 -674h-42l-168 633l-169 -633h-43zM276 753l120 143h34l117 -143h-39l-95 117l-98 -117h-39z" />
    <glyph glyph-name="wcircumflex" unicode="&#x175;" horiz-adv-x="701" 
d="M168 0l-140 504h34l128 -477l140 454h40l140 -451l130 474h33l-141 -504h-44l-138 446l-138 -446h-44zM209 614l123 164h34l123 -164h-37l-103 137l-103 -137h-37z" />
    <glyph glyph-name="Ycircumflex" unicode="&#x176;" horiz-adv-x="545" 
d="M255 0v250l-226 424h40l205 -389l205 389h37l-227 -425v-249h-34zM138 753l120 143h34l117 -143h-39l-95 117l-98 -117h-39z" />
    <glyph glyph-name="ycircumflex" unicode="&#x177;" horiz-adv-x="457" 
d="M83 -201q-29 0 -47 8v28q11 -3 20.5 -4.5t22.5 -1.5q31 0 51 9.5t35 34t31 69.5l15 42l-189 520h36l169 -475l170 475h33l-216 -596q-22 -61 -51 -85t-80 -24zM85 614l123 164h34l123 -164h-37l-103 137l-103 -137h-37z" />
    <glyph glyph-name="Ydieresis" unicode="&#x178;" horiz-adv-x="545" 
d="M255 0v250l-226 424h40l205 -389l205 389h37l-227 -425v-249h-34zM161 781v54h50v-54h-50zM337 781v54h50v-54h-50z" />
    <glyph glyph-name="Zacute" unicode="&#x179;" horiz-adv-x="550" 
d="M65 0v22l376 621h-370v31h413v-22l-376 -621h382v-31h-425zM220 753l130 143h46l-136 -143h-40z" />
    <glyph glyph-name="zacute" unicode="&#x17a;" horiz-adv-x="458" 
d="M56 0v24l302 452h-296v28h335v-25l-301 -451h306v-28h-346zM188 614l122 164h43l-130 -164h-35z" />
    <glyph glyph-name="Zdotaccent" unicode="&#x17b;" horiz-adv-x="550" 
d="M65 0v22l376 621h-370v31h413v-22l-376 -621h382v-31h-425zM250 781v54h50v-54h-50z" />
    <glyph glyph-name="zdotaccent" unicode="&#x17c;" horiz-adv-x="458" 
d="M56 0v24l302 452h-296v28h335v-25l-301 -451h306v-28h-346zM204 629v54h50v-54h-50z" />
    <glyph glyph-name="Zcaron" unicode="&#x17d;" horiz-adv-x="550" 
d="M65 0v22l376 621h-370v31h413v-22l-376 -621h382v-31h-425zM260 753l-119 143h39l97 -117l96 117h38l-118 -143h-33z" />
    <glyph glyph-name="zcaron" unicode="&#x17e;" horiz-adv-x="458" 
d="M56 0v24l302 452h-296v28h335v-25l-301 -451h306v-28h-346zM212 614l-123 164h36l104 -137l103 137h36l-123 -164h-33z" />
    <glyph glyph-name="uni0218" unicode="&#x218;" horiz-adv-x="536" 
d="M252 -13q-57 0 -109 11.5t-89 32.5l13 29q78 -41 185 -41q93 0 136.5 35.5t43.5 111.5q0 65 -33.5 100t-116.5 56l-47 12q-85 22 -123 62t-38 109q0 86 55.5 134t152.5 48q44 0 90.5 -11.5t78.5 -30.5l-13 -27q-28 18 -69 27.5t-87 9.5q-85 0 -129 -38t-44 -110
q0 -57 31.5 -89t107.5 -52l45 -12q93 -25 133.5 -68t40.5 -117q0 -182 -215 -182zM221 -244l25 162h38l-36 -162h-27z" />
    <glyph glyph-name="uni0219" unicode="&#x219;" horiz-adv-x="439" 
d="M215 -13q-52 0 -95.5 12t-75.5 35l14 28q38 -25 73 -35t84 -10q62 0 100 30.5t38 80.5q0 48 -27 74t-92 39l-37 8q-76 17 -107 47t-31 85q0 62 45.5 99t121.5 37q89 0 149 -36l-13 -26q-57 32 -135 32q-62 0 -98.5 -28t-36.5 -76q0 -43 26.5 -66.5t92.5 -37.5l32 -7
q79 -17 111 -49t32 -93q0 -66 -45.5 -104.5t-125.5 -38.5zM178 -244l25 162h38l-36 -162h-27z" />
    <glyph glyph-name="uni021A" unicode="&#x21a;" horiz-adv-x="512" 
d="M239 0v643h-217v31h468v-31h-217v-643h-34zM209 -244l25 162h38l-36 -162h-27z" />
    <glyph glyph-name="uni021B" unicode="&#x21b;" horiz-adv-x="365" 
d="M246 -7q-67 0 -95.5 34.5t-28.5 115.5v333h-101v26l70 2q20 1 27.5 7.5t8.5 24.5l5 99h22v-131h182v-28h-182v-325q0 -74 21.5 -101t79.5 -27q17 0 31.5 2t38.5 6v-28q-31 -10 -79 -10zM182 -244l25 162h38l-36 -162h-27z" />
    <glyph glyph-name="uni0237" unicode="&#x237;" horiz-adv-x="245" 
d="M59 -201q-35 0 -53 8v28q18 -6 45 -6q37 0 50.5 22t13.5 68v557h-74v28h106v-598q0 -51 -21.5 -79t-66.5 -28z" />
    <glyph glyph-name="circumflex" unicode="&#x2c6;" horiz-adv-x="340" 
d="M30 614l123 164h34l123 -164h-37l-103 137l-103 -137h-37z" />
    <glyph glyph-name="caron" unicode="&#x2c7;" horiz-adv-x="339" 
d="M153 614l-123 164h36l104 -137l103 137h36l-123 -164h-33z" />
    <glyph glyph-name="breve" unicode="&#x2d8;" horiz-adv-x="330" 
d="M165 611q-70 0 -102.5 39t-32.5 108h32q0 -57 24.5 -88t78.5 -31t78.5 31t24.5 88h32q0 -69 -32.5 -108t-102.5 -39z" />
    <glyph glyph-name="dotaccent" unicode="&#x2d9;" horiz-adv-x="110" 
d="M30 629v54h50v-54h-50z" />
    <glyph glyph-name="ring" unicode="&#x2da;" horiz-adv-x="236" 
d="M118 610q-39 0 -63.5 24.5t-24.5 64.5t24.5 64.5t63.5 24.5t63.5 -24.5t24.5 -64.5t-24.5 -64.5t-63.5 -24.5zM118 636q26 0 42.5 17t16.5 46t-16.5 46t-42.5 17t-42.5 -17t-16.5 -46t16.5 -46t42.5 -17z" />
    <glyph glyph-name="ogonek" unicode="&#x2db;" horiz-adv-x="205" 
d="M125 -201q-46 0 -70.5 22.5t-24.5 62.5q0 35 22 68.5t74 61.5l27 -14q-52 -29 -71 -56.5t-19 -56.5q0 -31 17 -44.5t52 -13.5q25 0 43 6v-28q-18 -8 -50 -8z" />
    <glyph glyph-name="tilde" unicode="&#x2dc;" horiz-adv-x="375" 
d="M30 614q0 83 17 115t60 32q26 0 43.5 -12t39.5 -41l19 -26q18 -24 30.5 -33.5t28.5 -9.5q27 0 36.5 24.5t9.5 94.5h31q0 -83 -17 -115t-61 -32q-25 0 -42.5 12t-39.5 41l-19 26q-18 24 -30 33.5t-29 9.5q-27 0 -36.5 -25t-9.5 -94h-31z" />
    <glyph glyph-name="gravecomb" unicode="&#x300;" horiz-adv-x="0" 
d="M6 614l-130 164h43l122 -164h-35z" />
    <glyph glyph-name="acutecomb" unicode="&#x301;" horiz-adv-x="0" 
d="M-41 614l122 164h43l-130 -164h-35z" />
    <glyph glyph-name="uni0302" unicode="&#x302;" horiz-adv-x="0" 
d="M-141 614l123 164h34l123 -164h-37l-103 137l-103 -137h-37z" />
    <glyph glyph-name="tildecomb" unicode="&#x303;" horiz-adv-x="0" 
d="M-158 614q0 83 17 115t60 32q26 0 43.5 -12t39.5 -41l19 -26q18 -24 30.5 -33.5t28.5 -9.5q27 0 36.5 24.5t9.5 94.5h31q0 -83 -17 -115t-61 -32q-25 0 -42.5 12t-39.5 41l-19 26q-18 24 -30 33.5t-29 9.5q-27 0 -36.5 -25t-9.5 -94h-31z" />
    <glyph glyph-name="uni0306" unicode="&#x306;" horiz-adv-x="0" 
d="M0 611q-70 0 -102.5 39t-32.5 108h32q0 -57 24.5 -88t78.5 -31t78.5 31t24.5 88h32q0 -69 -32.5 -108t-102.5 -39z" />
    <glyph glyph-name="uni0307" unicode="&#x307;" horiz-adv-x="0" 
d="M-25 629v54h50v-54h-50z" />
    <glyph glyph-name="uni0308" unicode="&#x308;" horiz-adv-x="0" 
d="M-113 629v54h50v-54h-50zM63 629v54h50v-54h-50z" />
    <glyph glyph-name="uni030A" unicode="&#x30a;" horiz-adv-x="0" 
d="M0 610q-39 0 -63.5 24.5t-24.5 64.5t24.5 64.5t63.5 24.5t63.5 -24.5t24.5 -64.5t-24.5 -64.5t-63.5 -24.5zM0 636q26 0 42.5 17t16.5 46t-16.5 46t-42.5 17t-42.5 -17t-16.5 -46t16.5 -46t42.5 -17z" />
    <glyph glyph-name="uni030C" unicode="&#x30c;" horiz-adv-x="0" 
d="M-17 614l-123 164h36l104 -137l103 137h36l-123 -164h-33z" />
    <glyph glyph-name="uni0326" unicode="&#x326;" horiz-adv-x="0" 
d="M-47 -244l25 162h38l-36 -162h-27z" />
    <glyph glyph-name="uni0327" unicode="&#x327;" horiz-adv-x="0" 
d="M-11 -239q-22 0 -44.5 3t-48.5 12v28q26 -8 49.5 -10.5t41.5 -2.5q46 0 66.5 14.5t20.5 45.5q0 32 -23.5 47t-85.5 18l19 95l30 -1l-14 -68q50 -6 78.5 -26.5t28.5 -65.5q0 -89 -118 -89z" />
    <glyph glyph-name="uni0328" unicode="&#x328;" horiz-adv-x="0" 
d="M-28 -201q-46 0 -70.5 22.5t-24.5 62.5q0 35 22 68.5t74 61.5l27 -14q-52 -29 -71 -56.5t-19 -56.5q0 -31 17 -44.5t52 -13.5q25 0 43 6v-28q-18 -8 -50 -8z" />
    <glyph glyph-name="Wgrave" unicode="&#x1e80;" horiz-adv-x="821" 
d="M199 0l-161 674h36l147 -637l168 629h45l166 -628l149 636h34l-162 -674h-42l-168 633l-169 -633h-43zM405 753l-136 143h46l130 -143h-40z" />
    <glyph glyph-name="wgrave" unicode="&#x1e81;" horiz-adv-x="701" 
d="M168 0l-140 504h34l128 -477l140 454h40l140 -451l130 474h33l-141 -504h-44l-138 446l-138 -446h-44zM356 614l-130 164h43l122 -164h-35z" />
    <glyph glyph-name="Wacute" unicode="&#x1e82;" horiz-adv-x="821" 
d="M199 0l-161 674h36l147 -637l168 629h45l166 -628l149 636h34l-162 -674h-42l-168 633l-169 -633h-43zM357 753l130 143h46l-136 -143h-40z" />
    <glyph glyph-name="wacute" unicode="&#x1e83;" horiz-adv-x="701" 
d="M168 0l-140 504h34l128 -477l140 454h40l140 -451l130 474h33l-141 -504h-44l-138 446l-138 -446h-44zM309 614l122 164h43l-130 -164h-35z" />
    <glyph glyph-name="Wdieresis" unicode="&#x1e84;" horiz-adv-x="821" 
d="M199 0l-161 674h36l147 -637l168 629h45l166 -628l149 636h34l-162 -674h-42l-168 633l-169 -633h-43zM299 781v54h50v-54h-50zM475 781v54h50v-54h-50z" />
    <glyph glyph-name="wdieresis" unicode="&#x1e85;" horiz-adv-x="701" 
d="M168 0l-140 504h34l128 -477l140 454h40l140 -451l130 474h33l-141 -504h-44l-138 446l-138 -446h-44zM237 629v54h50v-54h-50zM413 629v54h50v-54h-50z" />
    <glyph glyph-name="uni1E9E" unicode="&#x1e9e;" horiz-adv-x="667" 
d="M411 -12q-83 0 -136 28l8 31q59 -28 130 -28q80 0 117.5 37t37.5 114q0 162 -183 162h-32v22l164 274q-74 27 -161 27q-117 0 -169 -50.5t-52 -165.5v-439h-34v446q0 241 251 241q101 0 202 -41v-22l-159 -262q101 -1 154.5 -50.5t53.5 -141.5q0 -182 -192 -182z" />
    <glyph glyph-name="Ygrave" unicode="&#x1ef2;" horiz-adv-x="545" 
d="M255 0v250l-226 424h40l205 -389l205 389h37l-227 -425v-249h-34zM267 753l-136 143h46l130 -143h-40z" />
    <glyph glyph-name="ygrave" unicode="&#x1ef3;" horiz-adv-x="457" 
d="M83 -201q-29 0 -47 8v28q11 -3 20.5 -4.5t22.5 -1.5q31 0 51 9.5t35 34t31 69.5l15 42l-189 520h36l169 -475l170 475h33l-216 -596q-22 -61 -51 -85t-80 -24zM232 614l-130 164h43l122 -164h-35z" />
    <glyph glyph-name="uni2000" unicode="&#x2000;" horiz-adv-x="500" 
 />
    <glyph glyph-name="uni2001" unicode="&#x2001;" horiz-adv-x="1000" 
 />
    <glyph glyph-name="uni2002" unicode="&#x2002;" horiz-adv-x="500" 
 />
    <glyph glyph-name="uni2003" unicode="&#x2003;" horiz-adv-x="1000" 
 />
    <glyph glyph-name="uni2004" unicode="&#x2004;" horiz-adv-x="333" 
 />
    <glyph glyph-name="uni2005" unicode="&#x2005;" horiz-adv-x="250" 
 />
    <glyph glyph-name="uni2006" unicode="&#x2006;" horiz-adv-x="167" 
 />
    <glyph glyph-name="uni2007" unicode="&#x2007;" 
 />
    <glyph glyph-name="uni2008" unicode="&#x2008;" horiz-adv-x="187" 
 />
    <glyph glyph-name="uni2009" unicode="&#x2009;" horiz-adv-x="200" 
 />
    <glyph glyph-name="uni200A" unicode="&#x200a;" horiz-adv-x="62" 
 />
    <glyph glyph-name="uni200B" unicode="&#x200b;" horiz-adv-x="0" 
 />
    <glyph glyph-name="uni2010" unicode="&#x2010;" horiz-adv-x="401" 
d="M71 260v32h259v-32h-259z" />
    <glyph glyph-name="uni2011" unicode="&#x2011;" horiz-adv-x="401" 
d="M71 260v32h259v-32h-259z" />
    <glyph glyph-name="endash" unicode="&#x2013;" horiz-adv-x="450" 
d="M0 261v30h450v-30h-450z" />
    <glyph glyph-name="emdash" unicode="&#x2014;" horiz-adv-x="900" 
d="M0 261v30h900v-30h-900z" />
    <glyph glyph-name="quoteleft" unicode="&#x2018;" horiz-adv-x="183" 
d="M59 478l42 196h28l-27 -196h-43z" />
    <glyph glyph-name="quoteright" unicode="&#x2019;" horiz-adv-x="183" 
d="M54 478l27 196h43l-42 -196h-28z" />
    <glyph glyph-name="quotesinglbase" unicode="&#x201a;" horiz-adv-x="183" 
d="M54 -126l27 196h43l-42 -196h-28z" />
    <glyph glyph-name="quotedblleft" unicode="&#x201c;" horiz-adv-x="308" 
d="M59 478l42 196h28l-27 -196h-43zM184 478l42 196h28l-27 -196h-43z" />
    <glyph glyph-name="quotedblright" unicode="&#x201d;" horiz-adv-x="308" 
d="M54 478l27 196h43l-42 -196h-28zM179 478l27 196h43l-42 -196h-28z" />
    <glyph glyph-name="quotedblbase" unicode="&#x201e;" horiz-adv-x="308" 
d="M54 -126l27 196h43l-42 -196h-28zM179 -126l27 196h43l-42 -196h-28z" />
    <glyph glyph-name="dagger" unicode="&#x2020;" horiz-adv-x="434" 
d="M202 128v398h-144v27h144v159h30v-159h144v-27h-144v-398h-30z" />
    <glyph glyph-name="daggerdbl" unicode="&#x2021;" horiz-adv-x="434" 
d="M202 128v159h-144v27h144v212h-144v27h144v159h30v-159h144v-27h-144v-212h144v-27h-144v-159h-30z" />
    <glyph glyph-name="bullet" unicode="&#x2022;" horiz-adv-x="538" 
d="M130 126v288h278v-288h-278z" />
    <glyph glyph-name="ellipsis" unicode="&#x2026;" horiz-adv-x="717" 
d="M98 0v70h43v-70h-43zM337 0v70h43v-70h-43zM576 0v70h43v-70h-43z" />
    <glyph glyph-name="perthousand" unicode="&#x2030;" horiz-adv-x="1131" 
d="M166 0l409 674h39l-409 -674h-39zM725 178q0 -91 -35 -139t-101 -48t-100.5 48t-34.5 139q0 92 34.5 139.5t101.5 47.5q66 0 100.5 -47.5t34.5 -139.5zM486 178q0 -158 103 -158q104 0 104 158t-103 158q-104 0 -104 -158zM1075 178q0 -91 -35 -139t-101 -48t-100.5 48
t-34.5 139q0 92 34.5 139.5t101.5 47.5q66 0 100.5 -47.5t34.5 -139.5zM836 178q0 -158 103 -158q104 0 104 158t-103 158q-104 0 -104 -158zM327 496q0 -91 -35 -139t-101 -48t-100.5 48t-34.5 139q0 92 34.5 139.5t101.5 47.5q66 0 100.5 -47.5t34.5 -139.5zM88 496
q0 -158 103 -158q104 0 104 158t-103 158q-104 0 -104 -158z" />
    <glyph glyph-name="guilsinglleft" unicode="&#x2039;" horiz-adv-x="366" 
d="M263 47l-208 213l208 213h42l-207 -213l208 -213h-43z" />
    <glyph glyph-name="guilsinglright" unicode="&#x203a;" horiz-adv-x="366" 
d="M103 47h-43l208 213l-207 213h42l208 -213z" />
    <glyph glyph-name="fraction" unicode="&#x2044;" horiz-adv-x="148" 
d="M-150 0l409 674h39l-409 -674h-39z" />
    <glyph glyph-name="uni2070" unicode="&#x2070;" horiz-adv-x="383" 
d="M327 578q0 -91 -35 -139t-101 -48t-100.5 48t-34.5 139q0 92 34.5 139.5t101.5 47.5q66 0 100.5 -47.5t34.5 -139.5zM88 578q0 -158 103 -158q104 0 104 158t-103 158q-104 0 -104 -158z" />
    <glyph glyph-name="uni2074" unicode="&#x2074;" horiz-adv-x="371" 
d="M230 400v90h-189v25l178 241h41v-239h70v-27h-70v-90h-30zM77 517h153v207z" />
    <glyph glyph-name="uni2075" unicode="&#x2075;" horiz-adv-x="347" 
d="M170 391q-72 0 -123 39l13 24q52 -34 110 -34q47 0 73 22t26 62q0 39 -25.5 61.5t-70.5 22.5q-52 0 -90 -29l-21 13v184h217v-29h-188v-138q33 27 90 27q55 0 87.5 -30t32.5 -82q0 -54 -34 -83.5t-97 -29.5z" />
    <glyph glyph-name="uni2076" unicode="&#x2076;" horiz-adv-x="364" 
d="M192 391q-66 0 -101 45.5t-35 131.5q0 97 37.5 147t110.5 50q56 0 97 -26l-12 -24q-41 22 -83 22q-118 0 -118 -168q40 45 109 45q53 0 85 -30t32 -80q0 -51 -33 -82t-89 -31zM193 586q-59 0 -105 -44q6 -123 106 -123q41 0 64.5 22.5t23.5 62.5q0 38 -23.5 60t-65.5 22z
" />
    <glyph glyph-name="uni2077" unicode="&#x2077;" horiz-adv-x="323" 
d="M35 727v29h243v-26l-142 -330h-35l142 327h-208z" />
    <glyph glyph-name="uni2078" unicode="&#x2078;" horiz-adv-x="374" 
d="M187 391q-64 0 -98.5 26.5t-34.5 74.5q0 36 20 60.5t55 32.5q-29 8 -46 30.5t-17 53.5q0 44 33 70t88 26t88 -26t33 -70q0 -31 -17 -53.5t-46 -30.5q35 -8 55 -32.5t20 -60.5q0 -48 -34.5 -74.5t-98.5 -26.5zM187 597q43 0 66.5 18t23.5 50q0 34 -24 53t-66 19t-66 -19
t-24 -53q0 -32 23.5 -50t66.5 -18zM187 419q48 0 74.5 19.5t26.5 54.5q0 37 -26 56.5t-75 19.5t-75 -19.5t-26 -56.5q0 -35 26.5 -54.5t74.5 -19.5z" />
    <glyph glyph-name="uni2079" unicode="&#x2079;" horiz-adv-x="364" 
d="M172 765q66 0 101 -45.5t35 -131.5q0 -97 -37.5 -147t-110.5 -50q-56 0 -97 26l12 24q41 -22 83 -22q118 0 118 168q-40 -45 -109 -45q-53 0 -85 30t-32 80q0 51 33.5 82t88.5 31zM82 652q0 -38 23.5 -60t65.5 -22q59 0 105 44q-6 123 -106 123q-41 0 -64.5 -22
t-23.5 -63z" />
    <glyph glyph-name="uni2080" unicode="&#x2080;" horiz-adv-x="383" 
d="M327 78q0 -91 -35 -139t-101 -48t-100.5 48t-34.5 139q0 92 34.5 139.5t101.5 47.5q66 0 100.5 -47.5t34.5 -139.5zM88 78q0 -158 103 -158q104 0 104 158t-103 158q-104 0 -104 -158z" />
    <glyph glyph-name="uni2081" unicode="&#x2081;" horiz-adv-x="253" 
d="M139 -100v293h-99v27l71 2q17 1 23 6.5t8 21.5l2 14h26v-364h-31z" />
    <glyph glyph-name="uni2082" unicode="&#x2082;" horiz-adv-x="344" 
d="M48 -100v26l120 101q46 39 64 67.5t18 61.5q0 39 -23 60t-66 21q-52 0 -93 -32l-14 23q41 37 109 37q57 0 88 -29t31 -82q0 -40 -20 -72t-72 -75l-94 -78h201v-29h-249z" />
    <glyph glyph-name="uni2083" unicode="&#x2083;" horiz-adv-x="345" 
d="M161 -109q-74 0 -124 39l13 24q47 -35 110 -35q47 0 72.5 20t25.5 57q0 33 -26.5 51.5t-74.5 18.5h-44l1 28h43q43 0 68 20t25 54q0 32 -23.5 50.5t-64.5 18.5q-55 0 -98 -32l-14 23q21 17 52 27t63 10q53 0 85 -25.5t32 -69.5q0 -34 -19.5 -57.5t-51.5 -31.5
q37 -6 58 -29.5t21 -58.5q0 -47 -35 -74.5t-94 -27.5z" />
    <glyph glyph-name="uni2084" unicode="&#x2084;" horiz-adv-x="371" 
d="M230 -100v90h-189v25l178 241h41v-239h70v-27h-70v-90h-30zM77 17h153v207z" />
    <glyph glyph-name="uni2085" unicode="&#x2085;" horiz-adv-x="347" 
d="M170 -109q-72 0 -123 39l13 24q52 -34 110 -34q47 0 73 22t26 62q0 39 -25.5 61.5t-70.5 22.5q-52 0 -90 -29l-21 13v184h217v-29h-188v-138q33 27 90 27q55 0 87.5 -30t32.5 -82q0 -54 -34 -83.5t-97 -29.5z" />
    <glyph glyph-name="uni2086" unicode="&#x2086;" horiz-adv-x="364" 
d="M192 -109q-66 0 -101 45.5t-35 131.5q0 97 37.5 147t110.5 50q56 0 97 -26l-12 -24q-41 22 -83 22q-118 0 -118 -168q40 45 109 45q53 0 85 -30t32 -80q0 -51 -33 -82t-89 -31zM193 86q-59 0 -105 -44q6 -123 106 -123q41 0 64.5 22.5t23.5 62.5q0 38 -23.5 60t-65.5 22z
" />
    <glyph glyph-name="uni2087" unicode="&#x2087;" horiz-adv-x="323" 
d="M35 227v29h243v-26l-142 -330h-35l142 327h-208z" />
    <glyph glyph-name="uni2088" unicode="&#x2088;" horiz-adv-x="374" 
d="M187 -109q-64 0 -98.5 26.5t-34.5 74.5q0 36 20 60.5t55 32.5q-29 8 -46 30.5t-17 53.5q0 44 33 70t88 26t88 -26t33 -70q0 -31 -17 -53.5t-46 -30.5q35 -8 55 -32.5t20 -60.5q0 -48 -34.5 -74.5t-98.5 -26.5zM187 97q43 0 66.5 18t23.5 50q0 34 -24 53t-66 19t-66 -19
t-24 -53q0 -32 23.5 -50t66.5 -18zM187 -81q48 0 74.5 19.5t26.5 54.5q0 37 -26 56.5t-75 19.5t-75 -19.5t-26 -56.5q0 -35 26.5 -54.5t74.5 -19.5z" />
    <glyph glyph-name="uni2089" unicode="&#x2089;" horiz-adv-x="364" 
d="M172 265q66 0 101 -45.5t35 -131.5q0 -97 -37.5 -147t-110.5 -50q-56 0 -97 26l12 24q41 -22 83 -22q118 0 118 168q-40 -45 -109 -45q-53 0 -85 30t-32 80q0 51 33.5 82t88.5 31zM82 152q0 -38 23.5 -60t65.5 -22q59 0 105 44q-6 123 -106 123q-41 0 -64.5 -22
t-23.5 -63z" />
    <glyph glyph-name="Euro" unicode="&#x20ac;" 
d="M31 248v29h80q-1 22 -1 47q0 36 3 68h-81v29h84q18 129 84.5 197.5t175.5 68.5q88 0 160 -40l-12 -27q-67 35 -147 35q-95 0 -152 -59.5t-74 -174.5h307l-11 -29h-299q-3 -32 -3 -68q0 -25 1 -47h279l-11 -29h-265q25 -229 220 -229q45 0 86 9t71 25l12 -27
q-31 -18 -77 -28.5t-96 -10.5q-224 0 -251 261h-83z" />
    <glyph glyph-name="uni20BD" unicode="&#x20bd;" 
d="M131 0v157h-88v29h88v115h-88v31h88v342h211q200 0 200 -188q0 -185 -200 -185h-177v-115h226v-29h-226v-157h-34zM337 643h-172v-311h172q88 0 129 37.5t41 116.5q0 157 -170 157z" />
    <glyph glyph-name="trademark" unicode="&#x2122;" horiz-adv-x="720" 
d="M334 360v314h42l106 -236l107 236h41v-314h-29v277l-104 -229h-30l-104 230v-278h-29zM141 360v286h-100v28h230v-28h-100v-286h-30z" />
    <glyph glyph-name="arrowleft" unicode="&#x2190;" horiz-adv-x="740" 
d="M244 126l-211 211l210 210l22 -22l-179 -173h621v-31h-622l181 -173z" />
    <glyph glyph-name="arrowup" unicode="&#x2191;" horiz-adv-x="740" 
d="M354 0v622l-173 -181l-22 22l211 211l210 -210l-22 -22l-173 179v-621h-31z" />
    <glyph glyph-name="arrowright" unicode="&#x2192;" horiz-adv-x="740" 
d="M496 126l-22 22l181 173h-622v31h621l-179 173l22 22l210 -210z" />
    <glyph glyph-name="arrowdown" unicode="&#x2193;" horiz-adv-x="740" 
d="M370 0l-211 211l22 22l173 -181v622h31v-621l173 179l22 -22z" />
    <glyph glyph-name="minus" unicode="&#x2212;" 
d="M74 319v29h432v-29h-432z" />
    <glyph glyph-name="uniFEFF" unicode="&#xfeff;" horiz-adv-x="0" 
 />
    <glyph glyph-name="zero.pnum" horiz-adv-x="598" 
d="M526 338q0 -172 -57.5 -261.5t-169.5 -89.5t-169.5 89.5t-57.5 261.5t57.5 260.5t169.5 88.5t169.5 -88.5t57.5 -260.5zM106 338q0 -158 49 -239t144 -81t144 81t49 239q0 157 -49 237.5t-144 80.5t-144 -80.5t-49 -237.5z" />
    <glyph glyph-name="one.pnum" horiz-adv-x="392" 
d="M227 0v598h-198v27l147 2q34 1 44 8t12 31l3 36h25v-702h-33z" />
    <glyph glyph-name="two.pnum" horiz-adv-x="576" 
d="M69 0v28l207 195q62 58 97 102t50 83t15 83q0 80 -46 122.5t-132 42.5q-91 0 -169 -45l-13 26q82 50 183 50t156 -51t55 -144q0 -47 -17 -91.5t-54.5 -92t-101.5 -106.5l-186 -173h373v-29h-417z" />
    <glyph glyph-name="three.pnum" horiz-adv-x="533" 
d="M49 638q38 23 86.5 36t99.5 13q96 0 150.5 -46t54.5 -127q0 -62 -34 -105t-93 -59q69 -15 108 -61t39 -117q0 -88 -59.5 -136.5t-166.5 -48.5q-57 0 -109.5 13.5t-90.5 38.5l13 27q78 -48 187 -48q94 0 143 39.5t49 115.5t-51 117.5t-143 41.5h-69l1 30h68q80 0 127 41
t47 111q0 68 -45 105t-128 37q-88 0 -172 -45z" />
    <glyph glyph-name="four.pnum" horiz-adv-x="605" 
d="M399 0v181h-354v27l339 466h47v-464h126v-29h-126v-181h-32zM83 210h316v433z" />
    <glyph glyph-name="five.pnum" horiz-adv-x="578" 
d="M272 -13q-124 0 -208 57l15 27q80 -53 192 -53q199 0 199 166q0 83 -48.5 128t-138.5 45q-96 0 -171 -56l-26 17v356h384v-29h-352v-311q69 54 169 54q102 0 159.5 -54t57.5 -151q0 -96 -59 -146t-173 -50z" />
    <glyph glyph-name="six.pnum" horiz-adv-x="585" 
d="M307 -13q-114 0 -174 85t-60 247q0 182 64.5 275t190.5 93q43 0 85.5 -11.5t76.5 -31.5l-12 -27q-71 39 -150 39q-221 0 -221 -339v-7v-17q32 47 88.5 75t119.5 28q94 0 148 -53.5t54 -147.5q0 -95 -56.5 -151.5t-153.5 -56.5zM310 365q-58 0 -110.5 -27.5t-90.5 -76.5
q9 -118 59.5 -180.5t138.5 -62.5q82 0 129 47.5t47 129.5q0 80 -45.5 125t-127.5 45z" />
    <glyph glyph-name="seven.pnum" horiz-adv-x="510" 
d="M20 645v29h435v-30l-280 -644h-36l281 645h-400z" />
    <glyph glyph-name="eight.pnum" horiz-adv-x="604" 
d="M302 -13q-108 0 -170 49.5t-62 136.5q0 74 39.5 120t109.5 55q-59 10 -93 52.5t-34 109.5q0 83 56.5 130t153.5 47q98 0 154 -47t56 -130q0 -67 -34.5 -109.5t-94.5 -52.5q71 -9 111 -55t40 -120q0 -87 -62 -136.5t-170 -49.5zM302 362q177 0 177 145q0 72 -45.5 110.5
t-131.5 38.5t-131.5 -38.5t-45.5 -110.5q0 -145 177 -145zM302 18q94 0 146 41.5t52 115.5q0 156 -198 156t-198 -156q0 -74 52 -115.5t146 -41.5z" />
    <glyph glyph-name="nine.pnum" horiz-adv-x="585" 
d="M278 687q114 0 174 -85t60 -246q0 -182 -64.5 -275.5t-190.5 -93.5q-43 0 -85 11.5t-77 31.5l12 27q71 -39 150 -39q221 0 221 340v7v17q-32 -47 -88.5 -75t-119.5 -28q-94 0 -148 53.5t-54 147.5q0 95 57 151t153 56zM102 480q0 -80 45.5 -125t127.5 -45
q58 0 110.5 27.5t90.5 76.5q-9 117 -59.5 179.5t-138.5 62.5q-81 0 -128.5 -47t-47.5 -129z" />
    <glyph glyph-name="zero.dnom" horiz-adv-x="383" 
d="M327 178q0 -91 -35 -139t-101 -48t-100.5 48t-34.5 139q0 92 34.5 139.5t101.5 47.5q66 0 100.5 -47.5t34.5 -139.5zM88 178q0 -158 103 -158q104 0 104 158t-103 158q-104 0 -104 -158z" />
    <glyph glyph-name="one.dnom" horiz-adv-x="253" 
d="M139 0v293h-99v27l71 2q17 1 23 6.5t8 21.5l2 14h26v-364h-31z" />
    <glyph glyph-name="two.dnom" horiz-adv-x="344" 
d="M48 0v26l120 101q46 39 64 67.5t18 61.5q0 39 -23 60t-66 21q-52 0 -93 -32l-14 23q41 37 109 37q57 0 88 -29t31 -82q0 -40 -20 -72t-72 -75l-94 -78h201v-29h-249z" />
    <glyph glyph-name="three.dnom" horiz-adv-x="345" 
d="M161 -9q-74 0 -124 39l13 24q47 -35 110 -35q47 0 72.5 20t25.5 57q0 33 -26.5 51.5t-74.5 18.5h-44l1 28h43q43 0 68 20t25 54q0 32 -23.5 50.5t-64.5 18.5q-55 0 -98 -32l-14 23q21 17 52 27t63 10q53 0 85 -25.5t32 -69.5q0 -34 -19.5 -57.5t-51.5 -31.5
q37 -6 58 -29.5t21 -58.5q0 -47 -35 -74.5t-94 -27.5z" />
    <glyph glyph-name="four.dnom" horiz-adv-x="371" 
d="M230 0v90h-189v25l178 241h41v-239h70v-27h-70v-90h-30zM77 117h153v207z" />
    <glyph glyph-name="five.dnom" horiz-adv-x="347" 
d="M170 -9q-72 0 -123 39l13 24q52 -34 110 -34q47 0 73 22t26 62q0 39 -25.5 61.5t-70.5 22.5q-52 0 -90 -29l-21 13v184h217v-29h-188v-138q33 27 90 27q55 0 87.5 -30t32.5 -82q0 -54 -34 -83.5t-97 -29.5z" />
    <glyph glyph-name="six.dnom" horiz-adv-x="364" 
d="M192 -9q-66 0 -101 45.5t-35 131.5q0 97 37.5 147t110.5 50q56 0 97 -26l-12 -24q-41 22 -83 22q-118 0 -118 -168q40 45 109 45q53 0 85 -30t32 -80q0 -51 -33 -82t-89 -31zM193 186q-59 0 -105 -44q6 -123 106 -123q41 0 64.5 22.5t23.5 62.5q0 38 -23.5 60t-65.5 22z
" />
    <glyph glyph-name="seven.dnom" horiz-adv-x="323" 
d="M35 327v29h243v-26l-142 -330h-35l142 327h-208z" />
    <glyph glyph-name="eight.dnom" horiz-adv-x="374" 
d="M187 -9q-64 0 -98.5 26.5t-34.5 74.5q0 36 20 60.5t55 32.5q-29 8 -46 30.5t-17 53.5q0 44 33 70t88 26t88 -26t33 -70q0 -31 -17 -53.5t-46 -30.5q35 -8 55 -32.5t20 -60.5q0 -48 -34.5 -74.5t-98.5 -26.5zM187 197q43 0 66.5 18t23.5 50q0 34 -24 53t-66 19t-66 -19
t-24 -53q0 -32 23.5 -50t66.5 -18zM187 19q48 0 74.5 19.5t26.5 54.5q0 37 -26 56.5t-75 19.5t-75 -19.5t-26 -56.5q0 -35 26.5 -54.5t74.5 -19.5z" />
    <glyph glyph-name="nine.dnom" horiz-adv-x="364" 
d="M172 365q66 0 101 -45.5t35 -131.5q0 -97 -37.5 -147t-110.5 -50q-56 0 -97 26l12 24q41 -22 83 -22q118 0 118 168q-40 -45 -109 -45q-53 0 -85 30t-32 80q0 51 33.5 82t88.5 31zM82 252q0 -38 23.5 -60t65.5 -22q59 0 105 44q-6 123 -106 123q-41 0 -64.5 -22
t-23.5 -63z" />
    <glyph glyph-name="zero.numr" horiz-adv-x="383" 
d="M327 496q0 -91 -35 -139t-101 -48t-100.5 48t-34.5 139q0 92 34.5 139.5t101.5 47.5q66 0 100.5 -47.5t34.5 -139.5zM88 496q0 -158 103 -158q104 0 104 158t-103 158q-104 0 -104 -158z" />
    <glyph glyph-name="one.numr" horiz-adv-x="253" 
d="M139 318v293h-99v27l71 2q17 1 23 6.5t8 21.5l2 14h26v-364h-31z" />
    <glyph glyph-name="two.numr" horiz-adv-x="344" 
d="M48 318v26l120 101q46 39 64 67.5t18 61.5q0 39 -23 60t-66 21q-52 0 -93 -32l-14 23q41 37 109 37q57 0 88 -29t31 -82q0 -40 -20 -72t-72 -75l-94 -78h201v-29h-249z" />
    <glyph glyph-name="three.numr" horiz-adv-x="345" 
d="M161 309q-74 0 -124 39l13 24q47 -35 110 -35q47 0 72.5 20t25.5 57q0 33 -26.5 51.5t-74.5 18.5h-44l1 28h43q43 0 68 20t25 54q0 32 -23.5 50.5t-64.5 18.5q-55 0 -98 -32l-14 23q21 17 52 27t63 10q53 0 85 -25.5t32 -69.5q0 -34 -19.5 -57.5t-51.5 -31.5
q37 -6 58 -29.5t21 -58.5q0 -47 -35 -74.5t-94 -27.5z" />
    <glyph glyph-name="four.numr" horiz-adv-x="371" 
d="M230 318v90h-189v25l178 241h41v-239h70v-27h-70v-90h-30zM77 435h153v207z" />
    <glyph glyph-name="five.numr" horiz-adv-x="347" 
d="M170 309q-72 0 -123 39l13 24q52 -34 110 -34q47 0 73 22t26 62q0 39 -25.5 61.5t-70.5 22.5q-52 0 -90 -29l-21 13v184h217v-29h-188v-138q33 27 90 27q55 0 87.5 -30t32.5 -82q0 -54 -34 -83.5t-97 -29.5z" />
    <glyph glyph-name="six.numr" horiz-adv-x="364" 
d="M192 309q-66 0 -101 45.5t-35 131.5q0 97 37.5 147t110.5 50q56 0 97 -26l-12 -24q-41 22 -83 22q-118 0 -118 -168q40 45 109 45q53 0 85 -30t32 -80q0 -51 -33 -82t-89 -31zM193 504q-59 0 -105 -44q6 -123 106 -123q41 0 64.5 22.5t23.5 62.5q0 38 -23.5 60t-65.5 22z
" />
    <glyph glyph-name="seven.numr" horiz-adv-x="323" 
d="M35 645v29h243v-26l-142 -330h-35l142 327h-208z" />
    <glyph glyph-name="eight.numr" horiz-adv-x="374" 
d="M187 309q-64 0 -98.5 26.5t-34.5 74.5q0 36 20 60.5t55 32.5q-29 8 -46 30.5t-17 53.5q0 44 33 70t88 26t88 -26t33 -70q0 -31 -17 -53.5t-46 -30.5q35 -8 55 -32.5t20 -60.5q0 -48 -34.5 -74.5t-98.5 -26.5zM187 515q43 0 66.5 18t23.5 50q0 34 -24 53t-66 19t-66 -19
t-24 -53q0 -32 23.5 -50t66.5 -18zM187 337q48 0 74.5 19.5t26.5 54.5q0 37 -26 56.5t-75 19.5t-75 -19.5t-26 -56.5q0 -35 26.5 -54.5t74.5 -19.5z" />
    <glyph glyph-name="nine.numr" horiz-adv-x="364" 
d="M172 683q66 0 101 -45.5t35 -131.5q0 -97 -37.5 -147t-110.5 -50q-56 0 -97 26l12 24q41 -22 83 -22q118 0 118 168q-40 -45 -109 -45q-53 0 -85 30t-32 80q0 51 33.5 82t88.5 31zM82 570q0 -38 23.5 -60t65.5 -22q59 0 105 44q-6 123 -106 123q-41 0 -64.5 -22
t-23.5 -63z" />
    <glyph glyph-name="hyphen.case" horiz-adv-x="401" 
d="M71 335v32h259v-32h-259z" />
    <glyph glyph-name="uni2010.case" horiz-adv-x="401" 
d="M71 335v32h259v-32h-259z" />
    <glyph glyph-name="uni2011.case" horiz-adv-x="401" 
d="M71 335v32h259v-32h-259z" />
    <glyph glyph-name="uni00AD.case" horiz-adv-x="401" 
d="M71 335v32h259v-32h-259z" />
    <glyph glyph-name="endash.case" horiz-adv-x="450" 
d="M0 336v30h450v-30h-450z" />
    <glyph glyph-name="emdash.case" horiz-adv-x="900" 
d="M0 336v30h900v-30h-900z" />
    <glyph glyph-name="parenleft.case" horiz-adv-x="343" 
d="M247 -117q-67 98 -102 210.5t-35 241.5t35 242t102 210h36q-139 -205 -139 -452t139 -452h-36z" />
    <glyph glyph-name="parenright.case" horiz-adv-x="343" 
d="M96 -117h-36q139 205 139 452t-139 452h36q68 -97 102.5 -210t34.5 -242t-34.5 -241.5t-102.5 -210.5z" />
    <glyph glyph-name="slash.case" horiz-adv-x="379" 
d="M25 -117l295 904h34l-295 -904h-34z" />
    <glyph glyph-name="backslash.case" horiz-adv-x="379" 
d="M354 -117h-34l-295 904h34z" />
    <glyph glyph-name="bracketleft.case" horiz-adv-x="372" 
d="M122 -117v904h214v-30h-181v-844h181v-30h-214z" />
    <glyph glyph-name="bracketright.case" horiz-adv-x="372" 
d="M250 -117h-214v30h181v844h-181v30h214v-904z" />
    <glyph glyph-name="braceleft.case" horiz-adv-x="411" 
d="M288 -128q-65 0 -101 29t-36 87q0 29 10 60t35 81q23 47 31 70t8 43q0 34 -21 56t-74 22h-79v30h79q53 0 74 22.5t21 55.5q0 20 -8 43t-31 70q-25 50 -35 81.5t-10 59.5q0 58 36 87t101 29q18 0 38 -2.5t49 -10.5v-30q-29 8 -50.5 10t-35.5 2q-49 0 -77 -20t-28 -65
q0 -25 9.5 -53.5t33.5 -78.5q23 -48 32 -74t9 -47q0 -34 -18.5 -61t-55.5 -33q37 -6 55.5 -33t18.5 -61q0 -21 -9 -47t-32 -74q-24 -49 -33.5 -78t-9.5 -54q0 -45 28 -65t77 -20q14 0 35.5 2.5t50.5 9.5v-30q-29 -7 -49 -10t-38 -3z" />
    <glyph glyph-name="braceright.case" horiz-adv-x="411" 
d="M123 -128q-18 0 -38 3t-49 10v30q29 -7 50.5 -9.5t35.5 -2.5q50 0 77.5 20t27.5 65q0 25 -9.5 54t-33.5 78q-23 48 -32 74t-9 47q0 34 18.5 61t55.5 33q-37 6 -55.5 33t-18.5 61q0 21 9 47t32 74q24 50 33.5 78.5t9.5 53.5q0 45 -27.5 65t-77.5 20q-14 0 -35.5 -2
t-50.5 -10v30q29 8 49 10.5t38 2.5q65 0 101 -29t36 -87q0 -28 -10 -59.5t-35 -81.5q-23 -47 -31 -70t-8 -43q0 -33 21.5 -55.5t73.5 -22.5h79v-30h-79q-52 0 -73.5 -22t-21.5 -56q0 -20 8 -43t31 -70q25 -50 35 -81t10 -60q0 -58 -36 -87t-101 -29z" />
    <glyph glyph-name="bullet.case" horiz-adv-x="538" 
d="M130 191v288h278v-288h-278z" />
    <glyph glyph-name="guilsinglleft.case" horiz-adv-x="366" 
d="M263 107l-208 213l208 213h42l-207 -213l208 -213h-43z" />
    <glyph glyph-name="guilsinglright.case" horiz-adv-x="366" 
d="M103 107h-43l208 213l-207 213h42l208 -213z" />
    <glyph glyph-name="guillemotleft.case" horiz-adv-x="581" 
d="M263 107l-208 213l208 213h42l-207 -213l208 -213h-43zM478 107l-208 213l208 213h42l-207 -213l208 -213h-43z" />
    <glyph glyph-name="guillemotright.case" horiz-adv-x="581" 
d="M103 107h-43l208 213l-207 213h42l208 -213zM318 107h-43l208 213l-207 213h42l208 -213z" />
    <glyph glyph-name="at.case" horiz-adv-x="953" 
d="M487 -102q-197 0 -302 105t-105 303q0 135 48 231.5t138.5 148t216.5 51.5q186 0 288 -98t102 -277q0 -122 -44.5 -191t-124.5 -69q-91 0 -113 76q-49 -76 -150 -76q-61 0 -95.5 31t-34.5 87q0 62 43 95.5t124 33.5h108v42q0 68 -26 95.5t-88 27.5q-63 0 -127 -30l-10 25
q60 33 142 33q73 0 106 -34t33 -108v-166q0 -104 89 -104q64 0 100 61.5t36 169.5q0 165 -94 255.5t-264 90.5q-115 0 -198.5 -48t-128 -138t-44.5 -215q0 -184 96 -281t279 -97q147 0 251 56l11 -26q-49 -28 -117.5 -44t-144.5 -16zM448 130q84 0 138 77v115h-106
q-138 0 -138 -103q0 -89 106 -89z" />
    <glyph glyph-name="periodcentered.case" horiz-adv-x="187" 
d="M72 305v70h43v-70h-43z" />
    <glyph glyph-name="questiondown.case" horiz-adv-x="473" 
d="M245 604v70h43v-70h-43zM248 -14q-94 0 -145 43.5t-51 122.5q0 50 22.5 89t80.5 86q39 32 59.5 56.5t28.5 50.5t8 61h30q0 -42 -9 -73t-31.5 -58.5t-63.5 -60.5q-35 -28 -55 -51t-28 -46t-8 -53q0 -136 163 -136q91 0 174 44l11 -27q-82 -48 -186 -48z" />
    <glyph glyph-name="exclamdown.case" horiz-adv-x="207" 
d="M82 604v70h43v-70h-43zM86 0l3 495h29l3 -495h-35z" />
    <glyph glyph-name="periodcentered.loclCAT" horiz-adv-x="35" 
d="M-32 337v54h50v-54h-50z" />
    <glyph glyph-name="periodcentered.loclCAT.cap" horiz-adv-x="0" 
d="M-147 325v54h50v-54h-50z" />
    <glyph glyph-name="uni0327.cap" horiz-adv-x="0" 
d="M-5 -239q-25 0 -47 3.5t-46 12.5v28q26 -8 46 -11t47 -3q79 0 79 58q0 33 -21.5 48t-87.5 19l19 95l30 -1l-14 -68q49 -6 78 -26.5t29 -66.5q0 -42 -29.5 -65t-82.5 -23z" />
    <glyph glyph-name="uni0326.cap" horiz-adv-x="0" 
d="M-47 -244l25 162h38l-36 -162h-27z" />
    <glyph glyph-name="commabelow" horiz-adv-x="0" 
d="M-47 -244l25 162h38l-36 -162h-27z" />
    <glyph glyph-name="uni0328.cap" horiz-adv-x="0" 
d="M-27 -201q-47 0 -71.5 23t-24.5 63q0 35 22 68t74 61l27 -14q-52 -29 -71 -56.5t-19 -56.5q0 -31 17 -44.5t52 -13.5q25 0 43 6v-28q-18 -8 -49 -8z" />
    <glyph glyph-name="uni0328.round" horiz-adv-x="0" 
d="M-34 -201q-46 0 -71.5 24t-25.5 67q0 41 25.5 80.5t88.5 84.5l18 -14q-50 -36 -74.5 -73.5t-24.5 -74.5q0 -36 18 -50t53 -14q25 0 43 6v-28q-18 -8 -50 -8z" />
    <glyph glyph-name="acutecomb.cap" horiz-adv-x="0" 
d="M-55 753l130 143h46l-136 -143h-40z" />
    <glyph glyph-name="IJacute" horiz-adv-x="704" 
d="M115 0v674h34v-674h-34zM432 -13q-61 0 -117 31l12 28q47 -27 107 -27q69 0 98.5 40t29.5 134v450h-197v31h231v-482q0 -107 -39 -156t-125 -49zM77 753l130 143h46l-136 -143h-40zM461 753l130 143h46l-136 -143h-40z" />
    <glyph glyph-name="ijacute" horiz-adv-x="490" 
d="M115 0v476h-74v28h106v-504h-32zM304 -201q-35 0 -53 8v28q18 -6 45 -6q37 0 50.5 22t13.5 68v557h-74v28h106v-598q0 -51 -21.5 -79t-66.5 -28zM69 614l122 164h43l-130 -164h-35zM314 614l122 164h43l-130 -164h-35z" />
    <glyph glyph-name="gravecomb.cap" horiz-adv-x="0" 
d="M-7 753l-136 143h46l130 -143h-40z" />
    <glyph glyph-name="uni0302.cap" horiz-adv-x="0" 
d="M-136 753l120 143h34l117 -143h-39l-95 117l-98 -117h-39z" />
    <glyph glyph-name="tildecomb.cap" horiz-adv-x="0" 
d="M-157 753q0 77 16.5 109.5t59.5 32.5q30 0 47.5 -14t35.5 -37l20 -26q15 -19 27.5 -30t31.5 -11q28 0 37 26t9 88h30q0 -77 -16.5 -109.5t-59.5 -32.5q-30 0 -47 14t-35 37l-20 26q-15 20 -28 30.5t-32 10.5q-28 0 -37 -26t-9 -88h-30z" />
    <glyph glyph-name="uni030C.cap" horiz-adv-x="0" 
d="M-15 753l-119 143h39l97 -117l96 117h38l-118 -143h-33z" />
    <glyph glyph-name="uni0308.cap" horiz-adv-x="0" 
d="M-113 781v54h50v-54h-50zM63 781v54h50v-54h-50z" />
    <glyph glyph-name="uni0306.cap" horiz-adv-x="0" 
d="M0 749q-70 0 -102.5 39t-32.5 108h32q0 -57 24.5 -88t78.5 -31t78.5 31t24.5 88h32q0 -69 -32.5 -108t-102.5 -39z" />
    <glyph glyph-name="uni030A.cap" horiz-adv-x="0" 
d="M0 736q-39 0 -63.5 24.5t-24.5 64.5t24.5 64.5t63.5 24.5t63.5 -24.5t24.5 -64.5t-24.5 -64.5t-63.5 -24.5zM0 762q26 0 42.5 17t16.5 46t-16.5 46t-42.5 17t-42.5 -17t-16.5 -46t16.5 -46t42.5 -17z" />
    <glyph glyph-name="uni0307.cap" horiz-adv-x="0" 
d="M-25 781v54h50v-54h-50z" />
    <glyph glyph-name="cent.BRACKET.160" 
d="M298 -48v84q-195 16 -195 256q0 243 195 262v85h31v-83h4q75 0 140 -34l-13 -27q-30 15 -64.5 23.5t-66.5 8.5v-463q69 1 134 38l12 -26q-30 -19 -68.5 -30t-77.5 -11v-83h-31zM135 293q0 -211 163 -228v461q-163 -18 -163 -233z" />
    <glyph glyph-name="dollar.BRACKET.160" 
d="M279 -67v94q-60 1 -117.5 14t-90.5 32l11 29q81 -43 197 -45v265l-21 4q-91 18 -130 52.5t-39 96.5q0 69 50 109.5t140 44.5v97h31v-97q96 -2 174 -39l-10 -27q-41 18 -80 26.5t-84 9.5v-251l10 -2q69 -13 109.5 -33t58 -51.5t17.5 -79.5q0 -72 -50 -111.5t-145 -43.5
v-94h-31zM263 357l16 -3v245q-156 -7 -156 -125q0 -50 31 -76t109 -41zM315 315l-5 1v-259q161 7 161 124q0 40 -14 65t-48 41.5t-94 27.5z" />
    <glyph glyph-name="g.salt" horiz-adv-x="517" 
d="M263 185q-38 0 -70 10q-81 -30 -81 -89q0 -28 23 -41t75 -13h90q95 0 138.5 -29t43.5 -91q0 -70 -53 -101.5t-170 -31.5q-113 0 -163.5 29.5t-50.5 94.5q0 78 82 109q-48 18 -48 71q0 66 89 103q-40 19 -61.5 56.5t-21.5 88.5q0 77 48 121.5t130 44.5q50 0 89 -17
q34 3 62.5 4.5t60.5 1.5h12v-28h-100q54 -45 54 -127q0 -76 -47.5 -121t-130.5 -45zM263 214q67 0 106 36.5t39 100.5t-39 100.5t-106 36.5t-106 -36.5t-39 -100.5t39 -100.5t106 -36.5zM78 -74q0 -52 42.5 -74.5t138.5 -22.5q102 0 146 23.5t44 78.5q0 48 -35 69.5
t-114 21.5h-105q-18 0 -33 2q-84 -23 -84 -98z" />
    </font>
</defs>
</svg>
