<?xml version="1.0" standalone="no"?>
<!DOCTYPE svg PUBLIC "-//W3C//DTD SVG 1.1//EN" "http://www.w3.org/Graphics/SVG/1.1/DTD/svg11.dtd" >
<svg xmlns="http://www.w3.org/2000/svg" xmlns:xlink="http://www.w3.org/1999/xlink" version="1.1">
<metadata>
Created by FontForge 20170731 at Tue Mar 10 13:57:51 2020
 By Aleksey,,,
(c) 2020 Goldman Sachs. All rights reserved.
</metadata>
<defs>
<font id="GoldmanSans-Regular" horiz-adv-x="580" >
  <font-face 
    font-family="Goldman Sans"
    font-weight="400"
    font-stretch="normal"
    units-per-em="1000"
    panose-1="2 11 6 3 2 2 3 2 2 4"
    ascent="712"
    descent="-288"
    x-height="509"
    cap-height="674"
    bbox="-179 -258 1167 956"
    underline-thickness="77"
    underline-position="-192"
    unicode-range="U+000D-FEFF"
  />
<missing-glyph horiz-adv-x="500" 
d="M55 0v674h390v-674h-390zM128 66h244v542h-244v-542z" />
    <glyph glyph-name="f_f" unicode="ff" horiz-adv-x="691" 
d="M111 0v440h-94v69h94v40q0 173 165 173q39 0 71 -8v-69q-17 3 -28 4t-25 1q-55 0 -75.5 -22t-20.5 -82v-37h230v40q0 173 170 173q22 0 41.5 -2t38.5 -7v-69q-20 4 -33 5t-30 1q-58 0 -78.5 -21.5t-20.5 -82.5v-37h162v-69h-161v-440h-89v440h-229v-440h-88z" />
    <glyph glyph-name="f_i" unicode="fi" horiz-adv-x="635" 
d="M111 0v440h-94v69h94v40q0 173 165 173q39 0 71 -8v-69q-17 3 -28 4t-25 1q-55 0 -75.5 -22t-20.5 -82v-37h149v-69h-148v-440h-88zM454 616v99h100v-99h-100zM464 0v440h-73v69h162v-509h-89z" />
    <glyph glyph-name="f_j" unicode="fj" horiz-adv-x="635" 
d="M111 0v440h-94v69h94v40q0 173 165 173q39 0 71 -8v-69q-17 3 -28 4t-25 1q-55 0 -75.5 -22t-20.5 -82v-37h149v-69h-148v-440h-88zM454 616v99h100v-99h-100zM426 -202q-17 0 -31.5 2t-27.5 6v69q11 -3 21 -4t20 -1q32 0 44 16.5t12 54.5v499h-73v69h162v-562
q0 -78 -31 -113.5t-96 -35.5z" />
    <glyph glyph-name="f_f_i" unicode="ffi" horiz-adv-x="952" 
d="M111 0v440h-94v69h94v40q0 173 165 173q39 0 71 -8v-69q-17 3 -28 4t-25 1q-55 0 -75.5 -22t-20.5 -82v-37h230v40q0 173 165 173q39 0 71 -8v-69q-17 3 -28 4t-24 1q-56 0 -76 -22t-20 -82v-37h148v-69h-147v-440h-89v440h-229v-440h-88zM771 616v99h100v-99h-100z
M781 0v440h-73v69h162v-509h-89z" />
    <glyph glyph-name="f_f_j" unicode="ffj" horiz-adv-x="952" 
d="M111 0v440h-94v69h94v40q0 173 165 173q39 0 71 -8v-69q-17 3 -28 4t-25 1q-55 0 -75.5 -22t-20.5 -82v-37h230v40q0 173 165 173q39 0 71 -8v-69q-17 3 -28 4t-24 1q-56 0 -76 -22t-20 -82v-37h148v-69h-147v-440h-89v440h-229v-440h-88zM771 616v99h100v-99h-100z
M744 -202q-18 0 -32.5 2t-27.5 6v69q11 -3 21 -4t20 -1q32 0 44 16.5t12 54.5v499h-73v69h162v-562q0 -78 -30.5 -113.5t-95.5 -35.5z" />
    <glyph glyph-name=".notdef" horiz-adv-x="500" 
d="M55 0v674h390v-674h-390zM128 66h244v542h-244v-542z" />
    <glyph glyph-name="uni0000" horiz-adv-x="0" 
 />
    <glyph glyph-name="uni0000" horiz-adv-x="0" 
 />
    <glyph glyph-name="uni000D" unicode="&#xd;" horiz-adv-x="229" 
 />
    <glyph glyph-name="space" unicode=" " horiz-adv-x="229" 
 />
    <glyph glyph-name="exclam" unicode="!" horiz-adv-x="256" 
d="M89 207l-10 467h97l-9 -467h-78zM75 0v116h106v-116h-106z" />
    <glyph glyph-name="quotedbl" unicode="&#x22;" horiz-adv-x="386" 
d="M68 414l-11 298h98l-11 -298h-76zM242 414l-11 298h98l-11 -298h-76z" />
    <glyph glyph-name="numbersign" unicode="#" 
d="M94 0l28 173h-91v63h101l32 202h-112v63h122l28 173h70l-28 -173h145l28 173h70l-28 -173h90v-63h-100l-32 -202h111v-63h-121l-28 -173h-70l28 173h-145l-28 -173h-70zM202 236h145l32 202h-145z" />
    <glyph glyph-name="dollar" unicode="$" 
d="M267 -67v94q-60 2 -115 14t-96 32l21 73q87 -41 190 -44v195l-29 5q-90 17 -128.5 54.5t-38.5 107.5q0 73 50.5 115.5t144.5 48.5v98h56v-97q94 -4 173 -36l-22 -71q-72 29 -151 32v-190l19 -4q67 -13 106 -33t56 -52.5t17 -82.5q0 -74 -50.5 -115.5t-146.5 -48.5v-95
h-56zM152 461q0 -37 25 -55.5t89 -31.5v179q-114 -10 -114 -92zM437 195q0 41 -24.5 60t-89.5 31v-182q114 10 114 91z" />
    <glyph glyph-name="percent" unicode="%" horiz-adv-x="847" 
d="M175 0l402 674h95l-403 -674h-94zM799 181q0 -190 -151 -190q-74 0 -112.5 48.5t-38.5 141.5q0 190 152 190q74 0 112 -48.5t38 -141.5zM577 181q0 -67 17 -97t54 -30q38 0 55 30t17 97t-17 97t-54 30t-54.5 -30t-17.5 -97zM349 494q0 -190 -151 -190q-74 0 -112.5 48.5
t-38.5 141.5q0 190 152 190q74 0 112 -48.5t38 -141.5zM127 494q0 -67 17 -97t54 -30q38 0 55 30t17 97t-17 97t-54 30t-54.5 -30t-17.5 -97z" />
    <glyph glyph-name="ampersand" unicode="&#x26;" horiz-adv-x="690" 
d="M280 -14q-111 0 -172 50t-61 141q0 120 117 196q-21 31 -29.5 61t-8.5 65q0 89 61.5 139t170.5 50q46 0 91 -9t77 -24l-22 -73q-38 14 -71 21t-66 7q-73 0 -113 -30.5t-40 -86.5q0 -29 12 -55t42.5 -59.5t86.5 -83.5l128 -113q32 74 34 198h-106v69h185v-65
q0 -159 -53 -256l144 -128h-123l-70 63q-79 -77 -214 -77zM140 190q0 -62 39.5 -95t112.5 -33q91 0 145 52l-176 156q-31 28 -53 50q-68 -45 -68 -130z" />
    <glyph glyph-name="quotesingle" unicode="'" horiz-adv-x="212" 
d="M68 414l-11 298h98l-11 -298h-76z" />
    <glyph glyph-name="parenleft" unicode="(" horiz-adv-x="367" 
d="M234 -162q-139 193 -139 452t139 452h91q-137 -202 -137 -452t137 -452h-91z" />
    <glyph glyph-name="parenright" unicode=")" horiz-adv-x="367" 
d="M133 -162h-91q137 202 137 452t-137 452h91q139 -193 139 -452t-139 -452z" />
    <glyph glyph-name="asterisk" unicode="*" horiz-adv-x="496" 
d="M153 311l-59 44l107 132l-158 46l23 70l152 -60l-7 168h74l-8 -168l153 60l22 -70l-157 -46l107 -132l-60 -44l-94 142z" />
    <glyph glyph-name="plus" unicode="+" 
d="M252 108v188h-180v75h180v188h76v-188h180v-75h-180v-188h-76z" />
    <glyph glyph-name="comma" unicode="," horiz-adv-x="245" 
d="M46 -150l26 266h105l-58 -266h-73z" />
    <glyph glyph-name="hyphen" unicode="-" horiz-adv-x="402" 
d="M59 238v83h284v-83h-284z" />
    <glyph glyph-name="period" unicode="." horiz-adv-x="245" 
d="M69 0v116h107v-116h-107z" />
    <glyph glyph-name="slash" unicode="/" horiz-adv-x="425" 
d="M18 -162l295 904h94l-295 -904h-94z" />
    <glyph glyph-name="zero" unicode="0" 
d="M532 337q0 -171 -62 -261t-180 -90t-179.5 90t-61.5 261t61.5 261t179.5 90t180 -90t62 -261zM144 337q0 -142 35 -208t111 -66t111 66t35 208q0 143 -35 208.5t-111 65.5t-111 -65.5t-35 -208.5z" />
    <glyph glyph-name="one" unicode="1" 
d="M86 0v79h174v474h-170v69l137 4q24 1 33.5 8.5t12.5 27.5l4 35h74v-618h162v-79h-427z" />
    <glyph glyph-name="two" unicode="2" 
d="M62 0v72l212 197q69 64 96 110.5t27 97.5q0 63 -37.5 96.5t-107.5 33.5q-78 0 -158 -39l-30 68q92 52 195 52q111 0 171.5 -54t60.5 -152q0 -69 -35 -130.5t-118 -136.5l-151 -137h321v-78h-446z" />
    <glyph glyph-name="three" unicode="3" 
d="M65 637q42 23 91.5 37t107.5 14q108 0 167 -49t59 -134q0 -62 -34.5 -102t-90.5 -54q70 -13 106 -59t36 -113q0 -91 -63.5 -141t-179.5 -50q-62 0 -116 15t-96 40l28 70q39 -22 85.5 -34t93.5 -12q75 0 115 31t40 94q0 53 -33.5 85t-113.5 32h-81l1 77h76q70 0 101.5 30
t31.5 82q0 59 -37.5 85.5t-102.5 26.5q-43 0 -84.5 -10.5t-79.5 -28.5z" />
    <glyph glyph-name="four" unicode="4" 
d="M359 0v152h-332v75l313 447h104v-444h104v-78h-104v-152h-85zM117 230h242v346z" />
    <glyph glyph-name="five" unicode="5" 
d="M271 -14q-124 0 -213 56l29 71q84 -48 177 -48q161 0 161 130q0 65 -38.5 99.5t-109.5 34.5q-80 0 -140 -44l-61 34v355h405v-79h-323v-241q52 50 149 50q99 0 155 -55.5t56 -154.5q0 -102 -62.5 -155t-184.5 -53z" />
    <glyph glyph-name="six" unicode="6" 
d="M300 -14q-249 0 -249 334q0 368 277 368q97 0 173 -41l-28 -71q-67 33 -136 33q-99 0 -145 -69.5t-46 -218.5q27 40 73 61.5t103 21.5q95 0 150 -54t55 -148q0 -100 -60.5 -158t-166.5 -58zM299 331q-91 0 -152 -70q11 -200 152 -200q64 0 99.5 36.5t35.5 101.5
q0 64 -35 98t-100 34z" />
    <glyph glyph-name="seven" unicode="7" 
d="M63 595v79h457v-72l-262 -602h-102l262 595h-355z" />
    <glyph glyph-name="eight" unicode="8" 
d="M290 -14q-116 0 -179 49.5t-63 140.5q0 68 36 112.5t101 57.5q-55 13 -86.5 54.5t-31.5 103.5q0 85 60 134.5t163 49.5t163 -49.5t60 -134.5q0 -62 -31.5 -103.5t-87.5 -54.5q65 -12 101.5 -57t36.5 -113q0 -91 -63 -140.5t-179 -49.5zM290 381q131 0 131 115
q0 58 -33.5 87.5t-97.5 29.5t-97.5 -29.5t-33.5 -87.5q0 -115 131 -115zM290 61q71 0 109 31.5t38 91.5q0 123 -147 123t-147 -123q0 -60 38 -91.5t109 -31.5z" />
    <glyph glyph-name="nine" unicode="9" 
d="M279 688q249 0 249 -333q0 -369 -277 -369q-47 0 -91.5 11t-81.5 30l28 71q69 -33 137 -33q98 0 144.5 70t46.5 218v0q-28 -39 -73.5 -61t-103.5 -22q-94 0 -149 54.5t-55 147.5q0 100 60.5 158t165.5 58zM146 475q0 -64 35 -98t99 -34q89 0 153 71q-11 199 -153 199
q-63 0 -98.5 -36t-35.5 -102z" />
    <glyph glyph-name="colon" unicode=":" horiz-adv-x="245" 
d="M69 0v116h107v-116h-107zM69 393v116h107v-116h-107z" />
    <glyph glyph-name="semicolon" unicode=";" horiz-adv-x="245" 
d="M46 -150l26 266h105l-58 -266h-73zM69 393v116h107v-116h-107z" />
    <glyph glyph-name="less" unicode="&#x3c;" 
d="M508 571v-84l-342 -152l342 -150v-86l-436 192v87z" />
    <glyph glyph-name="equal" unicode="=" 
d="M72 417v77h436v-77h-436zM72 174v77h436v-77h-436z" />
    <glyph glyph-name="greater" unicode="&#x3e;" 
d="M72 99v84l344 151l-344 151v86l436 -192v-88z" />
    <glyph glyph-name="question" unicode="?" horiz-adv-x="474" 
d="M169 207q0 43 9 74.5t30.5 58t58.5 54.5q44 34 60.5 59t16.5 58q0 98 -129 98q-78 0 -158 -39l-25 74q42 22 88.5 33t101.5 11q105 0 159.5 -44.5t54.5 -130.5q0 -54 -22 -91.5t-80 -81.5q-33 -25 -51 -44.5t-25 -40t-7 -48.5h-82zM156 0v116h106v-116h-106z" />
    <glyph glyph-name="at" unicode="@" horiz-adv-x="953" 
d="M482 -221q-202 0 -310 108.5t-108 312.5q0 139 49.5 236.5t144 149.5t227.5 52q194 0 299 -100.5t105 -284.5q0 -123 -51 -190.5t-145 -67.5q-100 0 -125 71q-48 -71 -136 -71q-64 0 -99.5 33t-35.5 91q0 131 174 131h88v22q0 54 -20 75t-71 21q-59 0 -124 -27l-16 60
q36 15 74.5 23.5t75.5 8.5q81 0 118.5 -36.5t37.5 -114.5v-147q0 -77 68 -77q53 0 82 50.5t29 144.5q0 154 -84 235t-243 81q-166 0 -256 -96.5t-90 -272.5q0 -174 87.5 -263t258.5 -89q62 0 122 13t113 37l24 -62q-53 -27 -121 -42t-142 -15zM451 56q67 0 108 56v87h-79
q-104 0 -104 -77q0 -66 75 -66z" />
    <glyph glyph-name="A" unicode="A" horiz-adv-x="624" 
d="M30 0l224 674h122l218 -674h-96l-53 170h-266l-54 -170h-95zM203 246h219l-109 347z" />
    <glyph glyph-name="B" unicode="B" horiz-adv-x="620" 
d="M93 0v674h239q97 0 149 -46.5t52 -133.5q0 -121 -99 -146q59 -12 92 -55.5t33 -111.5q0 -89 -54.5 -135t-159.5 -46h-252zM321 598h-136v-216h144q112 0 112 107q0 57 -28 83t-92 26zM339 307h-154v-231h151q67 0 97.5 27.5t30.5 86.5q0 117 -125 117z" />
    <glyph glyph-name="C" unicode="C" horiz-adv-x="555" 
d="M342 -14q-143 0 -212 84t-69 257q0 178 72.5 269.5t214.5 91.5q47 0 90.5 -9.5t76.5 -26.5l-24 -72q-32 14 -65.5 21t-67.5 7q-103 0 -152 -68.5t-49 -212.5q0 -139 46 -200t150 -61q83 0 141 29l22 -72q-30 -17 -76 -27t-98 -10z" />
    <glyph glyph-name="D" unicode="D" horiz-adv-x="655" 
d="M93 0v674h205q148 0 224 -85.5t76 -252.5q0 -166 -76 -251t-224 -85h-205zM288 596h-102v-518h102q111 0 161.5 61.5t50.5 197.5q0 137 -50 198t-162 61z" />
    <glyph glyph-name="E" unicode="E" horiz-adv-x="559" 
d="M93 0v674h404v-78h-312v-214h266v-78h-266v-226h315v-78h-407z" />
    <glyph glyph-name="F" unicode="F" horiz-adv-x="525" 
d="M93 0v674h387v-78h-294v-227h261v-77h-261v-292h-93z" />
    <glyph glyph-name="G" unicode="G" horiz-adv-x="636" 
d="M357 -14q-153 0 -224.5 83.5t-71.5 260.5q0 358 303 358q108 0 186 -39l-25 -73q-77 32 -152 32q-113 0 -164.5 -66t-51.5 -212q0 -96 20.5 -154.5t66 -84.5t120.5 -26q29 0 58 3.5t52 9.5v204h-148v77h235v-339q-43 -16 -96.5 -25t-107.5 -9z" />
    <glyph glyph-name="H" unicode="H" horiz-adv-x="667" 
d="M93 0v674h93v-289h295v289h93v-674h-93v307h-295v-307h-93z" />
    <glyph glyph-name="I" unicode="I" horiz-adv-x="279" 
d="M93 0v674h93v-674h-93z" />
    <glyph glyph-name="J" unicode="J" horiz-adv-x="453" 
d="M173 -14q-74 0 -133 31l26 75q51 -24 99 -24q59 0 84 33t25 112v383h-183v78h276v-470q0 -112 -47 -165t-147 -53z" />
    <glyph glyph-name="K" unicode="K" horiz-adv-x="585" 
d="M93 0v674h93v-323l254 323h103l-262 -330l290 -344h-113l-272 323v-323h-93z" />
    <glyph glyph-name="L" unicode="L" horiz-adv-x="514" 
d="M93 0v674h93v-596h289v-78h-382z" />
    <glyph glyph-name="M" unicode="M" horiz-adv-x="834" 
d="M93 0v674h118l206 -487l206 487h118v-674h-85v559l-195 -456h-89l-194 450v-553h-85z" />
    <glyph glyph-name="N" unicode="N" horiz-adv-x="684" 
d="M93 0v674h106l306 -556v556h86v-674h-106l-306 557v-557h-86z" />
    <glyph glyph-name="O" unicode="O" horiz-adv-x="668" 
d="M334 -14q-134 0 -203.5 89.5t-69.5 261.5q0 173 69.5 262t203.5 89t203.5 -89t69.5 -262q0 -172 -69.5 -261.5t-203.5 -89.5zM334 66q89 0 133 67t44 204t-44 204t-133 67t-133 -67t-44 -204t44 -204t133 -67z" />
    <glyph glyph-name="P" unicode="P" horiz-adv-x="591" 
d="M93 0v674h223q231 0 231 -214q0 -212 -231 -212h-130v-248h-93zM309 596h-123v-270h123q77 0 110 31t33 103q0 73 -33 104.5t-110 31.5z" />
    <glyph glyph-name="Q" unicode="Q" horiz-adv-x="668" 
d="M334 -14q-134 0 -203.5 89.5t-69.5 262.5q0 172 69.5 261t203.5 89t203.5 -89t69.5 -262q0 -221 -117 -303l135 -72l-35 -66l-188 98q-33 -8 -68 -8zM334 66q90 0 133.5 67t43.5 204t-44 204t-134 67q-88 0 -132 -67t-44 -204t44 -204t133 -67z" />
    <glyph glyph-name="R" unicode="R" horiz-adv-x="616" 
d="M93 0v674h223q221 0 221 -205q0 -157 -133 -187l183 -282h-108l-169 269h-125v-269h-92zM310 598h-125v-254h126q71 0 102 30t31 96q0 67 -31.5 97.5t-102.5 30.5z" />
    <glyph glyph-name="S" unicode="S" horiz-adv-x="553" 
d="M258 -14q-123 0 -209 47l25 75q78 -42 181 -42q74 0 109.5 27.5t35.5 85.5q0 49 -25 75.5t-86 41.5l-59 14q-86 20 -124 63.5t-38 120.5q0 93 58.5 143.5t166.5 50.5q47 0 96 -11t90 -30l-22 -74q-33 17 -73.5 26t-82.5 9q-141 0 -141 -112q0 -43 23 -66.5t82 -39.5
l50 -12q96 -25 138 -70.5t42 -125.5q0 -196 -237 -196z" />
    <glyph glyph-name="T" unicode="T" horiz-adv-x="530" 
d="M219 0v596h-197v78h486v-78h-196v-596h-93z" />
    <glyph glyph-name="U" unicode="U" horiz-adv-x="652" 
d="M326 -14q-124 0 -182 67.5t-58 210.5v410h94v-423q0 -97 34.5 -141t111.5 -44t112 44t35 141v423h93v-410q0 -143 -58 -210.5t-182 -67.5z" />
    <glyph glyph-name="V" unicode="V" horiz-adv-x="605" 
d="M241 0l-211 674h97l179 -584l174 584h96l-213 -674h-122z" />
    <glyph glyph-name="W" unicode="W" horiz-adv-x="843" 
d="M175 0l-147 674h91l120 -593l126 580h114l128 -583l121 596h87l-148 -674h-124l-122 567l-122 -567h-124z" />
    <glyph glyph-name="X" unicode="X" horiz-adv-x="583" 
d="M35 0l199 344l-187 330h103l143 -256l145 256h100l-192 -331l202 -343h-103l-156 272l-154 -272h-100z" />
    <glyph glyph-name="Y" unicode="Y" horiz-adv-x="571" 
d="M239 0v238l-223 436h101l171 -343l175 343h93l-224 -430v-244h-93z" />
    <glyph glyph-name="Z" unicode="Z" horiz-adv-x="557" 
d="M54 0v62l336 534h-328v78h440v-62l-335 -534h341v-78h-454z" />
    <glyph glyph-name="bracketleft" unicode="[" horiz-adv-x="390" 
d="M105 -162v904h252v-71h-163v-762h163v-71h-252z" />
    <glyph glyph-name="backslash" unicode="\" horiz-adv-x="425" 
d="M407 -162h-94l-295 904h94z" />
    <glyph glyph-name="bracketright" unicode="]" horiz-adv-x="390" 
d="M285 -162h-252v71h163v762h-163v71h252v-904z" />
    <glyph glyph-name="asciicircum" unicode="^" 
d="M56 236l191 438h86l191 -438h-86l-148 353l-150 -353h-84z" />
    <glyph glyph-name="underscore" unicode="_" horiz-adv-x="456" 
d="M30 -116v77h396v-77h-396z" />
    <glyph glyph-name="grave" unicode="`" horiz-adv-x="285" 
d="M168 605l-138 176h102l123 -176h-87z" />
    <glyph glyph-name="a" unicode="a" horiz-adv-x="528" 
d="M199 -12q-71 0 -110.5 38.5t-39.5 107.5q0 161 204 161h110v24q0 73 -23 99.5t-86 26.5q-36 0 -73 -8t-79 -25l-20 73q41 18 89 27.5t95 9.5q99 0 142 -44t43 -145v-333h-74l-9 76q-58 -88 -169 -88zM230 61q82 0 133 62v112h-104q-119 0 -119 -91q0 -83 90 -83z" />
    <glyph glyph-name="b" unicode="b" horiz-adv-x="575" 
d="M332 -13q-52 0 -94.5 22t-69.5 63l-8 -72h-76v712h90v-269q55 79 159 79q90 0 138.5 -69.5t48.5 -198.5q0 -130 -48 -198.5t-140 -68.5zM305 63q62 0 92 46.5t30 144.5t-30 144.5t-92 46.5q-74 0 -131 -57v-268q57 -57 131 -57z" />
    <glyph glyph-name="c" unicode="c" horiz-adv-x="462" 
d="M281 -14q-227 0 -227 265q0 131 60.5 201t173.5 70q77 0 136 -31l-24 -71q-29 13 -53.5 19t-51.5 6q-76 0 -112 -47t-36 -148q0 -95 35.5 -140.5t109.5 -45.5q62 0 112 27l21 -70q-54 -35 -144 -35z" />
    <glyph glyph-name="d" unicode="d" horiz-adv-x="575" 
d="M244 -13q-91 0 -140 69t-49 198q0 131 48.5 199.5t139.5 68.5q105 0 159 -79v269h90v-712h-75l-8 73q-28 -41 -70.5 -63.5t-94.5 -22.5zM271 63q76 0 131 57v268q-55 57 -131 57q-62 0 -92.5 -46.5t-30.5 -144.5t30 -144.5t93 -46.5z" />
    <glyph glyph-name="e" unicode="e" horiz-adv-x="532" 
d="M288 -14q-234 0 -234 264q0 131 57.5 201.5t163.5 70.5q103 0 155.5 -67t52.5 -198v-34h-339q4 -83 40.5 -121t111.5 -38q74 0 140 37l25 -70q-71 -45 -173 -45zM274 449q-121 0 -130 -162h249q-1 162 -119 162z" />
    <glyph glyph-name="f" unicode="f" horiz-adv-x="374" 
d="M111 0v440h-94v69h94v40q0 173 170 173q21 0 41 -2t39 -7v-69q-20 4 -33.5 5t-30.5 1q-58 0 -78.5 -21.5t-20.5 -82.5v-37h163v-69h-162v-440h-88z" />
    <glyph glyph-name="g" unicode="g" horiz-adv-x="575" 
d="M261 -202q-96 0 -180 37l19 72q79 -34 157 -34q76 0 110.5 36.5t34.5 116.5v63q-55 -84 -160 -84q-186 0 -186 257q0 126 48 193t138 67q55 0 97.5 -23t68.5 -65l9 75h75v-484q0 -118 -55 -172.5t-176 -54.5zM271 80q74 0 131 61v245q-54 60 -131 60q-62 0 -92 -44.5
t-30 -139.5q0 -94 30 -138t92 -44z" />
    <glyph glyph-name="h" unicode="h" horiz-adv-x="569" 
d="M84 0v712h90v-276q54 86 161 86q77 0 116.5 -45t39.5 -131v-346h-90v339q0 55 -23 80.5t-72 25.5q-75 0 -132 -58v-387h-90z" />
    <glyph glyph-name="i" unicode="i" horiz-adv-x="277" 
d="M96 616v99h100v-99h-100zM106 0v440h-77v69h166v-509h-89z" />
    <glyph glyph-name="j" unicode="j" horiz-adv-x="277" 
d="M96 616v99h100v-99h-100zM69 -202q-18 0 -32.5 2t-27.5 6v69q11 -3 21 -4t20 -1q32 0 44 16.5t12 54.5v499h-77v69h166v-562q0 -78 -30.5 -113.5t-95.5 -35.5z" />
    <glyph glyph-name="k" unicode="k" horiz-adv-x="513" 
d="M84 0v712h88v-431l204 228h99l-210 -234l239 -275h-103l-229 265v-265h-88z" />
    <glyph glyph-name="l" unicode="l" horiz-adv-x="300" 
d="M200 -8q-62 0 -91 32.5t-29 102.5v585h90v-590q0 -33 11 -45.5t40 -12.5q11 0 20.5 1t22.5 4v-68q-31 -9 -64 -9z" />
    <glyph glyph-name="m" unicode="m" horiz-adv-x="852" 
d="M84 0v509h74l10 -78q48 91 152 91q110 0 142 -93q57 93 158 93q154 0 154 -178v-344h-90v336q0 56 -22 82.5t-69 26.5q-70 0 -121 -58q2 -19 2 -41v-346h-90v338q0 107 -92 107q-67 0 -118 -58v-387h-90z" />
    <glyph glyph-name="n" unicode="n" horiz-adv-x="569" 
d="M84 0v509h74l9 -82q54 95 166 95q77 0 117.5 -44t40.5 -130v-348h-90v341q0 54 -23 79t-73 25q-74 0 -131 -58v-387h-90z" />
    <glyph glyph-name="o" unicode="o" horiz-adv-x="553" 
d="M277 -14q-108 0 -165.5 69.5t-57.5 199.5q0 131 57 199t166 68q108 0 165 -68t57 -199q0 -130 -57.5 -199.5t-164.5 -69.5zM277 61q66 0 97.5 47.5t31.5 146.5t-31.5 145.5t-97.5 46.5t-98 -46.5t-32 -145.5t32 -146.5t98 -47.5z" />
    <glyph glyph-name="p" unicode="p" horiz-adv-x="575" 
d="M84 -192v701h74l9 -77q54 90 166 90q90 0 138.5 -69.5t48.5 -198.5q0 -130 -48 -198.5t-139 -68.5q-102 0 -159 76v-255h-90zM305 63q62 0 92 47t30 144q0 98 -30 144.5t-92 46.5q-72 0 -131 -57v-268q59 -57 131 -57z" />
    <glyph glyph-name="q" unicode="q" horiz-adv-x="575" 
d="M402 -192v255q-58 -76 -160 -76q-90 0 -138.5 69t-48.5 198q0 131 48.5 199.5t139.5 68.5q54 0 97 -23t68 -66l9 76h75v-701h-90zM271 63q73 0 131 57v268q-57 57 -131 57q-63 0 -93 -46.5t-30 -144.5t30 -144.5t93 -46.5z" />
    <glyph glyph-name="r" unicode="r" horiz-adv-x="384" 
d="M84 0v509h74l10 -93q57 99 184 99h12v-87h-11q-63 0 -105 -15.5t-74 -48.5v-364h-90z" />
    <glyph glyph-name="s" unicode="s" horiz-adv-x="452" 
d="M214 -14q-50 0 -97 11.5t-79 31.5l22 73q68 -41 156 -41q106 0 106 78q0 33 -18.5 50t-65.5 27l-49 11q-73 15 -105.5 49.5t-32.5 93.5q0 70 50 111t134 41q51 0 88 -8t73 -26l-19 -69q-31 15 -63.5 21.5t-72.5 6.5q-49 0 -77 -19t-28 -54q0 -30 19 -46t68 -27l38 -9
q57 -13 89 -32t45.5 -48t13.5 -75q0 -73 -50 -112t-145 -39z" />
    <glyph glyph-name="t" unicode="t" horiz-adv-x="392" 
d="M268 -8q-86 0 -122 39.5t-36 131.5v277h-91v65l59 3q22 2 31 9t10 26l8 113h72v-147h164v-69h-164v-284q0 -53 18.5 -72.5t69.5 -19.5q15 0 30 1.5t39 5.5v-69q-34 -10 -88 -10z" />
    <glyph glyph-name="u" unicode="u" horiz-adv-x="564" 
d="M231 -12q-153 0 -153 181v340h90v-334q0 -59 21.5 -85t70.5 -26q75 0 131 59v386h90v-509h-75l-9 78q-58 -90 -166 -90z" />
    <glyph glyph-name="v" unicode="v" horiz-adv-x="486" 
d="M185 0l-166 509h95l131 -436l132 436h90l-165 -509h-117z" />
    <glyph glyph-name="w" unicode="w" horiz-adv-x="741" 
d="M148 0l-130 509h95l95 -440l112 426h104l111 -425l98 439h90l-130 -509h-112l-110 415l-111 -415h-112z" />
    <glyph glyph-name="x" unicode="x" horiz-adv-x="484" 
d="M26 0l161 257l-158 252h99l113 -184l114 184h94l-157 -248l165 -261h-99l-120 192l-117 -192h-95z" />
    <glyph glyph-name="y" unicode="y" horiz-adv-x="479" 
d="M86 -202q-37 0 -68 11v67q27 -7 55 -7q47 0 73.5 25.5t49.5 92.5l2 5l-186 517h98l131 -402l130 402h96l-207 -577q-25 -72 -65.5 -103t-108.5 -31z" />
    <glyph glyph-name="z" unicode="z" horiz-adv-x="473" 
d="M54 0v57l257 383h-252v69h355v-57l-257 -382h262v-70h-365z" />
    <glyph glyph-name="braceleft" unicode="{" horiz-adv-x="430" 
d="M292 -173q-79 0 -120 32t-41 97q0 27 9 56.5t34 77.5q21 41 28.5 61t7.5 38q0 30 -18.5 48t-59.5 18h-78v72h78q41 0 59.5 18t18.5 48q0 18 -7.5 38.5t-28.5 60.5q-25 48 -34 77.5t-9 56.5q0 65 41 97t120 32q27 0 54 -3t51 -10v-71q-23 5 -44 7t-38 2q-46 0 -68.5 -16
t-22.5 -51q0 -22 9 -46.5t30 -65.5q21 -40 29 -63.5t8 -46.5q0 -40 -23.5 -67t-64.5 -33q41 -6 64.5 -33t23.5 -67q0 -22 -8 -45.5t-29 -64.5q-21 -40 -30 -65t-9 -46q0 -36 22.5 -52t68.5 -16q17 0 38 2t44 7v-71q-23 -7 -50.5 -10t-54.5 -3z" />
    <glyph glyph-name="bar" unicode="|" horiz-adv-x="298" 
d="M105 -192v934h88v-934h-88z" />
    <glyph glyph-name="braceright" unicode="}" horiz-adv-x="430" 
d="M138 -173q-27 0 -54.5 3t-50.5 10v71q23 -5 44 -7t38 -2q47 0 69.5 16t22.5 52q0 21 -9 46t-30 65q-22 41 -30 64.5t-8 45.5q0 40 23.5 67t64.5 33q-41 6 -64.5 33t-23.5 67q0 23 8 46.5t30 63.5q21 41 30 65.5t9 46.5q0 35 -22.5 51t-69.5 16q-17 0 -38 -2t-44 -7v71
q24 7 51 10t54 3q162 0 162 -129q0 -27 -9 -56.5t-34 -77.5q-22 -40 -29.5 -60.5t-7.5 -38.5q0 -30 19 -48t59 -18h78v-72h-78q-40 0 -59 -18t-19 -48q0 -18 7.5 -38t29.5 -61q25 -48 34 -77.5t9 -56.5q0 -129 -162 -129z" />
    <glyph glyph-name="asciitilde" unicode="~" 
d="M403 196q-40 0 -67.5 20t-61.5 73l-25 40q-22 36 -37 48.5t-33 12.5q-23 0 -36.5 -16t-18.5 -56t-5 -113h-72q0 98 12.5 156t41 83.5t76.5 25.5q41 0 68 -20.5t61 -73.5l25 -39q23 -36 37.5 -49t32.5 -13q24 0 37 16.5t18 56.5t5 112h72q0 -96 -12.5 -154t-41 -84
t-76.5 -26z" />
    <glyph glyph-name="uni00A0" unicode="&#xa0;" horiz-adv-x="229" 
 />
    <glyph glyph-name="exclamdown" unicode="&#xa1;" horiz-adv-x="256" 
d="M75 393v116h106v-116h-106zM79 -165l10 467h78l9 -467h-97z" />
    <glyph glyph-name="cent" unicode="&#xa2;" 
d="M302 -56v88q-206 18 -206 259q0 247 206 269v86h55v-84q68 -3 134 -32l-21 -73q-59 28 -113 28v-378q57 1 115 29l21 -71q-62 -31 -136 -35v-86h-55zM186 292q0 -83 27 -126.5t89 -54.5v369q-61 -11 -88.5 -57t-27.5 -131z" />
    <glyph glyph-name="sterling" unicode="&#xa3;" 
d="M84 0v71q56 42 79 81t23 93q0 19 -2 35t-6 31h-117v63h97q-11 28 -19.5 58.5t-8.5 69.5q0 86 60.5 136t163.5 50q81 0 156 -40l-26 -70q-57 30 -119 30q-70 0 -110 -32.5t-40 -89.5q0 -29 8 -56.5t18 -55.5h203v-63h-183q4 -17 6.5 -35t2.5 -38q0 -51 -19 -88.5
t-64 -73.5h339v-76h-442z" />
    <glyph glyph-name="currency" unicode="&#xa4;" 
d="M102 89l-53 52l87 86q-28 44 -28 103t28 103l-87 87l52 52l87 -87q44 28 102 28t102 -27l86 86l53 -52l-87 -86q28 -45 28 -104t-27 -103l86 -86l-52 -52l-86 86q-44 -27 -103 -27t-103 27zM290 216q50 0 79.5 31t29.5 83t-29.5 83.5t-79.5 31.5t-79.5 -31.5t-29.5 -83.5
t29.5 -83t79.5 -31z" />
    <glyph glyph-name="yen" unicode="&#xa5;" 
d="M86 103v62h161v92h-161v61h130l-181 356h97l161 -333l162 333h91l-182 -356h132v-61h-161v-92h161v-62h-161v-103h-88v103h-161z" />
    <glyph glyph-name="section" unicode="&#xa7;" horiz-adv-x="564" 
d="M273 -61q-59 0 -113.5 10.5t-90.5 29.5l24 77q86 -37 179 -37q128 0 128 77q0 34 -23.5 50.5t-79.5 22.5l-61 8q-86 10 -126.5 46t-40.5 101q0 82 67 122q-62 37 -62 119q0 77 55.5 117t161.5 40q59 0 114 -10.5t90 -30.5l-24 -76q-86 37 -179 37q-127 0 -127 -77
q0 -33 24 -50t79 -23l60 -7q86 -10 127 -46.5t41 -101.5q0 -81 -68 -122q62 -37 62 -120q0 -76 -55 -116t-162 -40zM331 245q19 -2 36 -6q47 32 47 82q0 41 -25.5 60.5t-87.5 26.5l-67 8q-20 2 -37 6q-21 -15 -33.5 -36t-12.5 -46q0 -41 25.5 -60.5t87.5 -26.5z" />
    <glyph glyph-name="dieresis" unicode="&#xa8;" horiz-adv-x="351" 
d="M30 615v99h96v-99h-96zM226 615v99h95v-99h-95z" />
    <glyph glyph-name="copyright" unicode="&#xa9;" horiz-adv-x="794" 
d="M396 -14q-104 0 -180 43t-117 121.5t-41 186.5q0 107 41.5 186t117.5 122t180 43t180 -43t117.5 -122t41.5 -186q0 -108 -41.5 -186.5t-117.5 -121.5t-181 -43zM396 36q88 0 152 37t99.5 105t35.5 159q0 92 -35.5 159.5t-99.5 104.5t-151 37t-151 -37t-99.5 -104.5
t-35.5 -159.5t35 -159.5t99 -104.5t151 -37zM412 140q-175 0 -175 195q0 97 46 149.5t131 52.5q29 0 57.5 -6.5t50.5 -18.5l-20 -57q-18 9 -37.5 13t-40.5 4q-56 0 -82.5 -33.5t-26.5 -105.5q0 -68 25 -98t81 -30q45 0 81 18l20 -57q-22 -13 -50.5 -19.5t-59.5 -6.5z" />
    <glyph glyph-name="ordfeminine" unicode="&#xaa;" horiz-adv-x="418" 
d="M165 298q-55 0 -85 29.5t-30 81.5q0 117 152 117h75v13q0 46 -17.5 65t-59.5 19q-52 0 -109 -23l-15 60q29 14 64 21t69 7q75 0 110 -34t35 -107v-240h-69l-4 49q-41 -58 -116 -58zM187 358q54 0 90 42v78h-71q-80 0 -80 -64q0 -56 61 -56z" />
    <glyph glyph-name="guillemotleft" unicode="&#xab;" horiz-adv-x="673" 
d="M244 47l-192 213l192 213h114l-191 -212l192 -214h-115zM504 47l-192 213l192 213h114l-191 -212l192 -214h-115z" />
    <glyph glyph-name="logicalnot" unicode="&#xac;" 
d="M425 193v177h-357v79h436v-256h-79z" />
    <glyph glyph-name="uni00AD" unicode="&#xad;" horiz-adv-x="402" 
d="M59 238v83h284v-83h-284z" />
    <glyph glyph-name="registered" unicode="&#xae;" horiz-adv-x="575" 
d="M287 214q-70 0 -123 29t-82 82.5t-29 124.5q0 72 29 125t82 82.5t124 29.5t123.5 -29t81.5 -82t29 -125q0 -71 -29 -124.5t-82 -83t-124 -29.5zM287 254q87 0 139 53t52 143t-52 143.5t-138 53.5q-87 0 -139 -53t-52 -143t51.5 -143.5t138.5 -53.5zM201 328v257h92
q43 0 67 -22t24 -61q0 -60 -51 -72l65 -102h-52l-58 95h-41v-95h-46zM293 545h-46v-82h47q43 0 43 40q0 42 -44 42z" />
    <glyph glyph-name="degree" unicode="&#xb0;" horiz-adv-x="442" 
d="M221 373q-70 0 -113.5 43.5t-43.5 113.5q0 71 43.5 114.5t113.5 43.5q71 0 114 -43.5t43 -114.5q0 -70 -43 -113.5t-114 -43.5zM221 436q40 0 64.5 26t24.5 68q0 43 -24.5 69t-64.5 26t-64.5 -26t-24.5 -69q0 -42 24.5 -68t64.5 -26z" />
    <glyph glyph-name="uni00B2" unicode="&#xb2;" horiz-adv-x="359" 
d="M45 400v54l122 97q34 28 47 48.5t13 45.5q0 62 -71 62q-45 0 -85 -25l-25 55q46 34 119 34q65 0 101 -32t36 -90q0 -40 -20 -72t-68 -69l-60 -46h160v-62h-269z" />
    <glyph glyph-name="uni00B3" unicode="&#xb3;" horiz-adv-x="361" 
d="M164 391q-78 0 -131 32l20 58q51 -26 107 -26q74 0 74 51q0 47 -70 47h-52v59h55q61 0 61 48q0 47 -68 47q-25 0 -49.5 -6.5t-45.5 -17.5l-22 56q26 16 58.5 24t66.5 8q62 0 98 -26.5t36 -72.5q0 -32 -18 -55t-49 -30q35 -8 55 -32t20 -58q0 -49 -39 -77.5t-107 -28.5z
" />
    <glyph glyph-name="acute" unicode="&#xb4;" horiz-adv-x="285" 
d="M30 605l123 176h102l-138 -176h-87z" />
    <glyph glyph-name="paragraph" unicode="&#xb6;" horiz-adv-x="594" 
d="M305 -192v442h-28q-110 0 -164 55t-54 157t54 157t164 55h87v-866h-59zM430 -192v866h59v-866h-59z" />
    <glyph glyph-name="periodcentered" unicode="&#xb7;" horiz-adv-x="245" 
d="M69 207v116h107v-116h-107z" />
    <glyph glyph-name="cedilla" unicode="&#xb8;" horiz-adv-x="292" 
d="M123 -257q-22 0 -46 3.5t-47 10.5v60q24 -7 45 -9t39 -2q38 0 54.5 10t16.5 32q0 24 -21 36t-77 13l20 114l57 -1l-12 -63q54 -7 82.5 -31t28.5 -70q0 -103 -140 -103z" />
    <glyph glyph-name="uni00B9" unicode="&#xb9;" horiz-adv-x="275" 
d="M127 400v263h-92v60l72 2q17 1 22.5 7t7.5 19l4 19h61v-370h-75z" />
    <glyph glyph-name="ordmasculine" unicode="&#xba;" horiz-adv-x="427" 
d="M213 298q-81 0 -124 50.5t-43 144.5q0 95 43.5 145t124.5 50t124 -50t43 -145q0 -94 -43.5 -144.5t-124.5 -50.5zM213 361q86 0 86 132q0 68 -20.5 99.5t-64.5 31.5t-65 -31.5t-21 -99.5q0 -132 85 -132z" />
    <glyph glyph-name="guillemotright" unicode="&#xbb;" horiz-adv-x="673" 
d="M170 47h-115l191 213l-191 213h115l191 -213zM430 47h-115l191 213l-191 213h115l191 -213z" />
    <glyph glyph-name="onequarter" unicode="&#xbc;" horiz-adv-x="811" 
d="M138 0l402 674h95l-403 -674h-94zM644 0v79h-188v55l171 227h87v-225h57v-57h-57v-79h-70zM531 136h116v159zM127 313v263h-92v60l72 2q17 1 22.5 7t7.5 19l4 19h61v-370h-75z" />
    <glyph glyph-name="onehalf" unicode="&#xbd;" horiz-adv-x="850" 
d="M138 0l402 674h95l-403 -674h-94zM536 0v54l122 97q34 28 47 48.5t13 45.5q0 62 -71 62q-45 0 -85 -25l-25 55q46 34 119 34q65 0 101 -32t36 -90q0 -40 -20 -72t-68 -69l-60 -46h160v-62h-269zM127 313v263h-92v60l72 2q17 1 22.5 7t7.5 19l4 19h61v-370h-75z" />
    <glyph glyph-name="threequarters" unicode="&#xbe;" horiz-adv-x="867" 
d="M194 0l402 674h95l-403 -674h-94zM700 0v79h-188v55l171 227h87v-225h57v-57h-57v-79h-70zM587 136h116v159zM164 304q-78 0 -131 32l20 58q51 -26 107 -26q74 0 74 51q0 47 -70 47h-52v59h55q61 0 61 48q0 47 -68 47q-25 0 -49.5 -6.5t-45.5 -17.5l-22 56q26 16 58.5 24
t66.5 8q62 0 98 -26.5t36 -72.5q0 -32 -18 -55t-49 -30q35 -8 55 -32t20 -58q0 -49 -39 -77.5t-107 -28.5z" />
    <glyph glyph-name="questiondown" unicode="&#xbf;" horiz-adv-x="474" 
d="M211 393v116h107v-116h-107zM251 -179q-105 0 -159 44.5t-54 129.5q0 54 22 92.5t80 81.5q34 26 51.5 45t24.5 39.5t7 48.5h82q0 -43 -9 -74.5t-30 -58t-59 -54.5q-44 -34 -60.5 -59t-16.5 -59q0 -97 128 -97q80 0 159 38l25 -74q-83 -43 -191 -43z" />
    <glyph glyph-name="Agrave" unicode="&#xc0;" horiz-adv-x="624" 
d="M30 0l224 674h122l218 -674h-96l-53 170h-266l-54 -170h-95zM203 246h219l-109 347zM292 749l-150 156h112l132 -156h-94z" />
    <glyph glyph-name="Aacute" unicode="&#xc1;" horiz-adv-x="624" 
d="M30 0l224 674h122l218 -674h-96l-53 170h-266l-54 -170h-95zM203 246h219l-109 347zM235 749l131 156h113l-150 -156h-94z" />
    <glyph glyph-name="Acircumflex" unicode="&#xc2;" horiz-adv-x="624" 
d="M30 0l224 674h122l218 -674h-96l-53 170h-266l-54 -170h-95zM203 246h219l-109 347zM142 749l123 156h100l122 -156h-92l-80 106l-81 -106h-92z" />
    <glyph glyph-name="Atilde" unicode="&#xc3;" horiz-adv-x="624" 
d="M30 0l224 674h122l218 -674h-96l-53 170h-266l-54 -170h-95zM203 246h219l-109 347zM136 749q0 90 24.5 126t73.5 36q32 0 53.5 -13.5t46.5 -39.5l13 -15q17 -18 27 -25.5t23 -7.5q19 0 27 19t8 75h68q0 -91 -24.5 -126.5t-73.5 -35.5q-32 0 -53.5 13t-46.5 40l-13 15
q-16 18 -26 25.5t-24 7.5q-19 0 -27 -19t-8 -75h-68z" />
    <glyph glyph-name="Adieresis" unicode="&#xc4;" horiz-adv-x="624" 
d="M30 0l224 674h122l218 -674h-96l-53 170h-266l-54 -170h-95zM203 246h219l-109 347zM169 762v99h96v-99h-96zM365 762v99h95v-99h-95z" />
    <glyph glyph-name="Aring" unicode="&#xc5;" horiz-adv-x="624" 
d="M30 0l224 674h122l218 -674h-96l-53 170h-266l-54 -170h-95zM203 246h219l-109 347zM315 732q-49 0 -80.5 31t-31.5 81q0 51 31.5 81.5t80.5 30.5q50 0 81 -31t31 -81t-31 -81t-81 -31zM315 784q26 0 41 16t15 44q0 27 -15 43.5t-41 16.5q-25 0 -40.5 -16t-15.5 -44
q0 -27 15.5 -43.5t40.5 -16.5z" />
    <glyph glyph-name="AE" unicode="&#xc6;" horiz-adv-x="924" 
d="M28 0l388 674h445v-78h-298v-213h252v-79h-252v-226h302v-78h-394v170h-245l-97 -170h-101zM469 597l-200 -351h202v351h-2z" />
    <glyph glyph-name="Ccedilla" unicode="&#xc7;" horiz-adv-x="555" 
d="M342 -14q-143 0 -212 84t-69 257q0 178 72.5 269.5t214.5 91.5q47 0 90.5 -9.5t76.5 -26.5l-24 -72q-32 14 -65.5 21t-67.5 7q-103 0 -152 -68.5t-49 -212.5q0 -139 46 -200t150 -61q83 0 141 29l22 -72q-30 -17 -76 -27t-98 -10zM318 -257q-24 0 -47 3.5t-46 10.5v60
q45 -11 85 -11q36 0 52 10.5t16 31.5q0 24 -20.5 36t-77.5 13l20 114l57 -1l-12 -63q54 -7 82.5 -31t28.5 -70q0 -103 -138 -103z" />
    <glyph glyph-name="Egrave" unicode="&#xc8;" horiz-adv-x="559" 
d="M93 0v674h404v-78h-312v-214h266v-78h-266v-226h315v-78h-407zM272 749l-150 156h112l132 -156h-94z" />
    <glyph glyph-name="Eacute" unicode="&#xc9;" horiz-adv-x="559" 
d="M93 0v674h404v-78h-312v-214h266v-78h-266v-226h315v-78h-407zM215 749l131 156h113l-150 -156h-94z" />
    <glyph glyph-name="Ecircumflex" unicode="&#xca;" horiz-adv-x="559" 
d="M93 0v674h404v-78h-312v-214h266v-78h-266v-226h315v-78h-407zM122 749l123 156h100l122 -156h-92l-80 106l-81 -106h-92z" />
    <glyph glyph-name="Edieresis" unicode="&#xcb;" horiz-adv-x="559" 
d="M93 0v674h404v-78h-312v-214h266v-78h-266v-226h315v-78h-407zM149 762v99h96v-99h-96zM345 762v99h95v-99h-95z" />
    <glyph glyph-name="Igrave" unicode="&#xcc;" horiz-adv-x="279" 
d="M93 0v674h93v-674h-93zM116 749l-150 156h112l132 -156h-94z" />
    <glyph glyph-name="Iacute" unicode="&#xcd;" horiz-adv-x="279" 
d="M93 0v674h93v-674h-93zM59 749l131 156h113l-150 -156h-94z" />
    <glyph glyph-name="Icircumflex" unicode="&#xce;" horiz-adv-x="279" 
d="M93 0v674h93v-674h-93zM-34 749l123 156h100l122 -156h-92l-80 106l-81 -106h-92z" />
    <glyph glyph-name="Idieresis" unicode="&#xcf;" horiz-adv-x="279" 
d="M93 0v674h93v-674h-93zM-7 762v99h96v-99h-96zM189 762v99h95v-99h-95z" />
    <glyph glyph-name="Eth" unicode="&#xd0;" horiz-adv-x="672" 
d="M110 0v308h-79v71h79v295h205q149 0 224.5 -86.5t75.5 -251.5q0 -164 -75.5 -250t-224.5 -86h-205zM357 308h-156v-230h104q109 0 160.5 60t51.5 199q0 141 -51.5 200t-160.5 59h-104v-217h156v-71z" />
    <glyph glyph-name="Ntilde" unicode="&#xd1;" horiz-adv-x="684" 
d="M93 0v674h106l306 -556v556h86v-674h-106l-306 557v-557h-86zM163 749q0 90 24.5 126t73.5 36q32 0 53.5 -13.5t46.5 -39.5l13 -15q17 -18 27 -25.5t23 -7.5q19 0 27 19t8 75h68q0 -91 -24.5 -126.5t-73.5 -35.5q-32 0 -53.5 13t-46.5 40l-13 15q-16 18 -26 25.5t-24 7.5
q-19 0 -27 -19t-8 -75h-68z" />
    <glyph glyph-name="Ograve" unicode="&#xd2;" horiz-adv-x="668" 
d="M334 -14q-134 0 -203.5 89.5t-69.5 261.5q0 173 69.5 262t203.5 89t203.5 -89t69.5 -262q0 -172 -69.5 -261.5t-203.5 -89.5zM334 66q89 0 133 67t44 204t-44 204t-133 67t-133 -67t-44 -204t44 -204t133 -67zM311 749l-150 156h112l132 -156h-94z" />
    <glyph glyph-name="Oacute" unicode="&#xd3;" horiz-adv-x="668" 
d="M334 -14q-134 0 -203.5 89.5t-69.5 261.5q0 173 69.5 262t203.5 89t203.5 -89t69.5 -262q0 -172 -69.5 -261.5t-203.5 -89.5zM334 66q89 0 133 67t44 204t-44 204t-133 67t-133 -67t-44 -204t44 -204t133 -67zM254 749l131 156h113l-150 -156h-94z" />
    <glyph glyph-name="Ocircumflex" unicode="&#xd4;" horiz-adv-x="668" 
d="M334 -14q-134 0 -203.5 89.5t-69.5 261.5q0 173 69.5 262t203.5 89t203.5 -89t69.5 -262q0 -172 -69.5 -261.5t-203.5 -89.5zM334 66q89 0 133 67t44 204t-44 204t-133 67t-133 -67t-44 -204t44 -204t133 -67zM161 749l123 156h100l122 -156h-92l-80 106l-81 -106h-92z
" />
    <glyph glyph-name="Otilde" unicode="&#xd5;" horiz-adv-x="668" 
d="M334 -14q-134 0 -203.5 89.5t-69.5 261.5q0 173 69.5 262t203.5 89t203.5 -89t69.5 -262q0 -172 -69.5 -261.5t-203.5 -89.5zM334 66q89 0 133 67t44 204t-44 204t-133 67t-133 -67t-44 -204t44 -204t133 -67zM155 749q0 90 24.5 126t73.5 36q32 0 53.5 -13.5t46.5 -39.5
l13 -15q17 -18 27 -25.5t23 -7.5q19 0 27 19t8 75h68q0 -91 -24.5 -126.5t-73.5 -35.5q-32 0 -53.5 13t-46.5 40l-13 15q-16 18 -26 25.5t-24 7.5q-19 0 -27 -19t-8 -75h-68z" />
    <glyph glyph-name="Odieresis" unicode="&#xd6;" horiz-adv-x="668" 
d="M334 -14q-134 0 -203.5 89.5t-69.5 261.5q0 173 69.5 262t203.5 89t203.5 -89t69.5 -262q0 -172 -69.5 -261.5t-203.5 -89.5zM334 66q89 0 133 67t44 204t-44 204t-133 67t-133 -67t-44 -204t44 -204t133 -67zM188 762v99h96v-99h-96zM384 762v99h95v-99h-95z" />
    <glyph glyph-name="multiply" unicode="&#xd7;" 
d="M136 127l-53 53l154 153l-154 153l53 54l154 -153l153 153l53 -54l-153 -153l153 -153l-53 -53l-153 153z" />
    <glyph glyph-name="Oslash" unicode="&#xd8;" horiz-adv-x="668" 
d="M114 -27l-46 32l55 80q-62 88 -62 252q0 173 69.5 262t203.5 89q106 0 172 -56l48 69l46 -32l-56 -79q63 -89 63 -253q0 -172 -69.5 -261.5t-203.5 -89.5q-106 0 -172 56zM155 337q0 -107 27 -170l274 392q-45 49 -122 49q-91 0 -135 -67t-44 -204zM334 66q91 0 135 67
t44 204q0 109 -27 171l-274 -393q45 -49 122 -49z" />
    <glyph glyph-name="Ugrave" unicode="&#xd9;" horiz-adv-x="652" 
d="M326 -14q-124 0 -182 67.5t-58 210.5v410h94v-423q0 -97 34.5 -141t111.5 -44t112 44t35 141v423h93v-410q0 -143 -58 -210.5t-182 -67.5zM303 749l-150 156h112l132 -156h-94z" />
    <glyph glyph-name="Uacute" unicode="&#xda;" horiz-adv-x="652" 
d="M326 -14q-124 0 -182 67.5t-58 210.5v410h94v-423q0 -97 34.5 -141t111.5 -44t112 44t35 141v423h93v-410q0 -143 -58 -210.5t-182 -67.5zM246 749l131 156h113l-150 -156h-94z" />
    <glyph glyph-name="Ucircumflex" unicode="&#xdb;" horiz-adv-x="652" 
d="M326 -14q-124 0 -182 67.5t-58 210.5v410h94v-423q0 -97 34.5 -141t111.5 -44t112 44t35 141v423h93v-410q0 -143 -58 -210.5t-182 -67.5zM153 749l123 156h100l122 -156h-92l-80 106l-81 -106h-92z" />
    <glyph glyph-name="Udieresis" unicode="&#xdc;" horiz-adv-x="652" 
d="M326 -14q-124 0 -182 67.5t-58 210.5v410h94v-423q0 -97 34.5 -141t111.5 -44t112 44t35 141v423h93v-410q0 -143 -58 -210.5t-182 -67.5zM180 762v99h96v-99h-96zM376 762v99h95v-99h-95z" />
    <glyph glyph-name="Yacute" unicode="&#xdd;" horiz-adv-x="571" 
d="M239 0v238l-223 436h101l171 -343l175 343h93l-224 -430v-244h-93zM210 749l131 156h113l-150 -156h-94z" />
    <glyph glyph-name="Thorn" unicode="&#xde;" horiz-adv-x="603" 
d="M93 0v674h93v-123h144q229 0 229 -208q0 -106 -56 -157t-173 -51h-144v-135h-93zM323 473h-137v-261h137q76 0 108.5 30.5t32.5 100.5t-32.5 100t-108.5 30z" />
    <glyph glyph-name="germandbls" unicode="&#xdf;" horiz-adv-x="597" 
d="M345 -8q-47 0 -83 11v69q15 -4 31 -5.5t32 -1.5q129 0 129 131q0 139 -139 139h-33v73h31q53 0 82.5 31t29.5 88q0 120 -122 120q-66 0 -97 -37t-31 -116v-494h-90v498q0 114 53 169t163 55q101 0 156.5 -50t55.5 -142q0 -117 -102 -154q65 -15 100.5 -63t35.5 -125
q0 -95 -52 -145.5t-150 -50.5z" />
    <glyph glyph-name="agrave" unicode="&#xe0;" horiz-adv-x="528" 
d="M199 -12q-71 0 -110.5 38.5t-39.5 107.5q0 161 204 161h110v24q0 73 -23 99.5t-86 26.5q-36 0 -73 -8t-79 -25l-20 73q41 18 89 27.5t95 9.5q99 0 142 -44t43 -145v-333h-74l-9 76q-58 -88 -169 -88zM230 61q82 0 133 62v112h-104q-119 0 -119 -91q0 -83 90 -83zM242 605
l-138 176h102l123 -176h-87z" />
    <glyph glyph-name="aacute" unicode="&#xe1;" horiz-adv-x="528" 
d="M199 -12q-71 0 -110.5 38.5t-39.5 107.5q0 161 204 161h110v24q0 73 -23 99.5t-86 26.5q-36 0 -73 -8t-79 -25l-20 73q41 18 89 27.5t95 9.5q99 0 142 -44t43 -145v-333h-74l-9 76q-58 -88 -169 -88zM230 61q82 0 133 62v112h-104q-119 0 -119 -91q0 -83 90 -83zM207 605
l123 176h102l-138 -176h-87z" />
    <glyph glyph-name="acircumflex" unicode="&#xe2;" horiz-adv-x="528" 
d="M199 -12q-71 0 -110.5 38.5t-39.5 107.5q0 161 204 161h110v24q0 73 -23 99.5t-86 26.5q-36 0 -73 -8t-79 -25l-20 73q41 18 89 27.5t95 9.5q99 0 142 -44t43 -145v-333h-74l-9 76q-58 -88 -169 -88zM230 61q82 0 133 62v112h-104q-119 0 -119 -91q0 -83 90 -83zM94 605
l127 176h94l126 -176h-86l-87 122l-88 -122h-86z" />
    <glyph glyph-name="atilde" unicode="&#xe3;" horiz-adv-x="528" 
d="M199 -12q-71 0 -110.5 38.5t-39.5 107.5q0 161 204 161h110v24q0 73 -23 99.5t-86 26.5q-36 0 -73 -8t-79 -25l-20 73q41 18 89 27.5t95 9.5q99 0 142 -44t43 -145v-333h-74l-9 76q-58 -88 -169 -88zM230 61q82 0 133 62v112h-104q-119 0 -119 -91q0 -83 90 -83zM93 605
q0 92 21.5 129t76.5 37q30 0 50.5 -12t40.5 -40l12 -17q17 -22 27 -30.5t22 -8.5q19 0 25 22t6 82h68q0 -93 -21.5 -130t-75.5 -37q-31 0 -51.5 12.5t-40.5 39.5l-12 17q-17 23 -27 31t-22 8q-19 0 -25 -22t-6 -81h-68z" />
    <glyph glyph-name="adieresis" unicode="&#xe4;" horiz-adv-x="528" 
d="M199 -12q-71 0 -110.5 38.5t-39.5 107.5q0 161 204 161h110v24q0 73 -23 99.5t-86 26.5q-36 0 -73 -8t-79 -25l-20 73q41 18 89 27.5t95 9.5q99 0 142 -44t43 -145v-333h-74l-9 76q-58 -88 -169 -88zM230 61q82 0 133 62v112h-104q-119 0 -119 -91q0 -83 90 -83zM122 615
v99h96v-99h-96zM318 615v99h95v-99h-95z" />
    <glyph glyph-name="aring" unicode="&#xe5;" horiz-adv-x="528" 
d="M199 -12q-71 0 -110.5 38.5t-39.5 107.5q0 161 204 161h110v24q0 73 -23 99.5t-86 26.5q-36 0 -73 -8t-79 -25l-20 73q41 18 89 27.5t95 9.5q99 0 142 -44t43 -145v-333h-74l-9 76q-58 -88 -169 -88zM230 61q82 0 133 62v112h-104q-119 0 -119 -91q0 -83 90 -83zM268 599
q-49 0 -80.5 31t-31.5 81t31.5 81t80.5 31q50 0 81 -31t31 -81q0 -51 -31 -81.5t-81 -30.5zM268 651q26 0 41 16t15 44q0 27 -15 43.5t-41 16.5q-25 0 -40.5 -16t-15.5 -44q0 -27 15.5 -43.5t40.5 -16.5z" />
    <glyph glyph-name="ae" unicode="&#xe6;" horiz-adv-x="835" 
d="M206 -12q-75 0 -116 38t-41 108q0 157 204 157h110q-1 62 -10 95.5t-32.5 46t-66.5 12.5q-69 0 -152 -33l-20 73q85 37 184 37q116 0 152 -76q23 36 65 56t96 20q101 0 154 -67t53 -197v-32h-338q4 -85 40 -123.5t111 -38.5t141 37l25 -70q-73 -45 -173 -45
q-140 0 -194 100q-32 -47 -81.5 -72.5t-110.5 -25.5zM577 449q-118 0 -128 -159h246q-2 159 -118 159zM232 61q79 0 146 74q-12 42 -14 96h-105q-119 0 -119 -87q0 -83 92 -83z" />
    <glyph glyph-name="ccedilla" unicode="&#xe7;" horiz-adv-x="462" 
d="M281 -14q-227 0 -227 265q0 131 60.5 201t173.5 70q77 0 136 -31l-24 -71q-29 13 -53.5 19t-51.5 6q-76 0 -112 -47t-36 -148q0 -95 35.5 -140.5t109.5 -45.5q62 0 112 27l21 -70q-54 -35 -144 -35zM253 -257q-22 0 -46 3.5t-47 10.5v60q24 -7 45 -9t39 -2q38 0 54.5 10
t16.5 32q0 24 -21 36t-77 13l20 114l57 -1l-12 -63q54 -7 82.5 -31t28.5 -70q0 -103 -140 -103z" />
    <glyph glyph-name="egrave" unicode="&#xe8;" horiz-adv-x="532" 
d="M288 -14q-234 0 -234 264q0 131 57.5 201.5t163.5 70.5q103 0 155.5 -67t52.5 -198v-34h-339q4 -83 40.5 -121t111.5 -38q74 0 140 37l25 -70q-71 -45 -173 -45zM274 449q-121 0 -130 -162h249q-1 162 -119 162zM248 605l-138 176h102l123 -176h-87z" />
    <glyph glyph-name="eacute" unicode="&#xe9;" horiz-adv-x="532" 
d="M288 -14q-234 0 -234 264q0 131 57.5 201.5t163.5 70.5q103 0 155.5 -67t52.5 -198v-34h-339q4 -83 40.5 -121t111.5 -38q74 0 140 37l25 -70q-71 -45 -173 -45zM274 449q-121 0 -130 -162h249q-1 162 -119 162zM213 605l123 176h102l-138 -176h-87z" />
    <glyph glyph-name="ecircumflex" unicode="&#xea;" horiz-adv-x="532" 
d="M288 -14q-234 0 -234 264q0 131 57.5 201.5t163.5 70.5q103 0 155.5 -67t52.5 -198v-34h-339q4 -83 40.5 -121t111.5 -38q74 0 140 37l25 -70q-71 -45 -173 -45zM274 449q-121 0 -130 -162h249q-1 162 -119 162zM100 605l127 176h94l126 -176h-86l-87 122l-88 -122h-86z
" />
    <glyph glyph-name="edieresis" unicode="&#xeb;" horiz-adv-x="532" 
d="M288 -14q-234 0 -234 264q0 131 57.5 201.5t163.5 70.5q103 0 155.5 -67t52.5 -198v-34h-339q4 -83 40.5 -121t111.5 -38q74 0 140 37l25 -70q-71 -45 -173 -45zM274 449q-121 0 -130 -162h249q-1 162 -119 162zM128 615v99h96v-99h-96zM324 615v99h95v-99h-95z" />
    <glyph glyph-name="igrave" unicode="&#xec;" horiz-adv-x="277" 
d="M106 0v440h-77v69h166v-509h-89zM105 605l-138 176h102l123 -176h-87z" />
    <glyph glyph-name="iacute" unicode="&#xed;" horiz-adv-x="277" 
d="M106 0v440h-77v69h166v-509h-89zM70 605l123 176h102l-138 -176h-87z" />
    <glyph glyph-name="icircumflex" unicode="&#xee;" horiz-adv-x="277" 
d="M106 0v440h-77v69h166v-509h-89zM-43 605l127 176h94l126 -176h-86l-87 122l-88 -122h-86z" />
    <glyph glyph-name="idieresis" unicode="&#xef;" horiz-adv-x="277" 
d="M106 0v440h-77v69h166v-509h-89zM-15 615v99h96v-99h-96zM181 615v99h95v-99h-95z" />
    <glyph glyph-name="eth" unicode="&#xf0;" horiz-adv-x="565" 
d="M279 -14q-104 0 -161 63.5t-57 180.5q0 107 51 169t141 62q95 0 152 -75q-25 119 -123 192l-127 -74l-27 51l98 57q-42 23 -98 43l29 63q83 -25 146 -62l104 61l27 -51l-79 -46q152 -120 152 -353q0 -136 -58 -208.5t-170 -72.5zM153 226q0 -165 129 -165q133 0 133 209
q0 30 -3 58q-57 61 -134 61q-125 0 -125 -163z" />
    <glyph glyph-name="ntilde" unicode="&#xf1;" horiz-adv-x="569" 
d="M84 0v509h74l9 -82q54 95 166 95q77 0 117.5 -44t40.5 -130v-348h-90v341q0 54 -23 79t-73 25q-74 0 -131 -58v-387h-90zM112 605q0 92 21.5 129t76.5 37q30 0 50.5 -12t40.5 -40l12 -17q17 -22 27 -30.5t22 -8.5q19 0 25 22t6 82h68q0 -93 -21.5 -130t-75.5 -37
q-31 0 -51.5 12.5t-40.5 39.5l-12 17q-17 23 -27 31t-22 8q-19 0 -25 -22t-6 -81h-68z" />
    <glyph glyph-name="ograve" unicode="&#xf2;" horiz-adv-x="553" 
d="M277 -14q-108 0 -165.5 69.5t-57.5 199.5q0 131 57 199t166 68q108 0 165 -68t57 -199q0 -130 -57.5 -199.5t-164.5 -69.5zM277 61q66 0 97.5 47.5t31.5 146.5t-31.5 145.5t-97.5 46.5t-98 -46.5t-32 -145.5t32 -146.5t98 -47.5zM251 605l-138 176h102l123 -176h-87z" />
    <glyph glyph-name="oacute" unicode="&#xf3;" horiz-adv-x="553" 
d="M277 -14q-108 0 -165.5 69.5t-57.5 199.5q0 131 57 199t166 68q108 0 165 -68t57 -199q0 -130 -57.5 -199.5t-164.5 -69.5zM277 61q66 0 97.5 47.5t31.5 146.5t-31.5 145.5t-97.5 46.5t-98 -46.5t-32 -145.5t32 -146.5t98 -47.5zM216 605l123 176h102l-138 -176h-87z" />
    <glyph glyph-name="ocircumflex" unicode="&#xf4;" horiz-adv-x="553" 
d="M277 -14q-108 0 -165.5 69.5t-57.5 199.5q0 131 57 199t166 68q108 0 165 -68t57 -199q0 -130 -57.5 -199.5t-164.5 -69.5zM277 61q66 0 97.5 47.5t31.5 146.5t-31.5 145.5t-97.5 46.5t-98 -46.5t-32 -145.5t32 -146.5t98 -47.5zM103 605l127 176h94l126 -176h-86
l-87 122l-88 -122h-86z" />
    <glyph glyph-name="otilde" unicode="&#xf5;" horiz-adv-x="553" 
d="M277 -14q-108 0 -165.5 69.5t-57.5 199.5q0 131 57 199t166 68q108 0 165 -68t57 -199q0 -130 -57.5 -199.5t-164.5 -69.5zM277 61q66 0 97.5 47.5t31.5 146.5t-31.5 145.5t-97.5 46.5t-98 -46.5t-32 -145.5t32 -146.5t98 -47.5zM102 605q0 92 21.5 129t76.5 37
q30 0 50.5 -12t40.5 -40l12 -17q17 -22 27 -30.5t22 -8.5q19 0 25 22t6 82h68q0 -93 -21.5 -130t-75.5 -37q-31 0 -51.5 12.5t-40.5 39.5l-12 17q-17 23 -27 31t-22 8q-19 0 -25 -22t-6 -81h-68z" />
    <glyph glyph-name="odieresis" unicode="&#xf6;" horiz-adv-x="553" 
d="M277 -14q-108 0 -165.5 69.5t-57.5 199.5q0 131 57 199t166 68q108 0 165 -68t57 -199q0 -130 -57.5 -199.5t-164.5 -69.5zM277 61q66 0 97.5 47.5t31.5 146.5t-31.5 145.5t-97.5 46.5t-98 -46.5t-32 -145.5t32 -146.5t98 -47.5zM131 615v99h96v-99h-96zM327 615v99h95
v-99h-95z" />
    <glyph glyph-name="divide" unicode="&#xf7;" 
d="M245 467v95h90v-95h-90zM72 295v77h436v-77h-436zM245 106v95h90v-95h-90z" />
    <glyph glyph-name="oslash" unicode="&#xf8;" horiz-adv-x="553" 
d="M107 -42l-44 31l47 67q-56 69 -56 199q0 131 57 199t166 68q76 0 127 -34l42 62l44 -30l-47 -68q56 -68 56 -197q0 -130 -57.5 -199.5t-164.5 -69.5q-76 0 -127 34zM143 255q0 -40 5 -71.5t14 -54.5l198 294q-30 26 -83 26q-68 0 -101 -47t-33 -147zM277 59
q68 0 100.5 48t32.5 148q0 80 -19 125l-198 -294q31 -27 84 -27z" />
    <glyph glyph-name="ugrave" unicode="&#xf9;" horiz-adv-x="564" 
d="M231 -12q-153 0 -153 181v340h90v-334q0 -59 21.5 -85t70.5 -26q75 0 131 59v386h90v-509h-75l-9 78q-58 -90 -166 -90zM253 605l-138 176h102l123 -176h-87z" />
    <glyph glyph-name="uacute" unicode="&#xfa;" horiz-adv-x="564" 
d="M231 -12q-153 0 -153 181v340h90v-334q0 -59 21.5 -85t70.5 -26q75 0 131 59v386h90v-509h-75l-9 78q-58 -90 -166 -90zM218 605l123 176h102l-138 -176h-87z" />
    <glyph glyph-name="ucircumflex" unicode="&#xfb;" horiz-adv-x="564" 
d="M231 -12q-153 0 -153 181v340h90v-334q0 -59 21.5 -85t70.5 -26q75 0 131 59v386h90v-509h-75l-9 78q-58 -90 -166 -90zM105 605l127 176h94l126 -176h-86l-87 122l-88 -122h-86z" />
    <glyph glyph-name="udieresis" unicode="&#xfc;" horiz-adv-x="564" 
d="M231 -12q-153 0 -153 181v340h90v-334q0 -59 21.5 -85t70.5 -26q75 0 131 59v386h90v-509h-75l-9 78q-58 -90 -166 -90zM133 615v99h96v-99h-96zM329 615v99h95v-99h-95z" />
    <glyph glyph-name="yacute" unicode="&#xfd;" horiz-adv-x="479" 
d="M86 -202q-37 0 -68 11v67q27 -7 55 -7q47 0 73.5 25.5t49.5 92.5l2 5l-186 517h98l131 -402l130 402h96l-207 -577q-25 -72 -65.5 -103t-108.5 -31zM179 605l123 176h102l-138 -176h-87z" />
    <glyph glyph-name="thorn" unicode="&#xfe;" horiz-adv-x="575" 
d="M84 -192v904h90v-269q55 79 159 79q90 0 138.5 -69.5t48.5 -198.5q0 -130 -48 -198.5t-139 -68.5q-102 0 -159 76v-255h-90zM305 63q62 0 92 47t30 144q0 98 -30 144.5t-92 46.5q-74 0 -131 -57v-268q57 -57 131 -57z" />
    <glyph glyph-name="ydieresis" unicode="&#xff;" horiz-adv-x="479" 
d="M86 -202q-37 0 -68 11v67q27 -7 55 -7q47 0 73.5 25.5t49.5 92.5l2 5l-186 517h98l131 -402l130 402h96l-207 -577q-25 -72 -65.5 -103t-108.5 -31zM94 615v99h96v-99h-96zM290 615v99h95v-99h-95z" />
    <glyph glyph-name="Abreve" unicode="&#x102;" horiz-adv-x="624" 
d="M30 0l224 674h122l218 -674h-96l-53 170h-266l-54 -170h-95zM203 246h219l-109 347zM315 742q-81 0 -120.5 43.5t-39.5 119.5h77q0 -48 20 -74t63 -26q44 0 64 26.5t20 73.5h77q0 -76 -40 -119.5t-121 -43.5z" />
    <glyph glyph-name="abreve" unicode="&#x103;" horiz-adv-x="528" 
d="M199 -12q-71 0 -110.5 38.5t-39.5 107.5q0 161 204 161h110v24q0 73 -23 99.5t-86 26.5q-36 0 -73 -8t-79 -25l-20 73q41 18 89 27.5t95 9.5q99 0 142 -44t43 -145v-333h-74l-9 76q-58 -88 -169 -88zM230 61q82 0 133 62v112h-104q-119 0 -119 -91q0 -83 90 -83zM267 600
q-159 0 -159 167h77q0 -53 19.5 -78.5t62.5 -25.5q44 0 63 26t19 78h77q0 -167 -159 -167z" />
    <glyph glyph-name="Aogonek" unicode="&#x104;" horiz-adv-x="624" 
d="M30 0l224 674h122l218 -674h-96l-53 170h-266l-54 -170h-95zM203 246h219l-109 347zM545 -216q-55 0 -88 25.5t-33 72.5q0 46 25 78.5t69 54.5l76 -15q-45 -23 -69 -47t-24 -53q0 -27 16.5 -38t48.5 -11q24 0 43 6v-63q-13 -4 -28 -7t-36 -3z" />
    <glyph glyph-name="aogonek" unicode="&#x105;" horiz-adv-x="528" 
d="M199 -12q-71 0 -110.5 38.5t-39.5 107.5q0 161 204 161h110v24q0 73 -23 99.5t-86 26.5q-36 0 -73 -8t-79 -25l-20 73q41 18 89 27.5t95 9.5q99 0 142 -44t43 -145v-333h-74l-9 76q-58 -88 -169 -88zM230 61q82 0 133 62v112h-104q-119 0 -119 -91q0 -83 90 -83z
M401 -216q-55 0 -87 26t-32 72q0 44 28 77t79 55l62 -14q-45 -23 -68.5 -47t-23.5 -53q0 -27 15.5 -38t48.5 -11q24 0 43 6v-63q-13 -4 -28.5 -7t-36.5 -3z" />
    <glyph glyph-name="Cacute" unicode="&#x106;" horiz-adv-x="555" 
d="M342 -14q-143 0 -212 84t-69 257q0 178 72.5 269.5t214.5 91.5q47 0 90.5 -9.5t76.5 -26.5l-24 -72q-32 14 -65.5 21t-67.5 7q-103 0 -152 -68.5t-49 -212.5q0 -139 46 -200t150 -61q83 0 141 29l22 -72q-30 -17 -76 -27t-98 -10zM258 749l131 156h113l-150 -156h-94z
" />
    <glyph glyph-name="cacute" unicode="&#x107;" horiz-adv-x="462" 
d="M281 -14q-227 0 -227 265q0 131 60.5 201t173.5 70q77 0 136 -31l-24 -71q-29 13 -53.5 19t-51.5 6q-76 0 -112 -47t-36 -148q0 -95 35.5 -140.5t109.5 -45.5q62 0 112 27l21 -70q-54 -35 -144 -35zM201 605l123 176h102l-138 -176h-87z" />
    <glyph glyph-name="Eogonek" unicode="&#x118;" horiz-adv-x="559" 
d="M93 0v674h404v-78h-312v-214h266v-78h-266v-226h315v-78q-93 -44 -93 -102q0 -47 65 -47q21 0 43 6v-63q-26 -10 -65 -10q-56 0 -88.5 26.5t-32.5 72.5q0 77 79 117h-315z" />
    <glyph glyph-name="eogonek" unicode="&#x119;" horiz-adv-x="532" 
d="M403 -216q-55 0 -86.5 27t-31.5 73q0 62 57 107q-26 -4 -54 -4q-234 0 -234 263q0 131 57.5 201.5t163.5 70.5q103 0 155.5 -67t52.5 -198v-34h-339q4 -83 40.5 -121t111.5 -38q72 0 140 37l24 -67q-98 -60 -98 -130q0 -53 63 -53q21 0 43 6v-63q-26 -10 -65 -10z
M274 449q-121 0 -130 -162h249q-1 162 -119 162z" />
    <glyph glyph-name="dotlessi" unicode="&#x131;" horiz-adv-x="277" 
d="M106 0v440h-77v69h166v-509h-89z" />
    <glyph glyph-name="IJ" unicode="&#x132;" horiz-adv-x="732" 
d="M93 0v674h93v-674h-93zM452 -14q-74 0 -133 31l26 75q51 -24 99 -24q59 0 84 33t25 112v383h-183v78h276v-470q0 -112 -47 -165t-147 -53z" />
    <glyph glyph-name="ij" unicode="&#x133;" horiz-adv-x="555" 
d="M96 616v99h100v-99h-100zM106 0v440h-77v69h166v-509h-89zM373 616v99h100v-99h-100zM346 -202q-18 0 -32.5 2t-27.5 6v69q11 -3 21 -4t20 -1q32 0 44 16.5t12 54.5v499h-77v69h166v-562q0 -78 -30.5 -113.5t-95.5 -35.5z" />
    <glyph glyph-name="Lslash" unicode="&#x141;" horiz-adv-x="534" 
d="M112 0v243l-81 -46v75l81 46v356h92v-304l171 96v-75l-171 -96v-217h290v-78h-382z" />
    <glyph glyph-name="lslash" unicode="&#x142;" horiz-adv-x="336" 
d="M220 -8q-63 0 -90.5 31.5t-27.5 103.5v171l-78 -42v74l78 42v340h88v-293l109 59v-74l-109 -59v-223q0 -33 11 -45.5t39 -12.5q11 0 21 1t23 4v-68q-31 -9 -64 -9z" />
    <glyph glyph-name="Nacute" unicode="&#x143;" horiz-adv-x="684" 
d="M93 0v674h106l306 -556v556h86v-674h-106l-306 557v-557h-86zM262 749l131 156h113l-150 -156h-94z" />
    <glyph glyph-name="nacute" unicode="&#x144;" horiz-adv-x="569" 
d="M84 0v509h74l9 -82q54 95 166 95q77 0 117.5 -44t40.5 -130v-348h-90v341q0 54 -23 79t-73 25q-74 0 -131 -58v-387h-90zM226 605l123 176h102l-138 -176h-87z" />
    <glyph glyph-name="OE" unicode="&#x152;" horiz-adv-x="969" 
d="M319 -14q-127 0 -192.5 89t-65.5 261q0 173 65.5 262.5t192.5 89.5q142 0 188 -107v93h399v-78h-311v-214h266v-78h-266v-226h315v-78h-403v93q-45 -107 -188 -107zM332 66q89 0 132 66.5t43 205.5q0 138 -43 204t-132 66q-88 0 -131.5 -67t-43.5 -205q0 -137 43 -203.5
t132 -66.5z" />
    <glyph glyph-name="oe" unicode="&#x153;" horiz-adv-x="887" 
d="M277 -14q-108 0 -165.5 69.5t-57.5 199.5q0 131 57 199t166 68q129 0 176 -103q49 103 177 103q103 0 155.5 -67t52.5 -198v-34h-339q4 -83 40.5 -121t110.5 -38q75 0 141 37l24 -70q-70 -45 -173 -45q-144 0 -190 103q-44 -103 -175 -103zM629 449q-121 0 -130 -162h248
q-1 162 -118 162zM277 61q66 0 97.5 47.5t31.5 146.5t-31.5 145.5t-97.5 46.5t-98 -46.5t-32 -145.5t32 -146.5t98 -47.5z" />
    <glyph glyph-name="Sacute" unicode="&#x15a;" horiz-adv-x="553" 
d="M258 -14q-123 0 -209 47l25 75q78 -42 181 -42q74 0 109.5 27.5t35.5 85.5q0 49 -25 75.5t-86 41.5l-59 14q-86 20 -124 63.5t-38 120.5q0 93 58.5 143.5t166.5 50.5q47 0 96 -11t90 -30l-22 -74q-33 17 -73.5 26t-82.5 9q-141 0 -141 -112q0 -43 23 -66.5t82 -39.5
l50 -12q96 -25 138 -70.5t42 -125.5q0 -196 -237 -196zM204 749l131 156h113l-150 -156h-94z" />
    <glyph glyph-name="sacute" unicode="&#x15b;" horiz-adv-x="452" 
d="M214 -14q-50 0 -97 11.5t-79 31.5l22 73q68 -41 156 -41q106 0 106 78q0 33 -18.5 50t-65.5 27l-49 11q-73 15 -105.5 49.5t-32.5 93.5q0 70 50 111t134 41q51 0 88 -8t73 -26l-19 -69q-31 15 -63.5 21.5t-72.5 6.5q-49 0 -77 -19t-28 -54q0 -30 19 -46t68 -27l38 -9
q57 -13 89 -32t45.5 -48t13.5 -75q0 -73 -50 -112t-145 -39zM175 605l123 176h102l-138 -176h-87z" />
    <glyph glyph-name="Scaron" unicode="&#x160;" horiz-adv-x="553" 
d="M258 -14q-123 0 -209 47l25 75q78 -42 181 -42q74 0 109.5 27.5t35.5 85.5q0 49 -25 75.5t-86 41.5l-59 14q-86 20 -124 63.5t-38 120.5q0 93 58.5 143.5t166.5 50.5q47 0 96 -11t90 -30l-22 -74q-33 17 -73.5 26t-82.5 9q-141 0 -141 -112q0 -43 23 -66.5t82 -39.5
l50 -12q96 -25 138 -70.5t42 -125.5q0 -196 -237 -196zM234 749l-122 156h92l80 -106l81 106h91l-122 -156h-100z" />
    <glyph glyph-name="scaron" unicode="&#x161;" horiz-adv-x="452" 
d="M214 -14q-50 0 -97 11.5t-79 31.5l22 73q68 -41 156 -41q106 0 106 78q0 33 -18.5 50t-65.5 27l-49 11q-73 15 -105.5 49.5t-32.5 93.5q0 70 50 111t134 41q51 0 88 -8t73 -26l-19 -69q-31 15 -63.5 21.5t-72.5 6.5q-49 0 -77 -19t-28 -54q0 -30 19 -46t68 -27l38 -9
q57 -13 89 -32t45.5 -48t13.5 -75q0 -73 -50 -112t-145 -39zM189 605l-127 176h86l88 -121l87 121h86l-127 -176h-93z" />
    <glyph glyph-name="Wcircumflex" unicode="&#x174;" horiz-adv-x="843" 
d="M175 0l-147 674h91l120 -593l126 580h114l128 -583l121 596h87l-148 -674h-124l-122 567l-122 -567h-124zM250 749l123 156h100l122 -156h-92l-80 106l-81 -106h-92z" />
    <glyph glyph-name="wcircumflex" unicode="&#x175;" horiz-adv-x="741" 
d="M148 0l-130 509h95l95 -440l112 426h104l111 -425l98 439h90l-130 -509h-112l-110 415l-111 -415h-112zM198 605l127 176h94l126 -176h-86l-87 122l-88 -122h-86z" />
    <glyph glyph-name="Ycircumflex" unicode="&#x176;" horiz-adv-x="571" 
d="M239 0v238l-223 436h101l171 -343l175 343h93l-224 -430v-244h-93zM117 749l123 156h100l122 -156h-92l-80 106l-81 -106h-92z" />
    <glyph glyph-name="ycircumflex" unicode="&#x177;" horiz-adv-x="479" 
d="M86 -202q-37 0 -68 11v67q27 -7 55 -7q47 0 73.5 25.5t49.5 92.5l2 5l-186 517h98l131 -402l130 402h96l-207 -577q-25 -72 -65.5 -103t-108.5 -31zM66 605l127 176h94l126 -176h-86l-87 122l-88 -122h-86z" />
    <glyph glyph-name="Ydieresis" unicode="&#x178;" horiz-adv-x="571" 
d="M239 0v238l-223 436h101l171 -343l175 343h93l-224 -430v-244h-93zM144 762v99h96v-99h-96zM340 762v99h95v-99h-95z" />
    <glyph glyph-name="Zacute" unicode="&#x179;" horiz-adv-x="557" 
d="M54 0v62l336 534h-328v78h440v-62l-335 -534h341v-78h-454zM204 749l131 156h113l-150 -156h-94z" />
    <glyph glyph-name="zacute" unicode="&#x17a;" horiz-adv-x="473" 
d="M54 0v57l257 383h-252v69h355v-57l-257 -382h262v-70h-365zM173 605l123 176h102l-138 -176h-87z" />
    <glyph glyph-name="Zdotaccent" unicode="&#x17b;" horiz-adv-x="557" 
d="M54 0v62l336 534h-328v78h440v-62l-335 -534h341v-78h-454zM234 762v99h100v-99h-100z" />
    <glyph glyph-name="zdotaccent" unicode="&#x17c;" horiz-adv-x="473" 
d="M54 0v57l257 383h-252v69h355v-57l-257 -382h262v-70h-365zM184 616v99h100v-99h-100z" />
    <glyph glyph-name="Zcaron" unicode="&#x17d;" horiz-adv-x="557" 
d="M54 0v62l336 534h-328v78h440v-62l-335 -534h341v-78h-454zM234 749l-122 156h92l80 -106l81 106h91l-122 -156h-100z" />
    <glyph glyph-name="zcaron" unicode="&#x17e;" horiz-adv-x="473" 
d="M54 0v57l257 383h-252v69h355v-57l-257 -382h262v-70h-365zM187 605l-127 176h86l88 -121l87 121h86l-127 -176h-93z" />
    <glyph glyph-name="uni0218" unicode="&#x218;" horiz-adv-x="553" 
d="M258 -14q-123 0 -209 47l25 75q78 -42 181 -42q74 0 109.5 27.5t35.5 85.5q0 49 -25 75.5t-86 41.5l-59 14q-86 20 -124 63.5t-38 120.5q0 93 58.5 143.5t166.5 50.5q47 0 96 -11t90 -30l-22 -74q-33 17 -73.5 26t-82.5 9q-141 0 -141 -112q0 -43 23 -66.5t82 -39.5
l50 -12q96 -25 138 -70.5t42 -125.5q0 -196 -237 -196zM207 -258l24 175h86l-41 -175h-69z" />
    <glyph glyph-name="uni0219" unicode="&#x219;" horiz-adv-x="452" 
d="M214 -14q-50 0 -97 11.5t-79 31.5l22 73q68 -41 156 -41q106 0 106 78q0 33 -18.5 50t-65.5 27l-49 11q-73 15 -105.5 49.5t-32.5 93.5q0 70 50 111t134 41q51 0 88 -8t73 -26l-19 -69q-31 15 -63.5 21.5t-72.5 6.5q-49 0 -77 -19t-28 -54q0 -30 19 -46t68 -27l38 -9
q57 -13 89 -32t45.5 -48t13.5 -75q0 -73 -50 -112t-145 -39zM162 -258l24 175h86l-41 -175h-69z" />
    <glyph glyph-name="uni021A" unicode="&#x21a;" horiz-adv-x="530" 
d="M219 0v596h-197v78h486v-78h-196v-596h-93zM195 -258l24 175h86l-41 -175h-69z" />
    <glyph glyph-name="uni021B" unicode="&#x21b;" horiz-adv-x="392" 
d="M268 -8q-86 0 -122 39.5t-36 131.5v277h-91v65l59 3q22 2 31 9t10 26l8 113h72v-147h164v-69h-164v-284q0 -53 18.5 -72.5t69.5 -19.5q15 0 30 1.5t39 5.5v-69q-34 -10 -88 -10zM172 -258l24 175h86l-41 -175h-69z" />
    <glyph glyph-name="uni0237" unicode="&#x237;" horiz-adv-x="277" 
d="M69 -202q-18 0 -32.5 2t-27.5 6v69q11 -3 21 -4t20 -1q32 0 44 16.5t12 54.5v499h-77v69h166v-562q0 -78 -30.5 -113.5t-95.5 -35.5z" />
    <glyph glyph-name="circumflex" unicode="&#x2c6;" horiz-adv-x="407" 
d="M30 605l127 176h94l126 -176h-86l-87 122l-88 -122h-86z" />
    <glyph glyph-name="caron" unicode="&#x2c7;" horiz-adv-x="407" 
d="M157 605l-127 176h86l88 -121l87 121h86l-127 -176h-93z" />
    <glyph glyph-name="breve" unicode="&#x2d8;" horiz-adv-x="378" 
d="M189 600q-159 0 -159 167h77q0 -53 19.5 -78.5t62.5 -25.5q44 0 63 26t19 78h77q0 -167 -159 -167z" />
    <glyph glyph-name="dotaccent" unicode="&#x2d9;" horiz-adv-x="160" 
d="M30 616v99h100v-99h-100z" />
    <glyph glyph-name="ring" unicode="&#x2da;" horiz-adv-x="285" 
d="M142 599q-49 0 -80.5 31t-31.5 81t31.5 81t80.5 31q50 0 81 -31t31 -81q0 -51 -31 -81.5t-81 -30.5zM142 651q26 0 41 16t15 44q0 27 -15 43.5t-41 16.5q-25 0 -40.5 -16t-15.5 -44q0 -27 15.5 -43.5t40.5 -16.5z" />
    <glyph glyph-name="ogonek" unicode="&#x2db;" horiz-adv-x="243" 
d="M148 -216q-55 0 -87 26t-32 72q0 44 28 77t79 55l62 -14q-45 -23 -68.5 -47t-23.5 -53q0 -27 15.5 -38t48.5 -11q24 0 43 6v-63q-13 -4 -28.5 -7t-36.5 -3z" />
    <glyph glyph-name="tilde" unicode="&#x2dc;" horiz-adv-x="409" 
d="M30 605q0 92 21.5 129t76.5 37q30 0 50.5 -12t40.5 -40l12 -17q17 -22 27 -30.5t22 -8.5q19 0 25 22t6 82h68q0 -93 -21.5 -130t-75.5 -37q-31 0 -51.5 12.5t-40.5 39.5l-12 17q-17 23 -27 31t-22 8q-19 0 -25 -22t-6 -81h-68z" />
    <glyph glyph-name="gravecomb" unicode="&#x300;" horiz-adv-x="0" 
d="M-26 605l-138 176h102l123 -176h-87z" />
    <glyph glyph-name="acutecomb" unicode="&#x301;" horiz-adv-x="0" 
d="M-61 605l123 176h102l-138 -176h-87z" />
    <glyph glyph-name="uni0302" unicode="&#x302;" horiz-adv-x="0" 
d="M-174 605l127 176h94l126 -176h-86l-87 122l-88 -122h-86z" />
    <glyph glyph-name="tildecomb" unicode="&#x303;" horiz-adv-x="0" 
d="M-175 605q0 92 21.5 129t76.5 37q30 0 50.5 -12t40.5 -40l12 -17q17 -22 27 -30.5t22 -8.5q19 0 25 22t6 82h68q0 -93 -21.5 -130t-75.5 -37q-31 0 -51.5 12.5t-40.5 39.5l-12 17q-17 23 -27 31t-22 8q-19 0 -25 -22t-6 -81h-68z" />
    <glyph glyph-name="uni0306" unicode="&#x306;" horiz-adv-x="0" 
d="M-1 600q-159 0 -159 167h77q0 -53 19.5 -78.5t62.5 -25.5q44 0 63 26t19 78h77q0 -167 -159 -167z" />
    <glyph glyph-name="uni0307" unicode="&#x307;" horiz-adv-x="0" 
d="M-50 616v99h100v-99h-100z" />
    <glyph glyph-name="uni0308" unicode="&#x308;" horiz-adv-x="0" 
d="M-146 615v99h96v-99h-96zM50 615v99h95v-99h-95z" />
    <glyph glyph-name="uni030A" unicode="&#x30a;" horiz-adv-x="0" 
d="M0 599q-49 0 -80.5 31t-31.5 81t31.5 81t80.5 31q50 0 81 -31t31 -81q0 -51 -31 -81.5t-81 -30.5zM0 651q26 0 41 16t15 44q0 27 -15 43.5t-41 16.5q-25 0 -40.5 -16t-15.5 -44q0 -27 15.5 -43.5t40.5 -16.5z" />
    <glyph glyph-name="uni030C" unicode="&#x30c;" horiz-adv-x="0" 
d="M-47 605l-127 176h86l88 -121l87 121h86l-127 -176h-93z" />
    <glyph glyph-name="uni0326" unicode="&#x326;" horiz-adv-x="0" 
d="M-70 -258l24 175h86l-41 -175h-69z" />
    <glyph glyph-name="uni0327" unicode="&#x327;" horiz-adv-x="0" 
d="M-18 -257q-22 0 -46 3.5t-47 10.5v60q24 -7 45 -9t39 -2q38 0 54.5 10t16.5 32q0 24 -21 36t-77 13l20 114l57 -1l-12 -63q54 -7 82.5 -31t28.5 -70q0 -103 -140 -103z" />
    <glyph glyph-name="uni0328" unicode="&#x328;" horiz-adv-x="0" 
d="M-49 -216q-55 0 -87 26t-32 72q0 44 28 77t79 55l62 -14q-45 -23 -68.5 -47t-23.5 -53q0 -27 15.5 -38t48.5 -11q24 0 43 6v-63q-13 -4 -28.5 -7t-36.5 -3z" />
    <glyph glyph-name="Wgrave" unicode="&#x1e80;" horiz-adv-x="843" 
d="M175 0l-147 674h91l120 -593l126 580h114l128 -583l121 596h87l-148 -674h-124l-122 567l-122 -567h-124zM400 749l-150 156h112l132 -156h-94z" />
    <glyph glyph-name="wgrave" unicode="&#x1e81;" horiz-adv-x="741" 
d="M148 0l-130 509h95l95 -440l112 426h104l111 -425l98 439h90l-130 -509h-112l-110 415l-111 -415h-112zM346 605l-138 176h102l123 -176h-87z" />
    <glyph glyph-name="Wacute" unicode="&#x1e82;" horiz-adv-x="843" 
d="M175 0l-147 674h91l120 -593l126 580h114l128 -583l121 596h87l-148 -674h-124l-122 567l-122 -567h-124zM343 749l131 156h113l-150 -156h-94z" />
    <glyph glyph-name="wacute" unicode="&#x1e83;" horiz-adv-x="741" 
d="M148 0l-130 509h95l95 -440l112 426h104l111 -425l98 439h90l-130 -509h-112l-110 415l-111 -415h-112zM311 605l123 176h102l-138 -176h-87z" />
    <glyph glyph-name="Wdieresis" unicode="&#x1e84;" horiz-adv-x="843" 
d="M175 0l-147 674h91l120 -593l126 580h114l128 -583l121 596h87l-148 -674h-124l-122 567l-122 -567h-124zM277 762v99h96v-99h-96zM473 762v99h95v-99h-95z" />
    <glyph glyph-name="wdieresis" unicode="&#x1e85;" horiz-adv-x="741" 
d="M148 0l-130 509h95l95 -440l112 426h104l111 -425l98 439h90l-130 -509h-112l-110 415l-111 -415h-112zM226 615v99h96v-99h-96zM422 615v99h95v-99h-95z" />
    <glyph glyph-name="uni1E9E" unicode="&#x1e9e;" horiz-adv-x="676" 
d="M404 -12q-31 0 -61 4.5t-55 13.5l11 78q48 -17 97 -17q70 0 102.5 29.5t32.5 91.5q0 65 -36.5 95t-118.5 30h-34v57l142 222q-27 8 -59.5 13t-63.5 5q-95 0 -140 -43t-45 -133v-434h-93v433q0 255 272 255q117 0 223 -43v-56l-138 -210q89 -5 137.5 -55.5t48.5 -138.5
q0 -95 -57 -146t-165 -51z" />
    <glyph glyph-name="Ygrave" unicode="&#x1ef2;" horiz-adv-x="571" 
d="M239 0v238l-223 436h101l171 -343l175 343h93l-224 -430v-244h-93zM267 749l-150 156h112l132 -156h-94z" />
    <glyph glyph-name="ygrave" unicode="&#x1ef3;" horiz-adv-x="479" 
d="M86 -202q-37 0 -68 11v67q27 -7 55 -7q47 0 73.5 25.5t49.5 92.5l2 5l-186 517h98l131 -402l130 402h96l-207 -577q-25 -72 -65.5 -103t-108.5 -31zM214 605l-138 176h102l123 -176h-87z" />
    <glyph glyph-name="uni2000" unicode="&#x2000;" horiz-adv-x="500" 
 />
    <glyph glyph-name="uni2001" unicode="&#x2001;" horiz-adv-x="1000" 
 />
    <glyph glyph-name="uni2002" unicode="&#x2002;" horiz-adv-x="500" 
 />
    <glyph glyph-name="uni2003" unicode="&#x2003;" horiz-adv-x="1000" 
 />
    <glyph glyph-name="uni2004" unicode="&#x2004;" horiz-adv-x="333" 
 />
    <glyph glyph-name="uni2005" unicode="&#x2005;" horiz-adv-x="250" 
 />
    <glyph glyph-name="uni2006" unicode="&#x2006;" horiz-adv-x="167" 
 />
    <glyph glyph-name="uni2007" unicode="&#x2007;" 
 />
    <glyph glyph-name="uni2008" unicode="&#x2008;" horiz-adv-x="245" 
 />
    <glyph glyph-name="uni2009" unicode="&#x2009;" horiz-adv-x="200" 
 />
    <glyph glyph-name="uni200A" unicode="&#x200a;" horiz-adv-x="62" 
 />
    <glyph glyph-name="uni200B" unicode="&#x200b;" horiz-adv-x="0" 
 />
    <glyph glyph-name="uni2010" unicode="&#x2010;" horiz-adv-x="402" 
d="M59 238v83h284v-83h-284z" />
    <glyph glyph-name="uni2011" unicode="&#x2011;" horiz-adv-x="402" 
d="M59 238v83h284v-83h-284z" />
    <glyph glyph-name="endash" unicode="&#x2013;" horiz-adv-x="450" 
d="M0 240v80h450v-80h-450z" />
    <glyph glyph-name="emdash" unicode="&#x2014;" horiz-adv-x="900" 
d="M0 240v80h900v-80h-900z" />
    <glyph glyph-name="quoteleft" unicode="&#x2018;" horiz-adv-x="240" 
d="M50 433l60 241h73l-30 -241h-103z" />
    <glyph glyph-name="quoteright" unicode="&#x2019;" horiz-adv-x="240" 
d="M57 433l30 241h104l-60 -241h-74z" />
    <glyph glyph-name="quotesinglbase" unicode="&#x201a;" horiz-adv-x="240" 
d="M57 -125l30 241h104l-60 -241h-74z" />
    <glyph glyph-name="quotedblleft" unicode="&#x201c;" horiz-adv-x="417" 
d="M50 433l60 241h73l-30 -241h-103zM226 433l60 241h73l-30 -241h-103z" />
    <glyph glyph-name="quotedblright" unicode="&#x201d;" horiz-adv-x="417" 
d="M57 433l30 241h104l-60 -241h-74zM233 433l30 241h104l-60 -241h-74z" />
    <glyph glyph-name="quotedblbase" unicode="&#x201e;" horiz-adv-x="417" 
d="M57 -125l30 241h104l-60 -241h-74zM233 -125l30 241h104l-60 -241h-74z" />
    <glyph glyph-name="dagger" unicode="&#x2020;" horiz-adv-x="456" 
d="M191 124v371h-140v66h140v151h74v-151h140v-66h-140v-371h-74z" />
    <glyph glyph-name="daggerdbl" unicode="&#x2021;" horiz-adv-x="456" 
d="M191 124v147h-140v66h140v162h-140v66h140v147h74v-147h140v-66h-140v-162h140v-66h-140v-147h-74z" />
    <glyph glyph-name="bullet" unicode="&#x2022;" horiz-adv-x="538" 
d="M130 126v288h278v-288h-278z" />
    <glyph glyph-name="ellipsis" unicode="&#x2026;" horiz-adv-x="796" 
d="M79 0v116h107v-116h-107zM345 0v116h107v-116h-107zM610 0v116h107v-116h-107z" />
    <glyph glyph-name="perthousand" unicode="&#x2030;" horiz-adv-x="1215" 
d="M175 0l402 674h95l-403 -674h-94zM799 181q0 -190 -151 -190q-74 0 -112.5 48.5t-38.5 141.5q0 190 152 190q74 0 112 -48.5t38 -141.5zM577 181q0 -67 17 -97t54 -30q38 0 55 30t17 97t-17 97t-54 30t-54.5 -30t-17.5 -97zM1167 181q0 -190 -151 -190q-74 0 -112.5 48.5
t-38.5 141.5q0 190 152 190q74 0 112 -48.5t38 -141.5zM945 181q0 -67 17 -97t54 -30q38 0 55 30t17 97t-17 97t-54 30t-54.5 -30t-17.5 -97zM349 494q0 -190 -151 -190q-74 0 -112.5 48.5t-38.5 141.5q0 190 152 190q74 0 112 -48.5t38 -141.5zM127 494q0 -67 17 -97
t54 -30q38 0 55 30t17 97t-17 97t-54 30t-54.5 -30t-17.5 -97z" />
    <glyph glyph-name="guilsinglleft" unicode="&#x2039;" horiz-adv-x="413" 
d="M244 47l-192 213l192 213h114l-191 -212l192 -214h-115z" />
    <glyph glyph-name="guilsinglright" unicode="&#x203a;" horiz-adv-x="413" 
d="M170 47h-115l191 213l-191 213h115l191 -213z" />
    <glyph glyph-name="fraction" unicode="&#x2044;" horiz-adv-x="182" 
d="M-157 0l402 674h95l-403 -674h-94z" />
    <glyph glyph-name="uni2070" unicode="&#x2070;" horiz-adv-x="397" 
d="M349 581q0 -190 -151 -190q-74 0 -112.5 48.5t-38.5 141.5q0 190 152 190q74 0 112 -48.5t38 -141.5zM127 581q0 -67 17 -97t54 -30q38 0 55 30t17 97t-17 97t-54 30t-54.5 -30t-17.5 -97z" />
    <glyph glyph-name="uni2074" unicode="&#x2074;" horiz-adv-x="395" 
d="M227 400v79h-188v55l171 227h87v-225h57v-57h-57v-79h-70zM114 536h116v159z" />
    <glyph glyph-name="uni2075" unicode="&#x2075;" horiz-adv-x="366" 
d="M177 391q-77 0 -131 32l20 58q28 -13 54.5 -19t54.5 -6q72 0 72 55q0 56 -68 56q-40 0 -74 -20l-42 25v189h240v-62h-173v-91q27 17 69 17q57 0 90.5 -31.5t33.5 -84.5q0 -57 -37.5 -87.5t-108.5 -30.5z" />
    <glyph glyph-name="uni2076" unicode="&#x2076;" horiz-adv-x="384" 
d="M201 391q-76 0 -115 46.5t-39 135.5q0 198 173 198q29 0 57 -6t50 -17l-18 -58q-45 18 -81 18q-52 0 -76 -28.5t-26 -92.5q31 36 93 36q58 0 90.5 -30.5t32.5 -83.5q0 -55 -38 -86.5t-103 -31.5zM201 568q-44 0 -75 -30q3 -89 75 -89q66 0 66 60q0 28 -17.5 43.5
t-48.5 15.5z" />
    <glyph glyph-name="uni2077" unicode="&#x2077;" horiz-adv-x="339" 
d="M31 699v62h269v-56l-128 -305h-82l127 299h-186z" />
    <glyph glyph-name="uni2078" unicode="&#x2078;" horiz-adv-x="390" 
d="M195 391q-72 0 -110 27.5t-38 78.5q0 34 19.5 57.5t53.5 32.5q-28 9 -45.5 31.5t-17.5 52.5q0 45 38.5 72.5t99.5 27.5q62 0 100 -27.5t38 -72.5q0 -30 -17.5 -52.5t-45.5 -31.5q34 -9 53 -32.5t19 -57.5q0 -51 -38 -78.5t-109 -27.5zM195 612q32 0 49 13.5t17 37.5
q0 25 -17.5 38.5t-48.5 13.5t-48.5 -13.5t-17.5 -38.5q0 -24 17.5 -37.5t48.5 -13.5zM195 447q34 0 52.5 14.5t18.5 39.5q0 26 -18.5 40.5t-52.5 14.5t-52.5 -14.5t-18.5 -40.5q0 -25 18.5 -39.5t52.5 -14.5z" />
    <glyph glyph-name="uni2079" unicode="&#x2079;" horiz-adv-x="384" 
d="M184 771q75 0 114 -46.5t39 -135.5q0 -198 -173 -198q-28 0 -56 6.5t-50 16.5l17 58q45 -18 82 -18q51 0 75 28.5t26 92.5q-31 -36 -92 -36q-58 0 -90.5 30.5t-32.5 83.5q0 55 38 86.5t103 31.5zM118 653q0 -28 17.5 -43.5t48.5 -15.5q42 0 74 29q-3 90 -75 90
q-31 0 -48 -15.5t-17 -44.5z" />
    <glyph glyph-name="uni2080" unicode="&#x2080;" horiz-adv-x="397" 
d="M349 81q0 -190 -151 -190q-74 0 -112.5 48.5t-38.5 141.5q0 190 152 190q74 0 112 -48.5t38 -141.5zM127 81q0 -67 17 -97t54 -30q38 0 55 30t17 97t-17 97t-54 30t-54.5 -30t-17.5 -97z" />
    <glyph glyph-name="uni2081" unicode="&#x2081;" horiz-adv-x="275" 
d="M127 -100v263h-92v60l72 2q17 1 22.5 7t7.5 19l4 19h61v-370h-75z" />
    <glyph glyph-name="uni2082" unicode="&#x2082;" horiz-adv-x="359" 
d="M45 -100v54l122 97q34 28 47 48.5t13 45.5q0 62 -71 62q-45 0 -85 -25l-25 55q46 34 119 34q65 0 101 -32t36 -90q0 -40 -20 -72t-68 -69l-60 -46h160v-62h-269z" />
    <glyph glyph-name="uni2083" unicode="&#x2083;" horiz-adv-x="361" 
d="M164 -109q-78 0 -131 32l20 58q51 -26 107 -26q74 0 74 51q0 47 -70 47h-52v59h55q61 0 61 48q0 47 -68 47q-25 0 -49.5 -6.5t-45.5 -17.5l-22 56q26 16 58.5 24t66.5 8q62 0 98 -26.5t36 -72.5q0 -32 -18 -55t-49 -30q35 -8 55 -32t20 -58q0 -49 -39 -77.5t-107 -28.5z
" />
    <glyph glyph-name="uni2084" unicode="&#x2084;" horiz-adv-x="395" 
d="M227 -100v79h-188v55l171 227h87v-225h57v-57h-57v-79h-70zM114 36h116v159z" />
    <glyph glyph-name="uni2085" unicode="&#x2085;" horiz-adv-x="366" 
d="M177 -109q-77 0 -131 32l20 58q28 -13 54.5 -19t54.5 -6q72 0 72 55q0 56 -68 56q-40 0 -74 -20l-42 25v189h240v-62h-173v-91q27 17 69 17q57 0 90.5 -31.5t33.5 -84.5q0 -57 -37.5 -87.5t-108.5 -30.5z" />
    <glyph glyph-name="uni2086" unicode="&#x2086;" horiz-adv-x="384" 
d="M201 -109q-76 0 -115 46.5t-39 135.5q0 198 173 198q29 0 57 -6t50 -17l-18 -58q-45 18 -81 18q-52 0 -76 -28.5t-26 -92.5q31 36 93 36q58 0 90.5 -30.5t32.5 -83.5q0 -55 -38 -86.5t-103 -31.5zM201 68q-44 0 -75 -30q3 -89 75 -89q66 0 66 60q0 28 -17.5 43.5
t-48.5 15.5z" />
    <glyph glyph-name="uni2087" unicode="&#x2087;" horiz-adv-x="339" 
d="M31 199v62h269v-56l-128 -305h-82l127 299h-186z" />
    <glyph glyph-name="uni2088" unicode="&#x2088;" horiz-adv-x="390" 
d="M195 -109q-72 0 -110 27.5t-38 78.5q0 34 19.5 57.5t53.5 32.5q-28 9 -45.5 31.5t-17.5 52.5q0 45 38.5 72.5t99.5 27.5q62 0 100 -27.5t38 -72.5q0 -30 -17.5 -52.5t-45.5 -31.5q34 -9 53 -32.5t19 -57.5q0 -51 -38 -78.5t-109 -27.5zM195 112q32 0 49 13.5t17 37.5
q0 25 -17.5 38.5t-48.5 13.5t-48.5 -13.5t-17.5 -38.5q0 -24 17.5 -37.5t48.5 -13.5zM195 -53q34 0 52.5 14.5t18.5 39.5q0 26 -18.5 40.5t-52.5 14.5t-52.5 -14.5t-18.5 -40.5q0 -25 18.5 -39.5t52.5 -14.5z" />
    <glyph glyph-name="uni2089" unicode="&#x2089;" horiz-adv-x="384" 
d="M184 271q75 0 114 -46.5t39 -135.5q0 -198 -173 -198q-28 0 -56 6.5t-50 16.5l17 58q45 -18 82 -18q51 0 75 28.5t26 92.5q-31 -36 -92 -36q-58 0 -90.5 30.5t-32.5 83.5q0 55 38 86.5t103 31.5zM118 153q0 -28 17.5 -43.5t48.5 -15.5q42 0 74 29q-3 90 -75 90
q-31 0 -48 -15.5t-17 -44.5z" />
    <glyph glyph-name="Euro" unicode="&#x20ac;" 
d="M32 224v63h70q-1 20 -1 41q0 26 2 51h-71v62h78q22 120 91.5 183.5t182.5 63.5q90 0 165 -36l-26 -74q-66 29 -129 29q-155 0 -190 -166h262l-19 -62h-251q-2 -25 -2 -52q0 -21 1 -40h234l-19 -63h-208q15 -82 61 -120t127 -38q38 0 74.5 7.5t64.5 21.5l24 -72
q-32 -17 -79 -27t-98 -10q-230 0 -267 238h-77z" />
    <glyph glyph-name="uni20BD" unicode="&#x20bd;" 
d="M111 0v121h-80v63h80v93h-80v73h80v324h224q219 0 219 -199q0 -198 -219 -198h-135v-93h197v-63h-197v-121h-89zM324 599h-124v-249h124q74 0 106 29.5t32 95.5q0 65 -33 94.5t-105 29.5z" />
    <glyph glyph-name="trademark" unicode="&#x2122;" horiz-adv-x="748" 
d="M340 360v314h75l86 -207l87 207h74v-314h-57v235l-78 -185h-51l-79 187v-237h-57zM134 360v260h-89v54h241v-54h-90v-260h-62z" />
    <glyph glyph-name="arrowleft" unicode="&#x2190;" horiz-adv-x="740" 
d="M266 104l-233 233l232 232l49 -50l-145 -143h538v-78h-539l147 -143z" />
    <glyph glyph-name="arrowup" unicode="&#x2191;" horiz-adv-x="740" 
d="M330 0v541l-142 -149l-51 49l233 233l232 -232l-50 -49l-143 149v-542h-79z" />
    <glyph glyph-name="arrowright" unicode="&#x2192;" horiz-adv-x="740" 
d="M474 104l-49 51l147 143h-539v78h538l-145 143l49 50l232 -232z" />
    <glyph glyph-name="arrowdown" unicode="&#x2193;" horiz-adv-x="740" 
d="M370 0l-233 233l51 49l142 -149v541h79v-542l143 149l50 -49z" />
    <glyph glyph-name="minus" unicode="&#x2212;" 
d="M72 295v77h436v-77h-436z" />
    <glyph glyph-name="uniFEFF" unicode="&#xfeff;" horiz-adv-x="0" 
 />
    <glyph glyph-name="zero.pnum" horiz-adv-x="615" 
d="M554 337q0 -172 -62.5 -261.5t-183.5 -89.5t-184 89.5t-63 261.5q0 173 63 262t184 89t183.5 -89t62.5 -262zM157 337q0 -139 36.5 -205.5t114.5 -66.5q77 0 113.5 66.5t36.5 205.5q0 140 -36.5 206t-113.5 66q-78 0 -114.5 -66t-36.5 -206z" />
    <glyph glyph-name="one.pnum" horiz-adv-x="404" 
d="M203 0v553h-170v69l138 4q24 1 33.5 8.5t11.5 27.5l5 35h73v-697h-91z" />
    <glyph glyph-name="two.pnum" horiz-adv-x="583" 
d="M61 0v72l212 197q69 64 96 110.5t27 97.5q0 63 -37.5 96.5t-107.5 33.5q-78 0 -158 -39l-29 68q91 52 194 52q111 0 171.5 -54t60.5 -152q0 -69 -35 -131t-118 -136l-151 -137h321v-78h-446z" />
    <glyph glyph-name="three.pnum" horiz-adv-x="549" 
d="M43 637q92 51 199 51t166.5 -48.5t59.5 -134.5q0 -60 -33 -101t-92 -55q68 -13 105.5 -57.5t37.5 -114.5q0 -91 -63.5 -141t-179.5 -50q-117 0 -213 55l28 70q40 -22 86.5 -34t93.5 -12q154 0 154 125q0 117 -147 117h-80v77h76q134 0 134 112t-141 112q-77 0 -163 -39z
" />
    <glyph glyph-name="four.pnum" horiz-adv-x="625" 
d="M388 0v152h-338v71l318 451h106v-446h103v-76h-103v-152h-86zM143 228h245v347z" />
    <glyph glyph-name="five.pnum" horiz-adv-x="587" 
d="M277 -14q-124 0 -213 56l29 71q83 -48 177 -48q82 0 121 32t39 98q0 65 -38 99.5t-109 34.5q-80 0 -140 -44l-61 34v355h405v-79h-324v-242q52 51 150 51q99 0 155 -55.5t56 -154.5q0 -102 -62.5 -155t-184.5 -53z" />
    <glyph glyph-name="six.pnum" horiz-adv-x="602" 
d="M316 -14q-252 0 -252 334q0 181 71.5 274.5t208.5 93.5q98 0 172 -41l-25 -72q-35 18 -69 26t-70 8q-100 0 -146.5 -69.5t-46.5 -218.5v-3q28 40 75 63t103 23q95 0 151 -54t56 -148q0 -100 -61.5 -158t-166.5 -58zM317 331q-90 0 -157 -73q12 -197 154 -197
q65 0 101 36.5t36 101.5q0 64 -34.5 98t-99.5 34z" />
    <glyph glyph-name="seven.pnum" horiz-adv-x="532" 
d="M29 595v79h457v-72l-262 -602h-101l261 595h-355z" />
    <glyph glyph-name="eight.pnum" horiz-adv-x="604" 
d="M302 -14q-116 0 -179 49.5t-63 140.5q0 68 36 112.5t101 57.5q-55 13 -86.5 54.5t-31.5 103.5q0 85 60 134.5t163 49.5t163 -49.5t60 -134.5q0 -62 -31.5 -103.5t-87.5 -54.5q65 -12 101.5 -57t36.5 -113q0 -91 -63 -140.5t-179 -49.5zM302 381q131 0 131 115
q0 58 -33.5 87.5t-97.5 29.5t-97.5 -29.5t-33.5 -87.5q0 -115 131 -115zM302 61q71 0 109 31.5t38 91.5q0 123 -147 123t-147 -123q0 -60 38 -91.5t109 -31.5z" />
    <glyph glyph-name="nine.pnum" horiz-adv-x="602" 
d="M286 688q252 0 252 -333q0 -181 -71.5 -275t-208.5 -94q-98 0 -172 41l25 72q36 -18 69.5 -26t69.5 -8q100 0 146.5 70t46.5 218v3q-28 -40 -75 -63t-103 -23q-95 0 -151 54.5t-56 147.5q0 100 61.5 158t166.5 58zM151 475q0 -63 35 -97.5t99 -34.5q44 0 84.5 19.5
t72.5 54.5q-12 196 -154 196q-64 0 -100.5 -36.5t-36.5 -101.5z" />
    <glyph glyph-name="zero.dnom" horiz-adv-x="397" 
d="M349 181q0 -190 -151 -190q-74 0 -112.5 48.5t-38.5 141.5q0 190 152 190q74 0 112 -48.5t38 -141.5zM127 181q0 -67 17 -97t54 -30q38 0 55 30t17 97t-17 97t-54 30t-54.5 -30t-17.5 -97z" />
    <glyph glyph-name="one.dnom" horiz-adv-x="275" 
d="M127 0v263h-92v60l72 2q17 1 22.5 7t7.5 19l4 19h61v-370h-75z" />
    <glyph glyph-name="two.dnom" horiz-adv-x="359" 
d="M45 0v54l122 97q34 28 47 48.5t13 45.5q0 62 -71 62q-45 0 -85 -25l-25 55q46 34 119 34q65 0 101 -32t36 -90q0 -40 -20 -72t-68 -69l-60 -46h160v-62h-269z" />
    <glyph glyph-name="three.dnom" horiz-adv-x="361" 
d="M164 -9q-78 0 -131 32l20 58q51 -26 107 -26q74 0 74 51q0 47 -70 47h-52v59h55q61 0 61 48q0 47 -68 47q-25 0 -49.5 -6.5t-45.5 -17.5l-22 56q26 16 58.5 24t66.5 8q62 0 98 -26.5t36 -72.5q0 -32 -18 -55t-49 -30q35 -8 55 -32t20 -58q0 -49 -39 -77.5t-107 -28.5z
" />
    <glyph glyph-name="four.dnom" horiz-adv-x="395" 
d="M227 0v79h-188v55l171 227h87v-225h57v-57h-57v-79h-70zM114 136h116v159z" />
    <glyph glyph-name="five.dnom" horiz-adv-x="366" 
d="M177 -9q-77 0 -131 32l20 58q28 -13 54.5 -19t54.5 -6q72 0 72 55q0 56 -68 56q-40 0 -74 -20l-42 25v189h240v-62h-173v-91q27 17 69 17q57 0 90.5 -31.5t33.5 -84.5q0 -57 -37.5 -87.5t-108.5 -30.5z" />
    <glyph glyph-name="six.dnom" horiz-adv-x="384" 
d="M201 -9q-76 0 -115 46.5t-39 135.5q0 198 173 198q29 0 57 -6t50 -17l-18 -58q-45 18 -81 18q-52 0 -76 -28.5t-26 -92.5q31 36 93 36q58 0 90.5 -30.5t32.5 -83.5q0 -55 -38 -86.5t-103 -31.5zM201 168q-44 0 -75 -30q3 -89 75 -89q66 0 66 60q0 28 -17.5 43.5
t-48.5 15.5z" />
    <glyph glyph-name="seven.dnom" horiz-adv-x="339" 
d="M31 299v62h269v-56l-128 -305h-82l127 299h-186z" />
    <glyph glyph-name="eight.dnom" horiz-adv-x="390" 
d="M195 -9q-72 0 -110 27.5t-38 78.5q0 34 19.5 57.5t53.5 32.5q-28 9 -45.5 31.5t-17.5 52.5q0 45 38.5 72.5t99.5 27.5q62 0 100 -27.5t38 -72.5q0 -30 -17.5 -52.5t-45.5 -31.5q34 -9 53 -32.5t19 -57.5q0 -51 -38 -78.5t-109 -27.5zM195 212q32 0 49 13.5t17 37.5
q0 25 -17.5 38.5t-48.5 13.5t-48.5 -13.5t-17.5 -38.5q0 -24 17.5 -37.5t48.5 -13.5zM195 47q34 0 52.5 14.5t18.5 39.5q0 26 -18.5 40.5t-52.5 14.5t-52.5 -14.5t-18.5 -40.5q0 -25 18.5 -39.5t52.5 -14.5z" />
    <glyph glyph-name="nine.dnom" horiz-adv-x="384" 
d="M184 371q75 0 114 -46.5t39 -135.5q0 -198 -173 -198q-28 0 -56 6.5t-50 16.5l17 58q45 -18 82 -18q51 0 75 28.5t26 92.5q-31 -36 -92 -36q-58 0 -90.5 30.5t-32.5 83.5q0 55 38 86.5t103 31.5zM118 253q0 -28 17.5 -43.5t48.5 -15.5q42 0 74 29q-3 90 -75 90
q-31 0 -48 -15.5t-17 -44.5z" />
    <glyph glyph-name="zero.numr" horiz-adv-x="397" 
d="M349 494q0 -190 -151 -190q-74 0 -112.5 48.5t-38.5 141.5q0 190 152 190q74 0 112 -48.5t38 -141.5zM127 494q0 -67 17 -97t54 -30q38 0 55 30t17 97t-17 97t-54 30t-54.5 -30t-17.5 -97z" />
    <glyph glyph-name="one.numr" horiz-adv-x="275" 
d="M127 313v263h-92v60l72 2q17 1 22.5 7t7.5 19l4 19h61v-370h-75z" />
    <glyph glyph-name="two.numr" horiz-adv-x="359" 
d="M45 313v54l122 97q34 28 47 48.5t13 45.5q0 62 -71 62q-45 0 -85 -25l-25 55q46 34 119 34q65 0 101 -32t36 -90q0 -40 -20 -72t-68 -69l-60 -46h160v-62h-269z" />
    <glyph glyph-name="three.numr" horiz-adv-x="361" 
d="M164 304q-78 0 -131 32l20 58q51 -26 107 -26q74 0 74 51q0 47 -70 47h-52v59h55q61 0 61 48q0 47 -68 47q-25 0 -49.5 -6.5t-45.5 -17.5l-22 56q26 16 58.5 24t66.5 8q62 0 98 -26.5t36 -72.5q0 -32 -18 -55t-49 -30q35 -8 55 -32t20 -58q0 -49 -39 -77.5t-107 -28.5z
" />
    <glyph glyph-name="four.numr" horiz-adv-x="395" 
d="M227 313v79h-188v55l171 227h87v-225h57v-57h-57v-79h-70zM114 449h116v159z" />
    <glyph glyph-name="five.numr" horiz-adv-x="366" 
d="M177 304q-77 0 -131 32l20 58q28 -13 54.5 -19t54.5 -6q72 0 72 55q0 56 -68 56q-40 0 -74 -20l-42 25v189h240v-62h-173v-91q27 17 69 17q57 0 90.5 -31.5t33.5 -84.5q0 -57 -37.5 -87.5t-108.5 -30.5z" />
    <glyph glyph-name="six.numr" horiz-adv-x="384" 
d="M201 304q-76 0 -115 46.5t-39 135.5q0 198 173 198q29 0 57 -6t50 -17l-18 -58q-45 18 -81 18q-52 0 -76 -28.5t-26 -92.5q31 36 93 36q58 0 90.5 -30.5t32.5 -83.5q0 -55 -38 -86.5t-103 -31.5zM201 481q-44 0 -75 -30q3 -89 75 -89q66 0 66 60q0 28 -17.5 43.5
t-48.5 15.5z" />
    <glyph glyph-name="seven.numr" horiz-adv-x="339" 
d="M31 612v62h269v-56l-128 -305h-82l127 299h-186z" />
    <glyph glyph-name="eight.numr" horiz-adv-x="390" 
d="M195 304q-72 0 -110 27.5t-38 78.5q0 34 19.5 57.5t53.5 32.5q-28 9 -45.5 31.5t-17.5 52.5q0 45 38.5 72.5t99.5 27.5q62 0 100 -27.5t38 -72.5q0 -30 -17.5 -52.5t-45.5 -31.5q34 -9 53 -32.5t19 -57.5q0 -51 -38 -78.5t-109 -27.5zM195 525q32 0 49 13.5t17 37.5
q0 25 -17.5 38.5t-48.5 13.5t-48.5 -13.5t-17.5 -38.5q0 -24 17.5 -37.5t48.5 -13.5zM195 360q34 0 52.5 14.5t18.5 39.5q0 26 -18.5 40.5t-52.5 14.5t-52.5 -14.5t-18.5 -40.5q0 -25 18.5 -39.5t52.5 -14.5z" />
    <glyph glyph-name="nine.numr" horiz-adv-x="384" 
d="M184 684q75 0 114 -46.5t39 -135.5q0 -198 -173 -198q-28 0 -56 6.5t-50 16.5l17 58q45 -18 82 -18q51 0 75 28.5t26 92.5q-31 -36 -92 -36q-58 0 -90.5 30.5t-32.5 83.5q0 55 38 86.5t103 31.5zM118 566q0 -28 17.5 -43.5t48.5 -15.5q42 0 74 29q-3 90 -75 90
q-31 0 -48 -15.5t-17 -44.5z" />
    <glyph glyph-name="hyphen.case" horiz-adv-x="402" 
d="M59 300v83h284v-83h-284z" />
    <glyph glyph-name="uni2010.case" horiz-adv-x="402" 
d="M59 300v83h284v-83h-284z" />
    <glyph glyph-name="uni2011.case" horiz-adv-x="402" 
d="M59 300v83h284v-83h-284z" />
    <glyph glyph-name="uni00AD.case" horiz-adv-x="402" 
d="M59 300v83h284v-83h-284z" />
    <glyph glyph-name="endash.case" horiz-adv-x="450" 
d="M0 302v80h450v-80h-450z" />
    <glyph glyph-name="emdash.case" horiz-adv-x="900" 
d="M0 302v80h900v-80h-900z" />
    <glyph glyph-name="parenleft.case" horiz-adv-x="367" 
d="M234 -117q-139 193 -139 452t139 452h91q-137 -202 -137 -452t137 -452h-91z" />
    <glyph glyph-name="parenright.case" horiz-adv-x="367" 
d="M133 -117h-91q137 202 137 452t-137 452h91q139 -193 139 -452t-139 -452z" />
    <glyph glyph-name="slash.case" horiz-adv-x="425" 
d="M18 -117l295 904h94l-295 -904h-94z" />
    <glyph glyph-name="backslash.case" horiz-adv-x="425" 
d="M407 -117h-94l-295 904h94z" />
    <glyph glyph-name="bracketleft.case" horiz-adv-x="390" 
d="M105 -117v904h252v-71h-163v-762h163v-71h-252z" />
    <glyph glyph-name="bracketright.case" horiz-adv-x="390" 
d="M285 -117h-252v71h163v762h-163v71h252v-904z" />
    <glyph glyph-name="braceleft.case" horiz-adv-x="430" 
d="M292 -128q-79 0 -120 32t-41 97q0 27 9 56.5t34 77.5q21 41 28.5 61t7.5 38q0 30 -18.5 48t-59.5 18h-78v72h78q41 0 59.5 18t18.5 48q0 18 -7.5 38.5t-28.5 60.5q-25 48 -34 77.5t-9 56.5q0 65 41 97t120 32q27 0 54 -3t51 -10v-71q-23 5 -44 7t-38 2q-46 0 -68.5 -16
t-22.5 -51q0 -22 9 -46.5t30 -65.5q21 -40 29 -63.5t8 -46.5q0 -40 -23.5 -67t-64.5 -33q41 -6 64.5 -33t23.5 -67q0 -22 -8 -45.5t-29 -64.5q-21 -40 -30 -65t-9 -46q0 -36 22.5 -52t68.5 -16q17 0 38 2t44 7v-71q-23 -7 -50.5 -10t-54.5 -3z" />
    <glyph glyph-name="braceright.case" horiz-adv-x="430" 
d="M138 -128q-27 0 -54.5 3t-50.5 10v71q23 -5 44 -7t38 -2q47 0 69.5 16t22.5 52q0 21 -9 46t-30 65q-22 41 -30 64.5t-8 45.5q0 40 23.5 67t64.5 33q-41 6 -64.5 33t-23.5 67q0 23 8 46.5t30 63.5q21 41 30 65.5t9 46.5q0 35 -22.5 51t-69.5 16q-17 0 -38 -2t-44 -7v71
q24 7 51 10t54 3q162 0 162 -129q0 -27 -9 -56.5t-34 -77.5q-22 -40 -29.5 -60.5t-7.5 -38.5q0 -30 19 -48t59 -18h78v-72h-78q-40 0 -59 -18t-19 -48q0 -18 7.5 -38t29.5 -61q25 -48 34 -77.5t9 -56.5q0 -129 -162 -129z" />
    <glyph glyph-name="bullet.case" horiz-adv-x="538" 
d="M130 191v288h278v-288h-278z" />
    <glyph glyph-name="guilsinglleft.case" horiz-adv-x="413" 
d="M244 107l-192 213l192 213h114l-191 -212l192 -214h-115z" />
    <glyph glyph-name="guilsinglright.case" horiz-adv-x="413" 
d="M170 107h-115l191 213l-191 213h115l191 -213z" />
    <glyph glyph-name="guillemotleft.case" horiz-adv-x="673" 
d="M244 107l-192 213l192 213h114l-191 -212l192 -214h-115zM504 107l-192 213l192 213h114l-191 -212l192 -214h-115z" />
    <glyph glyph-name="guillemotright.case" horiz-adv-x="673" 
d="M170 107h-115l191 213l-191 213h115l191 -213zM430 107h-115l191 213l-191 213h115l191 -213z" />
    <glyph glyph-name="at.case" horiz-adv-x="953" 
d="M482 -111q-202 0 -310 108.5t-108 312.5q0 139 49.5 236.5t144 149.5t227.5 52q194 0 299 -100.5t105 -284.5q0 -123 -51 -190.5t-145 -67.5q-100 0 -125 71q-48 -71 -136 -71q-64 0 -99.5 33t-35.5 91q0 131 174 131h88v22q0 54 -20 75t-71 21q-59 0 -124 -27l-16 60
q36 15 74.5 23.5t75.5 8.5q81 0 118.5 -36.5t37.5 -114.5v-147q0 -77 68 -77q53 0 82 50.5t29 144.5q0 154 -84 235t-243 81q-166 0 -256 -96.5t-90 -272.5q0 -174 87.5 -263t258.5 -89q62 0 122 13t113 37l24 -62q-53 -27 -121 -42t-142 -15zM451 166q67 0 108 56v87h-79
q-104 0 -104 -77q0 -66 75 -66z" />
    <glyph glyph-name="periodcentered.case" horiz-adv-x="245" 
d="M69 282v116h107v-116h-107z" />
    <glyph glyph-name="questiondown.case" horiz-adv-x="474" 
d="M211 558v116h107v-116h-107zM251 -14q-105 0 -159 44.5t-54 129.5q0 54 22 92.5t80 81.5q34 26 51.5 45t24.5 39.5t7 48.5h82q0 -43 -9 -74.5t-30 -58t-59 -54.5q-44 -34 -60.5 -59t-16.5 -59q0 -97 128 -97q80 0 159 38l25 -74q-83 -43 -191 -43z" />
    <glyph glyph-name="exclamdown.case" horiz-adv-x="256" 
d="M75 558v116h106v-116h-106zM79 0l10 467h78l9 -467h-97z" />
    <glyph glyph-name="periodcentered.loclCAT" horiz-adv-x="76" 
d="M-36 321v103h98v-103h-98z" />
    <glyph glyph-name="periodcentered.loclCAT.cap" horiz-adv-x="0" 
d="M-167 310v103h98v-103h-98z" />
    <glyph glyph-name="uni0327.cap" horiz-adv-x="0" 
d="M-16 -257q-24 0 -47 3.5t-46 10.5v60q45 -11 85 -11q36 0 52 10.5t16 31.5q0 24 -20.5 36t-77.5 13l20 114l57 -1l-12 -63q54 -7 82.5 -31t28.5 -70q0 -103 -138 -103z" />
    <glyph glyph-name="uni0326.cap" horiz-adv-x="0" 
d="M-70 -258l24 175h86l-41 -175h-69z" />
    <glyph glyph-name="commabelow" horiz-adv-x="128" 
d="M4 -258l24 175h86l-41 -175h-69z" />
    <glyph glyph-name="uni0328.cap" horiz-adv-x="0" 
d="M-49 -216q-55 0 -88 25.5t-33 72.5q0 46 25 78.5t69 54.5l76 -15q-45 -23 -69 -47t-24 -53q0 -27 16.5 -38t48.5 -11q24 0 43 6v-63q-13 -4 -28 -7t-36 -3z" />
    <glyph glyph-name="uni0328.round" horiz-adv-x="0" 
d="M-56 -216q-55 0 -86.5 26.5t-31.5 73.5q0 46 36.5 90.5t124.5 77.5l14 -18q-46 -28 -72 -61.5t-26 -68.5q0 -53 63 -53q22 0 43 6v-63q-13 -4 -28.5 -7t-36.5 -3z" />
    <glyph glyph-name="acutecomb.cap" horiz-adv-x="0" 
d="M-80 749l131 156h113l-150 -156h-94z" />
    <glyph glyph-name="IJacute" horiz-adv-x="732" 
d="M93 0v674h93v-674h-93zM452 -14q-74 0 -133 31l26 75q51 -24 99 -24q59 0 84 33t25 112v383h-183v78h276v-470q0 -112 -47 -165t-147 -53zM59 749l131 156h113l-150 -156h-94zM464 749l131 156h113l-150 -156h-94z" />
    <glyph glyph-name="ijacute" horiz-adv-x="555" 
d="M106 0v440h-77v69h166v-509h-89zM346 -202q-18 0 -32.5 2t-27.5 6v69q11 -3 21 -4t20 -1q32 0 44 16.5t12 54.5v499h-77v69h166v-562q0 -78 -30.5 -113.5t-95.5 -35.5zM70 605l123 176h102l-138 -176h-87zM349 605l123 176h102l-138 -176h-87z" />
    <glyph glyph-name="gravecomb.cap" horiz-adv-x="0" 
d="M-23 749l-150 156h112l132 -156h-94z" />
    <glyph glyph-name="uni0302.cap" horiz-adv-x="0" 
d="M-173 749l123 156h100l122 -156h-92l-80 106l-81 -106h-92z" />
    <glyph glyph-name="tildecomb.cap" horiz-adv-x="0" 
d="M-179 749q0 90 24.5 126t73.5 36q32 0 53.5 -13.5t46.5 -39.5l13 -15q17 -18 27 -25.5t23 -7.5q19 0 27 19t8 75h68q0 -91 -24.5 -126.5t-73.5 -35.5q-32 0 -53.5 13t-46.5 40l-13 15q-16 18 -26 25.5t-24 7.5q-19 0 -27 -19t-8 -75h-68z" />
    <glyph glyph-name="uni030C.cap" horiz-adv-x="0" 
d="M-50 749l-122 156h92l80 -106l81 106h91l-122 -156h-100z" />
    <glyph glyph-name="uni0308.cap" horiz-adv-x="0" 
d="M-146 762v99h96v-99h-96zM50 762v99h95v-99h-95z" />
    <glyph glyph-name="uni0306.cap" horiz-adv-x="0" 
d="M0 742q-81 0 -120.5 43.5t-39.5 119.5h77q0 -48 20 -74t63 -26q44 0 64 26.5t20 73.5h77q0 -76 -40 -119.5t-121 -43.5z" />
    <glyph glyph-name="uni030A.cap" horiz-adv-x="0" 
d="M0 732q-49 0 -80.5 31t-31.5 81q0 51 31.5 81.5t80.5 30.5q50 0 81 -31t31 -81t-31 -81t-81 -31zM0 784q26 0 41 16t15 44q0 27 -15 43.5t-41 16.5q-25 0 -40.5 -16t-15.5 -44q0 -27 15.5 -43.5t40.5 -16.5z" />
    <glyph glyph-name="uni0307.cap" horiz-adv-x="0" 
d="M-50 762v99h100v-99h-100z" />
    <glyph glyph-name="cent.BRACKET.160" 
d="M295 -56v87q-103 9 -155.5 72t-52.5 188t53.5 192t154.5 77v86h56v-84q69 -4 132 -32l-22 -73q-55 26 -110 28v-378q30 1 58 8.5t55 20.5l20 -71q-58 -30 -133 -34v-87h-56zM180 292q0 -87 28 -129t87 -52v370q-59 -12 -87 -57t-28 -132z" />
    <glyph glyph-name="dollar.BRACKET.160" 
d="M267 -66v93q-60 2 -115 14t-96 32l21 73q87 -41 190 -44v194l-29 6q-90 17 -128.5 53.5t-38.5 103.5q0 76 50 119.5t145 49.5v98h56v-97q94 -4 173 -36l-22 -71q-74 29 -151 32v-189l19 -4q67 -13 106 -33.5t56 -52t17 -79.5q0 -154 -197 -168v-94h-56zM152 461
q0 -37 24.5 -55t89.5 -31v178q-114 -10 -114 -92zM437 195q0 41 -24.5 60t-89.5 31v-182q114 10 114 91z" />
    <glyph glyph-name="g.salt" horiz-adv-x="533" 
d="M259 186q-35 0 -65 7q-56 -20 -56 -59q0 -22 15.5 -31t51.5 -9h113q95 0 139.5 -33t44.5 -103q0 -79 -59.5 -116.5t-186.5 -37.5q-118 0 -173.5 30t-55.5 93q0 77 87 102q-56 23 -56 80q0 70 91 101q-40 20 -62 57t-22 87q0 78 52 123t143 45q78 0 129 -35q45 28 106 28
h14v-73h-14h-34t-29 -1q22 -37 22 -86q0 -78 -52 -123.5t-143 -45.5zM259 250q51 0 79 27.5t28 76.5q0 51 -27.5 78t-78.5 27t-79.5 -27.5t-28.5 -77.5t28 -77t79 -27zM114 -53q0 -41 33 -58.5t112 -17.5q81 0 116.5 18.5t35.5 60.5q0 35 -22 51t-71 16h-132q-13 0 -25 1
q-47 -22 -47 -71z" />
    </font>
</defs>
</svg>
