<?xml version="1.0" standalone="no"?>
<!DOCTYPE svg PUBLIC "-//W3C//DTD SVG 1.1//EN" "http://www.w3.org/Graphics/SVG/1.1/DTD/svg11.dtd" >
<svg xmlns="http://www.w3.org/2000/svg" xmlns:xlink="http://www.w3.org/1999/xlink" version="1.1">
<metadata>
Created by FontForge 20170731 at Tue Mar 10 13:57:51 2020
 By Aleksey,,,
(c) 2020 Goldman Sachs. All rights reserved.
</metadata>
<defs>
<font id="GoldmanSans-Medium" horiz-adv-x="580" >
  <font-face 
    font-family="Goldman Sans Medium"
    font-weight="500"
    font-stretch="normal"
    units-per-em="1000"
    panose-1="2 11 7 3 2 2 3 2 2 4"
    ascent="712"
    descent="-288"
    x-height="512"
    cap-height="674"
    bbox="-197 -266 1215 978"
    underline-thickness="77"
    underline-position="-192"
    unicode-range="U+000D-FEFF"
  />
<missing-glyph horiz-adv-x="500" 
d="M50 0v674h400v-674h-400zM144 85h212v504h-212v-504z" />
    <glyph glyph-name="f_f" unicode="ff" horiz-adv-x="723" 
d="M106 0v421h-90v91h90v31q0 181 184 181q23 0 38.5 -1.5t35.5 -6.5v-89q-31 4 -49 4q-56 0 -74.5 -18t-18.5 -73v-28h214v31q0 181 186 181q25 0 45.5 -1.5t40.5 -6.5v-90q-19 3 -32.5 4t-31.5 1q-55 0 -73.5 -18t-18.5 -73v-28h156v-91h-154v-421h-118v421h-212v-421
h-118z" />
    <glyph glyph-name="f_i" unicode="fi" horiz-adv-x="673" 
d="M472 609v122h126v-122h-126zM106 0v421h-90v91h90v31q0 181 184 181q23 0 38.5 -1.5t35.5 -6.5v-89q-31 4 -49 4q-56 0 -74.5 -18t-18.5 -73v-28h142v-91h-140v-421h-118zM481 0v421h-74v91h192v-512h-118z" />
    <glyph glyph-name="f_j" unicode="fj" horiz-adv-x="673" 
d="M472 609v122h126v-122h-126zM106 0v421h-90v91h90v31q0 181 184 181q23 0 38.5 -1.5t35.5 -6.5v-89q-31 4 -49 4q-56 0 -74.5 -18t-18.5 -73v-28h142v-91h-140v-421h-118zM453 -202q-18 0 -33 2t-30 6v89q11 -2 21 -3t18 -1q29 0 40.5 13.5t11.5 48.5v468h-74v91h192
v-544q0 -92 -35 -131t-111 -39z" />
    <glyph glyph-name="f_f_i" unicode="ffi" horiz-adv-x="1003" 
d="M802 609v122h126v-122h-126zM106 0v421h-90v91h90v31q0 181 184 181q23 0 38.5 -1.5t35.5 -6.5v-89q-31 4 -49 4q-56 0 -74.5 -18t-18.5 -73v-28h214v31q0 181 184 181q23 0 38.5 -1.5t35.5 -6.5v-89q-31 4 -49 4q-56 0 -74.5 -18t-18.5 -73v-28h142v-91h-140v-421h-118
v421h-212v-421h-118zM811 0v421h-74v91h192v-512h-118z" />
    <glyph glyph-name="f_f_j" unicode="ffj" horiz-adv-x="1003" 
d="M802 609v122h126v-122h-126zM106 0v421h-90v91h90v31q0 181 184 181q23 0 38.5 -1.5t35.5 -6.5v-89q-31 4 -49 4q-56 0 -74.5 -18t-18.5 -73v-28h214v31q0 181 184 181q23 0 38.5 -1.5t35.5 -6.5v-89q-31 4 -49 4q-56 0 -74.5 -18t-18.5 -73v-28h142v-91h-140v-421h-118
v421h-212v-421h-118zM783 -202q-18 0 -33 2t-30 6v89q11 -2 21 -3t18 -1q29 0 40.5 13.5t11.5 48.5v468h-74v91h192v-544q0 -92 -35 -131t-111 -39z" />
    <glyph glyph-name=".notdef" horiz-adv-x="500" 
d="M50 0v674h400v-674h-400zM144 85h212v504h-212v-504z" />
    <glyph glyph-name="uni0000" horiz-adv-x="0" 
 />
    <glyph glyph-name="uni0000" horiz-adv-x="0" 
 />
    <glyph glyph-name="uni000D" unicode="&#xd;" horiz-adv-x="229" 
 />
    <glyph glyph-name="space" unicode=" " horiz-adv-x="229" 
 />
    <glyph glyph-name="exclam" unicode="!" horiz-adv-x="281" 
d="M89 221l-13 453h129l-13 -453h-103zM71 0v140h139v-140h-139z" />
    <glyph glyph-name="quotedbl" unicode="&#x22;" horiz-adv-x="429" 
d="M64 399l-14 313h129l-14 -313h-101zM264 399l-14 313h129l-14 -313h-101z" />
    <glyph glyph-name="numbersign" unicode="#" 
d="M83 0l26 166h-84v81h97l28 180h-105v81h118l26 166h90l-26 -166h129l26 166h90l-26 -166h83v-81h-96l-28 -180h104v-81h-117l-26 -166h-90l26 166h-129l-26 -166h-90zM212 247h129l28 180h-129z" />
    <glyph glyph-name="dollar" unicode="$" 
d="M261 -67v94q-122 4 -213 46l26 95q91 -39 187 -42v158l-34 6q-89 16 -127.5 55t-38.5 114t51 118t148 51v98h68v-98q93 -4 172 -34l-27 -93q-68 25 -145 28v-157l24 -5q66 -12 104.5 -32.5t55 -53.5t16.5 -84q0 -74 -51 -117t-148 -51v-96h-68zM167 454q0 -27 20 -42.5
t73 -26.5v143q-49 -5 -71 -22.5t-22 -51.5zM420 202q0 29 -19.5 44t-71.5 25v-142q91 10 91 73z" />
    <glyph glyph-name="percent" unicode="%" horiz-adv-x="881" 
d="M180 0l399 674h123l-399 -674h-123zM838 182q0 -191 -159 -191t-159 192q0 191 159 191t159 -192zM624 182q0 -60 12.5 -85.5t42.5 -25.5t42.5 25.5t12.5 86.5q0 60 -12.5 85.5t-42.5 25.5t-42.5 -25.5t-12.5 -86.5zM361 492q0 -191 -159 -191t-159 192q0 191 159 191
t159 -192zM147 492q0 -60 12.5 -85.5t42.5 -25.5t42.5 25.5t12.5 86.5q0 60 -12.5 85.5t-42.5 25.5t-42.5 -25.5t-12.5 -86.5z" />
    <glyph glyph-name="ampersand" unicode="&#x26;" horiz-adv-x="701" 
d="M286 -14q-116 0 -179.5 51t-63.5 145q0 60 27.5 107.5t86.5 87.5q-20 30 -28 59t-8 62q0 89 64 139.5t177 50.5q44 0 90 -8.5t79 -22.5l-28 -95q-41 13 -71 18.5t-59 5.5q-65 0 -100 -25t-35 -72q0 -23 11 -46t40 -54.5t84 -83.5l108 -101q26 66 28 170h-98v88h203v-84
q0 -152 -54 -248l140 -130h-160l-50 47q-80 -61 -204 -61zM166 201q0 -116 137 -116q68 0 113 31l-157 148q-26 24 -45 44q-48 -39 -48 -107z" />
    <glyph glyph-name="quotesingle" unicode="'" horiz-adv-x="229" 
d="M64 399l-14 313h129l-14 -313h-101z" />
    <glyph glyph-name="parenleft" unicode="(" horiz-adv-x="379" 
d="M227 -162q-140 192 -140 452t140 452h119q-135 -199 -135 -452q0 -252 135 -452h-119z" />
    <glyph glyph-name="parenright" unicode=")" horiz-adv-x="379" 
d="M152 -162h-119q135 200 135 452q0 253 -135 452h119q140 -192 140 -452t-140 -452z" />
    <glyph glyph-name="asterisk" unicode="*" horiz-adv-x="508" 
d="M165 294l-77 56l105 126l-153 42l29 90l147 -60l-10 162h96l-10 -162l147 60l29 -90l-153 -42l105 -126l-77 -56l-89 138z" />
    <glyph glyph-name="plus" unicode="+" 
d="M240 104v180h-169v99h169v180h100v-180h169v-99h-169v-180h-100z" />
    <glyph glyph-name="comma" unicode="," horiz-adv-x="275" 
d="M45 -150l27 290h137l-68 -290h-96z" />
    <glyph glyph-name="hyphen" unicode="-" horiz-adv-x="403" 
d="M53 226v110h297v-110h-297z" />
    <glyph glyph-name="period" unicode="." horiz-adv-x="275" 
d="M68 0v140h139v-140h-139z" />
    <glyph glyph-name="slash" unicode="/" horiz-adv-x="449" 
d="M15 -162l295 904h124l-295 -904h-124z" />
    <glyph glyph-name="zero" unicode="0" 
d="M539 337q0 -170 -64 -260.5t-185 -90.5t-185 90.5t-64 260.5t64 260.5t185 90.5t185 -90.5t64 -260.5zM168 337q0 -134 28.5 -192t93.5 -58t93.5 58t28.5 192t-28.5 192t-93.5 58t-93.5 -58t-28.5 -192z" />
    <glyph glyph-name="one" unicode="1" 
d="M85 0v105h159v424h-156v91l133 5q34 1 40 35l5 34h99v-589h149v-105h-429z" />
    <glyph glyph-name="two" unicode="2" 
d="M59 0v94l215 199q56 52 79 92.5t23 83.5q0 55 -33 84t-95 29q-69 0 -152 -37l-38 90q97 53 201 53q116 0 179.5 -55t63.5 -156q0 -68 -33 -127.5t-110 -128.5l-133 -118h294v-103h-461z" />
    <glyph glyph-name="three" unicode="3" 
d="M56 636q45 23 95 37.5t111 14.5q114 0 175.5 -50.5t61.5 -136.5q0 -63 -33.5 -101t-89.5 -51q70 -13 104.5 -59t34.5 -111q0 -92 -65.5 -142.5t-186.5 -50.5q-65 0 -119.5 15.5t-99.5 40.5l36 92q83 -44 176 -44q65 0 100 26t35 83q0 41 -25 68t-98 27h-86v102h80
q65 0 89 24t24 66q0 54 -33.5 75.5t-90.5 21.5q-42 0 -83 -10t-76 -26z" />
    <glyph glyph-name="four" unicode="4" 
d="M347 0v137h-324v100l303 437h133v-433h93v-104h-93v-137h-112zM140 241h207v301z" />
    <glyph glyph-name="five" unicode="5" 
d="M271 -14q-124 0 -216 55l36 93q84 -44 170 -44q72 0 106 27t34 83t-33 85.5t-94 29.5q-70 0 -124 -39l-79 43v355h416v-105h-309v-205q46 49 140 49q97 0 152 -56.5t55 -156.5q0 -105 -64.5 -159.5t-189.5 -54.5z" />
    <glyph glyph-name="six" unicode="6" 
d="M299 -14q-257 0 -257 334q0 368 288 368q102 0 179 -40l-36 -93q-68 29 -130 29q-91 0 -132 -58t-43 -189q51 71 160 71q95 0 150.5 -54.5t55.5 -147.5q0 -102 -62.5 -161t-172.5 -59zM296 314q-77 0 -127 -53q3 -91 34.5 -134.5t93.5 -43.5q54 0 83.5 30.5t29.5 87.5
q0 113 -114 113z" />
    <glyph glyph-name="seven" unicode="7" 
d="M55 569v105h469v-93l-252 -581h-136l251 569h-332z" />
    <glyph glyph-name="eight" unicode="8" 
d="M290 -14q-120 0 -183.5 49t-63.5 142q0 66 35 110t97 58q-54 14 -84.5 55t-30.5 101q0 86 62 136.5t168 50.5t168 -50.5t62 -136.5q0 -60 -30.5 -101t-84.5 -55q62 -14 97 -58t35 -110q0 -93 -63.5 -142t-183.5 -49zM290 391q107 0 107 100t-107 100t-107 -100t107 -100z
M290 83q121 0 121 105q0 106 -121 106t-121 -106q0 -105 121 -105z" />
    <glyph glyph-name="nine" unicode="9" 
d="M280 688q257 0 257 -334q0 -368 -288 -368q-102 0 -179 40l36 93q68 -29 130 -29q91 0 132 58t43 189q-51 -71 -160 -71q-95 0 -150.5 54.5t-55.5 147.5q0 102 63 161t172 59zM169 473q0 -113 114 -113q77 0 127 53q-3 91 -34.5 134.5t-93.5 43.5q-54 0 -83.5 -30.5
t-29.5 -87.5z" />
    <glyph glyph-name="colon" unicode=":" horiz-adv-x="275" 
d="M68 0v140h139v-140h-139zM68 372v140h139v-140h-139z" />
    <glyph glyph-name="semicolon" unicode=";" horiz-adv-x="275" 
d="M45 -150l27 290h137l-68 -290h-96zM68 372v140h139v-140h-139z" />
    <glyph glyph-name="less" unicode="&#x3c;" 
d="M509 582v-111l-320 -136l320 -134v-113l-438 186v121z" />
    <glyph glyph-name="equal" unicode="=" 
d="M71 405v102h438v-102h-438zM71 161v102h438v-102h-438z" />
    <glyph glyph-name="greater" unicode="&#x3e;" 
d="M71 88v111l320 136l-320 134v113l438 -186v-121z" />
    <glyph glyph-name="question" unicode="?" horiz-adv-x="474" 
d="M157 221q0 44 9 76t29.5 57.5t56.5 51.5q40 29 55 50.5t15 49.5q0 78 -111 78q-74 0 -151 -35l-32 98q44 21 90 31t103 10q223 0 223 -179q0 -55 -22 -93t-80 -80q-31 -22 -47.5 -39t-22.5 -34t-6 -42h-109zM141 0v140h139v-140h-139z" />
    <glyph glyph-name="at" unicode="@" horiz-adv-x="953" 
d="M480 -225q-205 0 -314.5 110t-109.5 317q0 141 50.5 239.5t146.5 150t233 51.5q197 0 304 -101.5t107 -287.5q0 -124 -54 -191t-155 -67q-105 0 -131 68q-49 -68 -130 -68q-64 0 -101 34t-37 94q0 131 179 131h77v12q0 47 -17 64.5t-62 17.5q-28 0 -59.5 -6.5
t-63.5 -18.5l-19 78q82 31 155 31q85 0 124.5 -37.5t39.5 -117.5v-138q0 -63 57 -63q48 0 73.5 45.5t25.5 131.5q0 148 -79 224t-233 76q-161 0 -247 -91t-86 -261q0 -338 331 -338q116 0 227 47l31 -81q-55 -26 -123 -40.5t-140 -14.5zM453 75q57 0 92 44v73h-65
q-86 0 -86 -64q0 -53 59 -53z" />
    <glyph glyph-name="A" unicode="A" horiz-adv-x="639" 
d="M26 0l216 674h162l209 -674h-128l-44 153h-245l-45 -153h-125zM226 253h186l-91 319z" />
    <glyph glyph-name="B" unicode="B" horiz-adv-x="622" 
d="M81 0v674h253q99 0 153 -48t54 -135q0 -120 -98 -144q58 -13 90.5 -56.5t32.5 -108.5q0 -182 -220 -182h-265zM321 574h-118v-181h118q53 0 76 21t23 69q0 50 -22.5 70.5t-76.5 20.5zM336 294h-133v-194h133q56 0 80 22.5t24 72.5q0 52 -25 75.5t-79 23.5z" />
    <glyph glyph-name="C" unicode="C" horiz-adv-x="557" 
d="M348 -14q-150 0 -221 83.5t-71 259.5q0 359 295 359q48 0 93.5 -8.5t76.5 -24.5l-30 -95q-64 23 -125 23q-97 0 -139.5 -59.5t-42.5 -195.5q0 -87 17.5 -139t57 -75t104.5 -23q78 0 132 25l27 -95q-30 -16 -75.5 -25.5t-98.5 -9.5z" />
    <glyph glyph-name="D" unicode="D" horiz-adv-x="658" 
d="M81 0v674h216q152 0 230.5 -86t78.5 -253q0 -165 -78.5 -250t-230.5 -85h-216zM285 572h-80v-470h80q103 0 147 54t44 181q0 128 -43.5 181.5t-147.5 53.5z" />
    <glyph glyph-name="E" unicode="E" horiz-adv-x="559" 
d="M81 0v674h419v-102h-297v-179h255v-102h-255v-189h300v-102h-422z" />
    <glyph glyph-name="F" unicode="F" horiz-adv-x="526" 
d="M81 0v674h401v-102h-277v-191h245v-102h-245v-279h-124z" />
    <glyph glyph-name="G" unicode="G" horiz-adv-x="638" 
d="M359 -14q-157 0 -230.5 83.5t-73.5 259.5q0 182 76.5 270.5t233.5 88.5q55 0 104.5 -9.5t86.5 -28.5l-31 -96q-41 16 -75.5 22.5t-71.5 6.5q-71 0 -114 -25t-62 -80.5t-19 -148.5q0 -90 17.5 -142t58 -74.5t110.5 -22.5q44 0 85 8v175h-129v102h243v-356
q-96 -33 -209 -33z" />
    <glyph glyph-name="H" unicode="H" horiz-adv-x="667" 
d="M81 0v674h124v-279h257v279h124v-674h-124v293h-257v-293h-124z" />
    <glyph glyph-name="I" unicode="I" horiz-adv-x="286" 
d="M81 0v674h124v-674h-124z" />
    <glyph glyph-name="J" unicode="J" horiz-adv-x="460" 
d="M176 -14q-79 0 -141 30l33 100q54 -23 94 -23q54 0 76.5 30t22.5 101v348h-175v102h299v-464q0 -115 -51 -169.5t-158 -54.5z" />
    <glyph glyph-name="K" unicode="K" horiz-adv-x="601" 
d="M81 0v674h124v-318l225 318h134l-237 -327l264 -347h-147l-239 318v-318h-124z" />
    <glyph glyph-name="L" unicode="L" horiz-adv-x="517" 
d="M81 0v674h124v-572h272v-102h-396z" />
    <glyph glyph-name="M" unicode="M" horiz-adv-x="839" 
d="M81 0v674h154l185 -462l185 462h153v-674h-112v514l-168 -410h-117l-168 405v-509h-112z" />
    <glyph glyph-name="N" unicode="N" horiz-adv-x="686" 
d="M81 0v674h137l274 -516v516h113v-674h-137l-274 520v-520h-113z" />
    <glyph glyph-name="O" unicode="O" horiz-adv-x="672" 
d="M336 -14q-139 0 -210 89t-71 262t71 262t210 89t210 -89t71 -262t-71 -262t-210 -89zM336 91q80 0 116.5 59t36.5 187t-36.5 187t-116.5 59q-79 0 -116 -59t-37 -187t37 -187t116 -59z" />
    <glyph glyph-name="P" unicode="P" horiz-adv-x="593" 
d="M81 0v674h233q239 0 239 -219t-239 -219h-109v-236h-124zM306 572h-101v-234h101q67 0 94 26.5t27 90.5q0 65 -27 91t-94 26z" />
    <glyph glyph-name="Q" unicode="Q" horiz-adv-x="672" 
d="M335 -14q-138 0 -209 89t-71 263q0 173 71 261.5t210 88.5t210 -89t71 -262q0 -202 -103 -287l129 -68l-45 -87l-195 98q-34 -7 -68 -7zM335 91q80 0 117 59t37 187t-37 187t-117 59q-79 0 -115.5 -59t-36.5 -187q0 -127 36.5 -186.5t115.5 -59.5z" />
    <glyph glyph-name="R" unicode="R" horiz-adv-x="622" 
d="M81 0v674h234q231 0 231 -211q0 -153 -125 -186l180 -277h-142l-161 258h-94v-258h-123zM308 574h-104v-218h104q62 0 88 25t26 83q0 59 -26.5 84.5t-87.5 25.5z" />
    <glyph glyph-name="S" unicode="S" horiz-adv-x="562" 
d="M261 -14q-125 0 -215 48l32 99q36 -20 83 -31t96 -11q127 0 127 95q0 41 -20.5 63t-70.5 33l-65 15q-87 20 -125 64.5t-38 126.5q0 97 60.5 148.5t173.5 51.5q47 0 98 -10.5t97 -29.5l-27 -98q-74 33 -156 33q-64 0 -94 -21.5t-30 -70.5q0 -37 18.5 -56t68.5 -32l53 -13
q98 -24 140.5 -71.5t42.5 -130.5q0 -202 -249 -202z" />
    <glyph glyph-name="T" unicode="T" horiz-adv-x="540" 
d="M208 0v572h-186v102h496v-102h-186v-572h-124z" />
    <glyph glyph-name="U" unicode="U" horiz-adv-x="654" 
d="M327 -14q-128 0 -189 68t-61 211v409h124v-426q0 -83 29.5 -120t96.5 -37t96.5 37t29.5 120v426h124v-409q0 -143 -61 -211t-189 -68z" />
    <glyph glyph-name="V" unicode="V" horiz-adv-x="620" 
d="M229 0l-204 674h129l162 -554l153 554h126l-204 -674h-162z" />
    <glyph glyph-name="W" unicode="W" horiz-adv-x="854" 
d="M163 0l-140 674h119l106 -571l105 556h150l107 -558l107 573h114l-140 -674h-166l-98 531l-98 -531h-166z" />
    <glyph glyph-name="X" unicode="X" horiz-adv-x="587" 
d="M24 0l193 344l-180 330h135l124 -233l126 233h132l-187 -332l196 -342h-135l-138 249l-134 -249h-132z" />
    <glyph glyph-name="Y" unicode="Y" horiz-adv-x="585" 
d="M230 0v232l-221 442h133l154 -318l158 318h122l-222 -434v-240h-124z" />
    <glyph glyph-name="Z" unicode="Z" horiz-adv-x="560" 
d="M49 0v82l315 490h-307v102h455v-83l-314 -489h319v-102h-468z" />
    <glyph glyph-name="bracketleft" unicode="[" horiz-adv-x="399" 
d="M96 -162v904h272v-92h-154v-720h154v-92h-272z" />
    <glyph glyph-name="backslash" unicode="\" horiz-adv-x="449" 
d="M434 -162h-124l-295 904h124z" />
    <glyph glyph-name="bracketright" unicode="]" horiz-adv-x="399" 
d="M303 -162h-272v92h154v720h-154v92h272v-904z" />
    <glyph glyph-name="asciicircum" unicode="^" 
d="M50 236l181 438h118l181 -438h-111l-129 330l-131 -330h-109z" />
    <glyph glyph-name="underscore" unicode="_" horiz-adv-x="456" 
d="M30 -132v102h396v-102h-396z" />
    <glyph glyph-name="grave" unicode="`" horiz-adv-x="316" 
d="M171 600l-141 183h132l124 -183h-115z" />
    <glyph glyph-name="a" unicode="a" horiz-adv-x="537" 
d="M194 -12q-72 0 -111.5 39.5t-39.5 110.5q0 164 206 164h100v11q0 44 -8 67.5t-28 32.5t-58 9q-71 0 -152 -29l-25 97q93 34 193 34q106 0 150.5 -44.5t44.5 -150.5v-329h-98l-11 75q-54 -87 -163 -87zM239 84q67 0 110 43v98h-92q-93 0 -93 -73q0 -68 75 -68z" />
    <glyph glyph-name="b" unicode="b" horiz-adv-x="581" 
d="M346 -13q-50 0 -92 22t-67 60l-10 -69h-101v712h120v-261q51 73 151 73q89 0 136.5 -70t47.5 -199t-48 -198.5t-137 -69.5zM306 88q53 0 77 39.5t24 127.5q0 89 -24 128.5t-77 39.5q-60 0 -110 -39v-257q50 -39 110 -39z" />
    <glyph glyph-name="c" unicode="c" horiz-adv-x="465" 
d="M286 -14q-120 0 -178 65t-58 201q0 133 63 203t182 70q76 0 137 -30l-29 -93q-31 11 -53 16t-45 5q-70 0 -100.5 -40.5t-30.5 -132.5q0 -85 30.5 -123.5t99.5 -38.5q51 0 103 21l26 -91q-55 -32 -147 -32z" />
    <glyph glyph-name="d" unicode="d" horiz-adv-x="581" 
d="M236 -13q-90 0 -138 69.5t-48 198.5q0 130 48 199.5t137 69.5q99 0 150 -73v261h120v-712h-99l-10 71q-26 -39 -68 -61.5t-92 -22.5zM276 88q62 0 109 39v257q-47 39 -109 39q-53 0 -77.5 -40t-24.5 -128t24 -127.5t78 -39.5z" />
    <glyph glyph-name="e" unicode="e" horiz-adv-x="545" 
d="M296 -14q-124 0 -185 65.5t-61 199.5q0 132 59.5 203t171.5 71q216 0 216 -271v-42h-327q6 -67 38 -95.5t99 -28.5q68 0 140 32l29 -92q-76 -42 -180 -42zM279 429q-52 0 -78 -31.5t-31 -102.5h207q-1 70 -24.5 102t-73.5 32z" />
    <glyph glyph-name="f" unicode="f" horiz-adv-x="393" 
d="M106 0v421h-90v91h90v31q0 181 186 181q25 0 45.5 -1.5t40.5 -6.5v-90q-19 3 -32.5 4t-31.5 1q-55 0 -73.5 -18t-18.5 -73v-28h156v-91h-154v-421h-118z" />
    <glyph glyph-name="g" unicode="g" horiz-adv-x="581" 
d="M259 -202q-48 0 -92.5 8t-91.5 25l23 94q82 -29 155 -29q71 0 101.5 32t30.5 104v60q-50 -81 -152 -81q-182 0 -182 253q0 125 47.5 192.5t135.5 67.5q54 0 96.5 -23.5t64.5 -66.5l12 78h98v-481q0 -124 -57.5 -178.5t-188.5 -54.5zM275 110q61 0 110 46v224
q-45 45 -109 45q-52 0 -76.5 -38.5t-24.5 -122.5q0 -81 24 -117.5t76 -36.5z" />
    <glyph glyph-name="h" unicode="h" horiz-adv-x="575" 
d="M76 0v712h120v-272q48 84 152 84q75 0 115 -45t40 -129v-350h-120v341q0 82 -78 82q-60 0 -109 -41v-382h-120z" />
    <glyph glyph-name="i" unicode="i" horiz-adv-x="294" 
d="M93 609v122h126v-122h-126zM102 0v421h-79v91h197v-512h-118z" />
    <glyph glyph-name="j" unicode="j" horiz-adv-x="294" 
d="M93 609v122h126v-122h-126zM74 -202q-18 0 -33 2t-30 6v89q11 -2 21 -3t18 -1q29 0 40.5 13.5t11.5 48.5v468h-79v91h197v-544q0 -92 -35 -131t-111 -39z" />
    <glyph glyph-name="k" unicode="k" horiz-adv-x="540" 
d="M76 0v712h118v-424l178 224h129l-189 -232l223 -280h-134l-207 266v-266h-118z" />
    <glyph glyph-name="l" unicode="l" horiz-adv-x="312" 
d="M210 -8q-72 0 -105.5 37.5t-33.5 117.5v565h120v-577q0 -28 10.5 -39t35.5 -11q10 0 20 1t20 3v-89q-17 -4 -33 -6t-34 -2z" />
    <glyph glyph-name="m" unicode="m" horiz-adv-x="852" 
d="M76 0v512h98l12 -82q44 94 147 94q110 0 142 -91q51 91 150 91q155 0 155 -178v-346h-120v337q0 45 -18 65.5t-57 20.5q-56 0 -99 -44q2 -16 2 -33v-346h-120v337q0 45 -18 65.5t-57 20.5q-53 0 -97 -41v-382h-120z" />
    <glyph glyph-name="n" unicode="n" horiz-adv-x="575" 
d="M76 0v512h98l12 -86q48 98 159 98q76 0 117 -44t41 -127v-353h-120v344q0 79 -79 79q-59 0 -108 -41v-382h-120z" />
    <glyph glyph-name="o" unicode="o" horiz-adv-x="562" 
d="M281 -14q-112 0 -171.5 70t-59.5 200q0 132 59 200.5t172 68.5t172 -68.5t59 -200.5q0 -130 -59.5 -200t-171.5 -70zM281 84q56 0 81.5 41t25.5 131t-25.5 130.5t-81.5 40.5t-81.5 -40.5t-25.5 -130.5t25.5 -131t81.5 -41z" />
    <glyph glyph-name="p" unicode="p" horiz-adv-x="581" 
d="M76 -192v704h98l11 -78q23 43 65.5 66.5t96.5 23.5q89 0 136.5 -70t47.5 -199t-47.5 -198.5t-136.5 -69.5q-97 0 -151 70v-249h-120zM306 88q53 0 77 40t24 127t-24 127.5t-77 40.5q-57 0 -110 -39v-257q53 -39 110 -39z" />
    <glyph glyph-name="q" unicode="q" horiz-adv-x="581" 
d="M385 -192v249q-54 -70 -151 -70q-88 0 -136 69.5t-48 198.5q0 130 48 199.5t137 69.5q54 0 96 -23.5t65 -66.5l11 78h98v-704h-120zM275 88q60 0 110 39v257q-50 39 -110 39q-53 0 -77 -39.5t-24 -128.5q0 -88 24 -127.5t77 -39.5z" />
    <glyph glyph-name="r" unicode="r" horiz-adv-x="399" 
d="M76 0v512h98l13 -94q53 101 183 101h10v-116h-12q-62 0 -101.5 -10t-70.5 -33v-360h-120z" />
    <glyph glyph-name="s" unicode="s" horiz-adv-x="458" 
d="M214 -14q-50 0 -98 11t-81 30l26 96q32 -18 73 -28.5t82 -10.5q90 0 90 60q0 26 -14 38t-52 21l-55 12q-71 15 -104.5 51.5t-33.5 98.5q0 73 52.5 116t140.5 43q54 0 91 -7t76 -26l-22 -91q-33 14 -65 20t-72 6q-43 0 -66 -14.5t-23 -41.5q0 -24 15 -36t55 -22l41 -10
q59 -14 91.5 -33.5t46 -49.5t13.5 -79q0 -154 -207 -154z" />
    <glyph glyph-name="t" unicode="t" horiz-adv-x="406" 
d="M279 -8q-95 0 -135 41.5t-40 139.5v248h-86v86l53 3q23 2 33 9.5t11 26.5l9 121h98v-155h155v-91h-155v-262q0 -43 17 -58.5t64 -15.5q14 0 29.5 1.5t39.5 4.5v-89q-36 -10 -93 -10z" />
    <glyph glyph-name="u" unicode="u" horiz-adv-x="571" 
d="M226 -12q-154 0 -154 186v338h120v-332q0 -49 17.5 -70t58.5 -21q62 0 107 42v381h120v-512h-98l-12 80q-53 -92 -159 -92z" />
    <glyph glyph-name="v" unicode="v" horiz-adv-x="498" 
d="M171 0l-156 512h126l110 -410l112 410h120l-156 -512h-156z" />
    <glyph glyph-name="w" unicode="w" horiz-adv-x="762" 
d="M138 0l-125 512h127l77 -412l98 402h137l96 -406l81 416h120l-125 -512h-147l-95 396l-97 -396h-147z" />
    <glyph glyph-name="x" unicode="x" horiz-adv-x="503" 
d="M23 0l157 258l-157 254h131l98 -164l97 164h123l-155 -249l163 -263h-131l-103 171l-99 -171h-124z" />
    <glyph glyph-name="y" unicode="y" horiz-adv-x="490" 
d="M88 -202q-41 0 -80 12v87q17 -4 32.5 -5.5t29.5 -1.5q45 0 72 23.5t49 81.5l-184 517h130l112 -362l109 362h128l-202 -568q-28 -77 -74 -111.5t-122 -34.5z" />
    <glyph glyph-name="z" unicode="z" horiz-adv-x="481" 
d="M53 0v74l234 347h-230v91h366v-74l-234 -347h239v-91h-375z" />
    <glyph glyph-name="braceleft" unicode="{" horiz-adv-x="440" 
d="M294 -173q-174 0 -174 135q0 27 8.5 56t33.5 75q20 38 27.5 57t7.5 35q0 60 -69 60h-78v93h78q69 0 69 60q0 17 -7.5 36t-27.5 56q-25 47 -33.5 75.5t-8.5 55.5q0 135 174 135q32 0 62.5 -3.5t52.5 -9.5v-92q-45 8 -80 8q-45 0 -65 -14t-20 -45q0 -19 9 -42t28 -59
q20 -37 28 -59t8 -45q0 -45 -28 -73t-72 -31q45 -4 72.5 -31.5t27.5 -71.5q0 -23 -8 -45t-28 -59q-19 -36 -28 -58.5t-9 -41.5q0 -31 20 -45.5t65 -14.5q35 0 80 8v-92q-21 -6 -52 -9.5t-63 -3.5z" />
    <glyph glyph-name="bar" unicode="|" horiz-adv-x="310" 
d="M96 -192v934h118v-934h-118z" />
    <glyph glyph-name="braceright" unicode="}" horiz-adv-x="440" 
d="M146 -173q-31 0 -62.5 3.5t-52.5 9.5v92q45 -8 80 -8q45 0 65 14.5t20 45.5q0 19 -8.5 41.5t-28.5 58.5q-20 37 -28 59t-8 45q0 45 28 73t72 31q-45 4 -72.5 31.5t-27.5 71.5q0 23 8 45t28 59q20 36 28.5 59t8.5 42q0 31 -20 45t-65 14q-35 0 -80 -8v92q22 6 53 9.5
t62 3.5q174 0 174 -135q0 -27 -8.5 -55.5t-33.5 -75.5q-20 -37 -27.5 -56t-7.5 -36q0 -60 69 -60h78v-93h-78q-69 0 -69 -60q0 -16 7.5 -35t27.5 -57q25 -46 33.5 -75t8.5 -56q0 -135 -174 -135z" />
    <glyph glyph-name="asciitilde" unicode="~" 
d="M397 185q-44 0 -73 21.5t-61 77.5l-20 35q-19 33 -30.5 44.5t-25.5 11.5q-19 0 -30 -15.5t-15 -54t-4 -109.5h-94q0 103 13.5 165.5t44.5 90.5t81 28q44 0 73 -21.5t61 -77.5l20 -35q19 -33 30.5 -44.5t25.5 -11.5q20 0 30.5 15.5t14.5 54.5t4 109h94
q0 -103 -13.5 -165.5t-44 -90.5t-81.5 -28z" />
    <glyph glyph-name="uni00A0" unicode="&#xa0;" horiz-adv-x="229" 
 />
    <glyph glyph-name="exclamdown" unicode="&#xa1;" horiz-adv-x="281" 
d="M71 372v140h139v-140h-139zM76 -162l13 453h103l13 -453h-129z" />
    <glyph glyph-name="cent" unicode="&#xa2;" 
d="M307 -60v89q-109 9 -162 74t-53 188q0 250 215 272v86h68v-85q61 -5 126 -30l-26 -96q-49 23 -100 25v-334q51 2 102 25l25 -95q-59 -26 -127 -31v-88h-68zM213 291q0 -72 21 -109t73 -48v323q-50 -12 -72 -51.5t-22 -114.5z" />
    <glyph glyph-name="sterling" unicode="&#xa3;" 
d="M80 0v93q53 32 77 69.5t24 88.5q0 14 -1.5 26.5t-3.5 24.5h-119v80h92q-9 25 -16 52t-7 62q0 89 63 140.5t170 51.5q80 0 163 -39l-33 -93q-59 28 -114 28q-64 0 -100.5 -29.5t-36.5 -80.5q0 -24 6 -46.5t14 -45.5h197v-80h-171q3 -14 5 -29.5t2 -31.5q0 -45 -17 -78.5
t-55 -62.5h316v-100h-455z" />
    <glyph glyph-name="currency" unicode="&#xa4;" 
d="M109 79l-69 68l86 86q-23 42 -23 96q0 55 23 98l-86 86l68 68l88 -87q41 22 94 22t95 -22l86 87l69 -68l-86 -86q23 -43 23 -98q0 -54 -23 -96l86 -86l-68 -68l-87 86q-42 -21 -95 -21t-95 22zM290 231q43 0 68 27t25 71t-25 72t-68 28t-68.5 -28t-25.5 -72t25.5 -71
t68.5 -27z" />
    <glyph glyph-name="yen" unicode="&#xa5;" 
d="M72 88v80h161v80h-161v80h120l-169 346h127l144 -318l145 318h119l-169 -346h122v-80h-161v-80h161v-80h-161v-88h-117v88h-161z" />
    <glyph glyph-name="section" unicode="&#xa7;" horiz-adv-x="576" 
d="M278 -66q-62 0 -119.5 10.5t-92.5 29.5l30 101q93 -35 181 -35q58 0 84 14t26 45q0 25 -19 38t-63 18l-72 9q-168 21 -168 152q0 82 61 122q-57 40 -57 121q0 165 229 165q62 0 119.5 -10.5t92.5 -29.5l-30 -101q-93 35 -181 35q-58 0 -84 -14t-26 -45q0 -24 19.5 -37
t62.5 -18l72 -9q168 -21 168 -152q0 -82 -61 -122q57 -41 57 -122q0 -165 -229 -165zM348 256q12 -1 23 -3q32 28 32 67q0 34 -22.5 51t-75.5 23l-77 9q-12 1 -23 3q-32 -28 -32 -67q0 -34 22.5 -51t75.5 -23z" />
    <glyph glyph-name="dieresis" unicode="&#xa8;" horiz-adv-x="385" 
d="M30 608v122h119v-122h-119zM236 608v122h119v-122h-119z" />
    <glyph glyph-name="copyright" unicode="&#xa9;" horiz-adv-x="794" 
d="M397 -14q-104 0 -180.5 43t-118 121.5t-41.5 186.5t41.5 186.5t118 121.5t180.5 43q105 0 181 -43t117.5 -121.5t41.5 -186.5t-41.5 -186.5t-117.5 -121.5t-181 -43zM397 47q84 0 146 35.5t95.5 101t33.5 153.5q0 89 -33.5 154t-95.5 100.5t-146 35.5t-145.5 -35.5
t-95.5 -100.5t-34 -154q0 -88 34 -153.5t95.5 -101t145.5 -35.5zM414 141q-180 0 -180 195q0 95 47.5 147.5t132.5 52.5q64 0 111 -26l-24 -73q-35 16 -73 16q-50 0 -72 -27.5t-22 -92.5q0 -60 20.5 -84.5t70.5 -24.5q41 0 76 16l24 -73q-43 -26 -111 -26z" />
    <glyph glyph-name="ordfeminine" unicode="&#xaa;" horiz-adv-x="429" 
d="M163 295q-56 0 -86.5 29.5t-30.5 84.5q0 121 157 121h66v4q0 38 -15 54t-53 16q-25 0 -53.5 -5.5t-54.5 -15.5l-19 78q67 27 139 27q81 0 119 -35.5t38 -111.5v-237h-90l-6 46q-38 -55 -111 -55zM195 371q44 0 74 30v69h-62q-63 0 -63 -53q0 -46 51 -46z" />
    <glyph glyph-name="guillemotleft" unicode="&#xab;" horiz-adv-x="721" 
d="M234 47l-183 213l183 213h152l-183 -213l183 -213h-152zM517 47l-183 213l183 213h152l-183 -213l183 -213h-152z" />
    <glyph glyph-name="logicalnot" unicode="&#xac;" 
d="M400 182v164h-333v105h438v-269h-105z" />
    <glyph glyph-name="uni00AD" unicode="&#xad;" horiz-adv-x="403" 
d="M53 226v110h297v-110h-297z" />
    <glyph glyph-name="registered" unicode="&#xae;" horiz-adv-x="575" 
d="M287 214q-70 0 -123 29t-82 82.5t-29 124.5q0 72 29 125t82 82.5t124 29.5t123.5 -29t81.5 -82t29 -125q0 -71 -29 -124.5t-82 -83t-124 -29.5zM287 260q84 0 134 51.5t50 138.5t-50 139t-133 52q-84 0 -134 -51.5t-50 -138.5t49.5 -139t133.5 -52zM198 329v255h96
q44 0 69 -22.5t25 -62.5q0 -58 -48 -73l61 -97h-61l-54 90h-32v-90h-56zM295 537h-41v-71h41q36 0 36 35q0 36 -36 36z" />
    <glyph glyph-name="degree" unicode="&#xb0;" horiz-adv-x="443" 
d="M221 362q-73 0 -118.5 45t-45.5 118t45.5 118t119.5 45t119 -45t45 -118t-45.5 -118t-119.5 -45zM221 443q35 0 56.5 22.5t21.5 59.5t-21 59.5t-56 22.5t-56.5 -22.5t-21.5 -59.5t21.5 -59.5t55.5 -22.5z" />
    <glyph glyph-name="uni00B2" unicode="&#xb2;" horiz-adv-x="366" 
d="M44 400v68l122 96q28 22 38.5 38.5t10.5 36.5q0 53 -62 53q-40 0 -81 -22l-30 72q50 32 124 32q69 0 107.5 -33.5t38.5 -94.5q0 -40 -19.5 -71.5t-65.5 -65.5l-41 -30h137v-79h-279z" />
    <glyph glyph-name="uni00B3" unicode="&#xb3;" horiz-adv-x="370" 
d="M165 391q-79 0 -134 29l23 75q29 -11 54 -16t52 -5q33 0 47 8.5t14 28.5q0 36 -54 36h-56v75h61q44 0 44 34q0 19 -13 27t-44 8q-49 0 -94 -20l-26 74q58 29 130 29q66 0 105 -27t39 -74q0 -33 -18 -55t-50 -29q36 -8 56 -32t20 -58q0 -50 -42 -79t-114 -29z" />
    <glyph glyph-name="acute" unicode="&#xb4;" horiz-adv-x="316" 
d="M30 600l124 183h132l-141 -183h-115z" />
    <glyph glyph-name="paragraph" unicode="&#xb6;" horiz-adv-x="607" 
d="M301 -192v442h-25q-109 0 -163.5 55t-54.5 157t54.5 157t163.5 55h97v-866h-72zM439 -192v866h72v-866h-72z" />
    <glyph glyph-name="periodcentered" unicode="&#xb7;" horiz-adv-x="275" 
d="M68 200v140h139v-140h-139z" />
    <glyph glyph-name="cedilla" unicode="&#xb8;" horiz-adv-x="303" 
d="M123 -266q-23 0 -47.5 3t-45.5 10v76q44 -10 80 -10q34 0 48 8.5t14 25.5q0 20 -19.5 29.5t-72.5 10.5l20 124l71 -1l-11 -61q56 -8 84.5 -33.5t28.5 -71.5q0 -110 -150 -110z" />
    <glyph glyph-name="uni00B9" unicode="&#xb9;" horiz-adv-x="287" 
d="M121 400v248h-88v76l72 3q17 1 22.5 6.5t7.5 17.5l4 22h80v-373h-98z" />
    <glyph glyph-name="ordmasculine" unicode="&#xba;" horiz-adv-x="437" 
d="M218 294q-85 0 -131 51.5t-46 146.5t46.5 145.5t131.5 50.5q86 0 131.5 -50.5t45.5 -145.5t-46 -146.5t-132 -51.5zM218 376q37 0 53.5 27.5t16.5 88.5q0 60 -16.5 87t-52.5 27q-37 0 -53.5 -27.5t-16.5 -86.5q0 -60 16.5 -88t52.5 -28z" />
    <glyph glyph-name="guillemotright" unicode="&#xbb;" horiz-adv-x="721" 
d="M204 47h-152l183 213l-183 213h152l183 -213zM487 47h-152l183 213l-183 213h152l183 -213z" />
    <glyph glyph-name="onequarter" unicode="&#xbc;" horiz-adv-x="854" 
d="M145 0l399 674h123l-399 -674h-123zM672 0v74h-187v70l168 220h110v-218h51v-72h-51v-74h-91zM580 146h97v133zM121 310v248h-88v76l72 3q17 1 22.5 6.5t7.5 17.5l4 22h80v-373h-98z" />
    <glyph glyph-name="onehalf" unicode="&#xbd;" horiz-adv-x="893" 
d="M145 0l399 674h123l-399 -674h-123zM571 0v68l122 96q28 22 38.5 38.5t10.5 36.5q0 53 -62 53q-40 0 -81 -22l-30 72q50 32 124 32q69 0 107.5 -33.5t38.5 -94.5q0 -40 -19.5 -71.5t-65.5 -65.5l-41 -30h137v-79h-279zM121 310v248h-88v76l72 3q17 1 22.5 6.5t7.5 17.5
l4 22h80v-373h-98z" />
    <glyph glyph-name="threequarters" unicode="&#xbe;" horiz-adv-x="901" 
d="M192 0l399 674h123l-399 -674h-123zM719 0v74h-187v70l168 220h110v-218h51v-72h-51v-74h-91zM627 146h97v133zM165 301q-79 0 -134 29l23 75q29 -11 54 -16t52 -5q33 0 47 8.5t14 28.5q0 36 -54 36h-56v75h61q44 0 44 34q0 19 -13 27t-44 8q-49 0 -94 -20l-26 74
q58 29 130 29q66 0 105 -27t39 -74q0 -33 -18 -55t-50 -29q36 -8 56 -32t20 -58q0 -50 -42 -79t-114 -29z" />
    <glyph glyph-name="questiondown" unicode="&#xbf;" horiz-adv-x="474" 
d="M194 372v140h139v-140h-139zM253 -176q-223 0 -223 178q0 56 22 94t80 80q31 23 47.5 39.5t22.5 34t6 41.5h109q0 -44 -8.5 -75.5t-29.5 -57.5t-57 -52q-40 -29 -55 -50.5t-15 -50.5q0 -77 111 -77q74 0 151 35l32 -98q-43 -21 -89.5 -31t-103.5 -10z" />
    <glyph glyph-name="Agrave" unicode="&#xc0;" horiz-adv-x="639" 
d="M26 0l216 674h162l209 -674h-128l-44 153h-245l-45 -153h-125zM226 253h186l-91 319zM291 747l-157 163h147l132 -163h-122z" />
    <glyph glyph-name="Aacute" unicode="&#xc1;" horiz-adv-x="639" 
d="M26 0l216 674h162l209 -674h-128l-44 153h-245l-45 -153h-125zM226 253h186l-91 319zM230 747l132 163h147l-157 -163h-122z" />
    <glyph glyph-name="Acircumflex" unicode="&#xc2;" horiz-adv-x="639" 
d="M26 0l216 674h162l209 -674h-128l-44 153h-245l-45 -153h-125zM226 253h186l-91 319zM131 747l125 163h134l124 -163h-120l-72 99l-72 -99h-119z" />
    <glyph glyph-name="Atilde" unicode="&#xc3;" horiz-adv-x="639" 
d="M26 0l216 674h162l209 -674h-128l-44 153h-245l-45 -153h-125zM226 253h186l-91 319zM132 747q0 97 29 134.5t81 37.5q34 0 57.5 -12.5t51.5 -41.5l9 -9q17 -17 26 -23t19 -6q15 0 22.5 15.5t7.5 67.5h88q0 -97 -29 -134.5t-81 -37.5q-34 0 -57 13t-52 41l-9 9
q-18 18 -26 23.5t-19 5.5q-15 0 -22.5 -15t-7.5 -68h-88z" />
    <glyph glyph-name="Adieresis" unicode="&#xc4;" horiz-adv-x="639" 
d="M26 0l216 674h162l209 -674h-128l-44 153h-245l-45 -153h-125zM226 253h186l-91 319zM160 752v123h119v-123h-119zM366 752v123h119v-123h-119z" />
    <glyph glyph-name="Aring" unicode="&#xc5;" horiz-adv-x="639" 
d="M26 0l216 674h162l209 -674h-128l-44 153h-245l-45 -153h-125zM226 253h186l-91 319zM323 730q-55 0 -90 34.5t-35 89.5q0 56 35 90t90 34q56 0 90.5 -34t34.5 -90t-34.5 -90t-90.5 -34zM323 796q25 0 40 15.5t15 42.5q0 26 -15 42t-40 16t-40 -15.5t-15 -42.5
q0 -26 15 -42t40 -16z" />
    <glyph glyph-name="AE" unicode="&#xc6;" horiz-adv-x="933" 
d="M27 0l369 674h477v-102h-282v-177h239v-105h-239v-188h286v-102h-408v153h-227l-82 -153h-133zM465 572l-170 -319h174v319h-4z" />
    <glyph glyph-name="Ccedilla" unicode="&#xc7;" horiz-adv-x="557" 
d="M348 -14q-150 0 -221 83.5t-71 259.5q0 359 295 359q48 0 93.5 -8.5t76.5 -24.5l-30 -95q-64 23 -125 23q-97 0 -139.5 -59.5t-42.5 -195.5q0 -87 17.5 -139t57 -75t104.5 -23q78 0 132 25l27 -95q-30 -16 -75.5 -25.5t-98.5 -9.5zM317 -266q-23 0 -47.5 3t-45.5 10v76
q44 -10 80 -10q34 0 48 8.5t14 25.5q0 20 -19.5 29.5t-72.5 10.5l20 124l71 -1l-11 -61q56 -8 84.5 -33.5t28.5 -71.5q0 -110 -150 -110z" />
    <glyph glyph-name="Egrave" unicode="&#xc8;" horiz-adv-x="559" 
d="M81 0v674h419v-102h-297v-179h255v-102h-255v-189h300v-102h-422zM259 747l-157 163h147l132 -163h-122z" />
    <glyph glyph-name="Eacute" unicode="&#xc9;" horiz-adv-x="559" 
d="M81 0v674h419v-102h-297v-179h255v-102h-255v-189h300v-102h-422zM198 747l132 163h147l-157 -163h-122z" />
    <glyph glyph-name="Ecircumflex" unicode="&#xca;" horiz-adv-x="559" 
d="M81 0v674h419v-102h-297v-179h255v-102h-255v-189h300v-102h-422zM99 747l125 163h134l124 -163h-120l-72 99l-72 -99h-119z" />
    <glyph glyph-name="Edieresis" unicode="&#xcb;" horiz-adv-x="559" 
d="M81 0v674h419v-102h-297v-179h255v-102h-255v-189h300v-102h-422zM128 752v123h119v-123h-119zM334 752v123h119v-123h-119z" />
    <glyph glyph-name="Igrave" unicode="&#xcc;" horiz-adv-x="286" 
d="M81 0v674h124v-674h-124zM111 747l-157 163h147l132 -163h-122z" />
    <glyph glyph-name="Iacute" unicode="&#xcd;" horiz-adv-x="286" 
d="M81 0v674h124v-674h-124zM50 747l132 163h147l-157 -163h-122z" />
    <glyph glyph-name="Icircumflex" unicode="&#xce;" horiz-adv-x="286" 
d="M81 0v674h124v-674h-124zM-49 747l125 163h134l124 -163h-120l-72 99l-72 -99h-119z" />
    <glyph glyph-name="Idieresis" unicode="&#xcf;" horiz-adv-x="286" 
d="M81 0v674h124v-674h-124zM-20 752v123h119v-123h-119zM186 752v123h119v-123h-119z" />
    <glyph glyph-name="Eth" unicode="&#xd0;" horiz-adv-x="679" 
d="M102 0v297h-76v92h76v285h216q153 0 231 -86.5t78 -252.5q0 -164 -78 -249.5t-231 -85.5h-216zM363 297h-140v-195h83q65 0 107.5 21.5t63 73t20.5 140.5q0 90 -20.5 141.5t-63 72.5t-107.5 21h-83v-183h140v-92z" />
    <glyph glyph-name="Ntilde" unicode="&#xd1;" horiz-adv-x="686" 
d="M81 0v674h137l274 -516v516h113v-674h-137l-274 520v-520h-113zM152 747q0 97 29 134.5t81 37.5q34 0 57.5 -12.5t51.5 -41.5l9 -9q17 -17 26 -23t19 -6q15 0 22.5 15.5t7.5 67.5h88q0 -97 -29 -134.5t-81 -37.5q-34 0 -57 13t-52 41l-9 9q-18 18 -26 23.5t-19 5.5
q-15 0 -22.5 -15t-7.5 -68h-88z" />
    <glyph glyph-name="Ograve" unicode="&#xd2;" horiz-adv-x="672" 
d="M336 -14q-139 0 -210 89t-71 262t71 262t210 89t210 -89t71 -262t-71 -262t-210 -89zM336 91q80 0 116.5 59t36.5 187t-36.5 187t-116.5 59q-79 0 -116 -59t-37 -187t37 -187t116 -59zM304 747l-157 163h147l132 -163h-122z" />
    <glyph glyph-name="Oacute" unicode="&#xd3;" horiz-adv-x="672" 
d="M336 -14q-139 0 -210 89t-71 262t71 262t210 89t210 -89t71 -262t-71 -262t-210 -89zM336 91q80 0 116.5 59t36.5 187t-36.5 187t-116.5 59q-79 0 -116 -59t-37 -187t37 -187t116 -59zM243 747l132 163h147l-157 -163h-122z" />
    <glyph glyph-name="Ocircumflex" unicode="&#xd4;" horiz-adv-x="672" 
d="M336 -14q-139 0 -210 89t-71 262t71 262t210 89t210 -89t71 -262t-71 -262t-210 -89zM336 91q80 0 116.5 59t36.5 187t-36.5 187t-116.5 59q-79 0 -116 -59t-37 -187t37 -187t116 -59zM144 747l125 163h134l124 -163h-120l-72 99l-72 -99h-119z" />
    <glyph glyph-name="Otilde" unicode="&#xd5;" horiz-adv-x="672" 
d="M336 -14q-139 0 -210 89t-71 262t71 262t210 89t210 -89t71 -262t-71 -262t-210 -89zM336 91q80 0 116.5 59t36.5 187t-36.5 187t-116.5 59q-79 0 -116 -59t-37 -187t37 -187t116 -59zM145 747q0 97 29 134.5t81 37.5q34 0 57.5 -12.5t51.5 -41.5l9 -9q17 -17 26 -23
t19 -6q15 0 22.5 15.5t7.5 67.5h88q0 -97 -29 -134.5t-81 -37.5q-34 0 -57 13t-52 41l-9 9q-18 18 -26 23.5t-19 5.5q-15 0 -22.5 -15t-7.5 -68h-88z" />
    <glyph glyph-name="Odieresis" unicode="&#xd6;" horiz-adv-x="672" 
d="M336 -14q-139 0 -210 89t-71 262t71 262t210 89t210 -89t71 -262t-71 -262t-210 -89zM336 91q80 0 116.5 59t36.5 187t-36.5 187t-116.5 59q-79 0 -116 -59t-37 -187t37 -187t116 -59zM173 752v123h119v-123h-119zM379 752v123h119v-123h-119z" />
    <glyph glyph-name="multiply" unicode="&#xd7;" 
d="M146 120l-70 70l144 143l-144 143l70 70l144 -143l143 143l70 -70l-143 -143l143 -143l-70 -70l-143 143z" />
    <glyph glyph-name="Oslash" unicode="&#xd8;" horiz-adv-x="672" 
d="M121 -31l-57 40l54 77q-63 88 -63 251q0 173 71 262t210 89q103 0 169 -49l46 66l57 -40l-54 -77q63 -88 63 -251q0 -173 -71 -262t-210 -89q-103 0 -169 49zM180 337q0 -90 17 -142l243 349q-36 39 -104 39q-81 0 -118.5 -59t-37.5 -187zM336 91q81 0 118.5 59.5
t37.5 186.5q0 91 -17 142l-243 -349q36 -39 104 -39z" />
    <glyph glyph-name="Ugrave" unicode="&#xd9;" horiz-adv-x="654" 
d="M327 -14q-128 0 -189 68t-61 211v409h124v-426q0 -83 29.5 -120t96.5 -37t96.5 37t29.5 120v426h124v-409q0 -143 -61 -211t-189 -68zM295 747l-157 163h147l132 -163h-122z" />
    <glyph glyph-name="Uacute" unicode="&#xda;" horiz-adv-x="654" 
d="M327 -14q-128 0 -189 68t-61 211v409h124v-426q0 -83 29.5 -120t96.5 -37t96.5 37t29.5 120v426h124v-409q0 -143 -61 -211t-189 -68zM234 747l132 163h147l-157 -163h-122z" />
    <glyph glyph-name="Ucircumflex" unicode="&#xdb;" horiz-adv-x="654" 
d="M327 -14q-128 0 -189 68t-61 211v409h124v-426q0 -83 29.5 -120t96.5 -37t96.5 37t29.5 120v426h124v-409q0 -143 -61 -211t-189 -68zM135 747l125 163h134l124 -163h-120l-72 99l-72 -99h-119z" />
    <glyph glyph-name="Udieresis" unicode="&#xdc;" horiz-adv-x="654" 
d="M327 -14q-128 0 -189 68t-61 211v409h124v-426q0 -83 29.5 -120t96.5 -37t96.5 37t29.5 120v426h124v-409q0 -143 -61 -211t-189 -68zM164 752v123h119v-123h-119zM370 752v123h119v-123h-119z" />
    <glyph glyph-name="Yacute" unicode="&#xdd;" horiz-adv-x="585" 
d="M230 0v232l-221 442h133l154 -318l158 318h122l-222 -434v-240h-124zM205 747l132 163h147l-157 -163h-122z" />
    <glyph glyph-name="Thorn" unicode="&#xde;" horiz-adv-x="607" 
d="M81 0v674h124v-119h123q239 0 239 -214q0 -109 -58.5 -161.5t-180.5 -52.5h-123v-127h-124zM320 453h-115v-224h115q67 0 94 25.5t27 86.5q0 62 -27 87t-94 25z" />
    <glyph glyph-name="germandbls" unicode="&#xdf;" horiz-adv-x="606" 
d="M357 -8q-21 0 -43 3t-41 7v90q27 -6 55 -6q111 0 111 115q0 120 -115 120h-35v96h32q44 0 68.5 27.5t24.5 76.5q0 105 -105 105q-58 0 -84 -33.5t-26 -108.5v-484h-120v489q0 121 55 178t172 57q107 0 165.5 -51t58.5 -146q0 -116 -98 -152q63 -16 97 -63t34 -122
q0 -96 -53 -147t-153 -51z" />
    <glyph glyph-name="agrave" unicode="&#xe0;" horiz-adv-x="537" 
d="M194 -12q-72 0 -111.5 39.5t-39.5 110.5q0 164 206 164h100v11q0 44 -8 67.5t-28 32.5t-58 9q-71 0 -152 -29l-25 97q93 34 193 34q106 0 150.5 -44.5t44.5 -150.5v-329h-98l-11 75q-54 -87 -163 -87zM239 84q67 0 110 43v98h-92q-93 0 -93 -73q0 -68 75 -68zM230 600
l-141 183h132l124 -183h-115z" />
    <glyph glyph-name="aacute" unicode="&#xe1;" horiz-adv-x="537" 
d="M194 -12q-72 0 -111.5 39.5t-39.5 110.5q0 164 206 164h100v11q0 44 -8 67.5t-28 32.5t-58 9q-71 0 -152 -29l-25 97q93 34 193 34q106 0 150.5 -44.5t44.5 -150.5v-329h-98l-11 75q-54 -87 -163 -87zM239 84q67 0 110 43v98h-92q-93 0 -93 -73q0 -68 75 -68zM201 600
l124 183h132l-141 -183h-115z" />
    <glyph glyph-name="acircumflex" unicode="&#xe2;" horiz-adv-x="537" 
d="M194 -12q-72 0 -111.5 39.5t-39.5 110.5q0 164 206 164h100v11q0 44 -8 67.5t-28 32.5t-58 9q-71 0 -152 -29l-25 97q93 34 193 34q106 0 150.5 -44.5t44.5 -150.5v-329h-98l-11 75q-54 -87 -163 -87zM239 84q67 0 110 43v98h-92q-93 0 -93 -73q0 -68 75 -68zM82 600
l129 183h125l128 -183h-112l-79 113l-79 -113h-112z" />
    <glyph glyph-name="atilde" unicode="&#xe3;" horiz-adv-x="537" 
d="M194 -12q-72 0 -111.5 39.5t-39.5 110.5q0 164 206 164h100v11q0 44 -8 67.5t-28 32.5t-58 9q-71 0 -152 -29l-25 97q93 34 193 34q106 0 150.5 -44.5t44.5 -150.5v-329h-98l-11 75q-54 -87 -163 -87zM239 84q67 0 110 43v98h-92q-93 0 -93 -73q0 -68 75 -68zM89 600
q0 98 24 137t85 39q32 0 54 -12.5t41 -38.5l9 -12q17 -22 25 -29.5t18 -7.5q14 0 18.5 20.5t4.5 74.5h88q0 -97 -24 -136.5t-83 -39.5q-34 0 -55.5 12.5t-41.5 38.5l-9 12q-16 22 -24.5 29.5t-18.5 7.5q-14 0 -18.5 -20.5t-4.5 -74.5h-88z" />
    <glyph glyph-name="adieresis" unicode="&#xe4;" horiz-adv-x="537" 
d="M194 -12q-72 0 -111.5 39.5t-39.5 110.5q0 164 206 164h100v11q0 44 -8 67.5t-28 32.5t-58 9q-71 0 -152 -29l-25 97q93 34 193 34q106 0 150.5 -44.5t44.5 -150.5v-329h-98l-11 75q-54 -87 -163 -87zM239 84q67 0 110 43v98h-92q-93 0 -93 -73q0 -68 75 -68zM110 608
v122h119v-122h-119zM316 608v122h119v-122h-119z" />
    <glyph glyph-name="aring" unicode="&#xe5;" horiz-adv-x="537" 
d="M194 -12q-72 0 -111.5 39.5t-39.5 110.5q0 164 206 164h100v11q0 44 -8 67.5t-28 32.5t-58 9q-71 0 -152 -29l-25 97q93 34 193 34q106 0 150.5 -44.5t44.5 -150.5v-329h-98l-11 75q-54 -87 -163 -87zM239 84q67 0 110 43v98h-92q-93 0 -93 -73q0 -68 75 -68zM273 593
q-55 0 -90 34.5t-35 89.5q0 56 35 90t90 34q56 0 90.5 -34t34.5 -90t-34.5 -90t-90.5 -34zM273 659q25 0 40 15.5t15 42.5q0 26 -15 42t-40 16t-40 -15.5t-15 -42.5q0 -26 15 -42t40 -16z" />
    <glyph glyph-name="ae" unicode="&#xe6;" horiz-adv-x="840" 
d="M205 -12q-78 0 -120 38.5t-42 111.5q0 162 206 162h102q-1 51 -9 77.5t-28.5 36t-58.5 9.5q-34 0 -71 -7t-81 -23l-25 97q45 17 94.5 26t98.5 9q107 0 149 -61q24 28 65 44.5t91 16.5q216 0 216 -271v-39h-327q5 -68 37 -97.5t99 -29.5q69 0 141 32l29 -92
q-76 -42 -180 -42q-141 0 -198 92q-31 -42 -80 -66t-108 -24zM574 429q-51 0 -77 -31t-32 -100h207q-1 68 -24.5 99.5t-73.5 31.5zM242 84q60 0 125 53q-11 38 -15 86h-95q-93 0 -93 -71q0 -68 78 -68z" />
    <glyph glyph-name="ccedilla" unicode="&#xe7;" horiz-adv-x="465" 
d="M286 -14q-120 0 -178 65t-58 201q0 133 63 203t182 70q76 0 137 -30l-29 -93q-31 11 -53 16t-45 5q-70 0 -100.5 -40.5t-30.5 -132.5q0 -85 30.5 -123.5t99.5 -38.5q51 0 103 21l26 -91q-55 -32 -147 -32zM257 -266q-23 0 -47.5 3t-45.5 10v76q44 -10 80 -10q34 0 48 8.5
t14 25.5q0 20 -19.5 29.5t-72.5 10.5l20 124l71 -1l-11 -61q56 -8 84.5 -33.5t28.5 -71.5q0 -110 -150 -110z" />
    <glyph glyph-name="egrave" unicode="&#xe8;" horiz-adv-x="545" 
d="M296 -14q-124 0 -185 65.5t-61 199.5q0 132 59.5 203t171.5 71q216 0 216 -271v-42h-327q6 -67 38 -95.5t99 -28.5q68 0 140 32l29 -92q-76 -42 -180 -42zM279 429q-52 0 -78 -31.5t-31 -102.5h207q-1 70 -24.5 102t-73.5 32zM235 600l-141 183h132l124 -183h-115z" />
    <glyph glyph-name="eacute" unicode="&#xe9;" horiz-adv-x="545" 
d="M296 -14q-124 0 -185 65.5t-61 199.5q0 132 59.5 203t171.5 71q216 0 216 -271v-42h-327q6 -67 38 -95.5t99 -28.5q68 0 140 32l29 -92q-76 -42 -180 -42zM279 429q-52 0 -78 -31.5t-31 -102.5h207q-1 70 -24.5 102t-73.5 32zM206 600l124 183h132l-141 -183h-115z" />
    <glyph glyph-name="ecircumflex" unicode="&#xea;" horiz-adv-x="545" 
d="M296 -14q-124 0 -185 65.5t-61 199.5q0 132 59.5 203t171.5 71q216 0 216 -271v-42h-327q6 -67 38 -95.5t99 -28.5q68 0 140 32l29 -92q-76 -42 -180 -42zM279 429q-52 0 -78 -31.5t-31 -102.5h207q-1 70 -24.5 102t-73.5 32zM87 600l129 183h125l128 -183h-112l-79 113
l-79 -113h-112z" />
    <glyph glyph-name="edieresis" unicode="&#xeb;" horiz-adv-x="545" 
d="M296 -14q-124 0 -185 65.5t-61 199.5q0 132 59.5 203t171.5 71q216 0 216 -271v-42h-327q6 -67 38 -95.5t99 -28.5q68 0 140 32l29 -92q-76 -42 -180 -42zM279 429q-52 0 -78 -31.5t-31 -102.5h207q-1 70 -24.5 102t-73.5 32zM115 608v122h119v-122h-119zM321 608v122
h119v-122h-119z" />
    <glyph glyph-name="igrave" unicode="&#xec;" horiz-adv-x="294" 
d="M102 0v421h-79v91h197v-512h-118zM99 600l-141 183h132l124 -183h-115z" />
    <glyph glyph-name="iacute" unicode="&#xed;" horiz-adv-x="294" 
d="M102 0v421h-79v91h197v-512h-118zM70 600l124 183h132l-141 -183h-115z" />
    <glyph glyph-name="icircumflex" unicode="&#xee;" horiz-adv-x="294" 
d="M102 0v421h-79v91h197v-512h-118zM-49 600l129 183h125l128 -183h-112l-79 113l-79 -113h-112z" />
    <glyph glyph-name="idieresis" unicode="&#xef;" horiz-adv-x="294" 
d="M102 0v421h-79v91h197v-512h-118zM-21 608v122h119v-122h-119zM185 608v122h119v-122h-119z" />
    <glyph glyph-name="eth" unicode="&#xf0;" horiz-adv-x="571" 
d="M279 -14q-108 0 -167 64t-59 180q0 105 51.5 166.5t138.5 61.5q86 0 141 -64q-26 93 -110 158l-118 -67l-34 65l82 47q-37 19 -83 38l39 83q83 -26 146 -64l114 65l34 -65l-82 -46q146 -123 146 -339q0 -137 -61.5 -210t-177.5 -73zM176 225q0 -73 26 -107t81 -34
q57 0 84.5 46t27.5 143q0 28 -2 50q-52 41 -113 41q-104 0 -104 -139z" />
    <glyph glyph-name="ntilde" unicode="&#xf1;" horiz-adv-x="575" 
d="M76 0v512h98l12 -86q48 98 159 98q76 0 117 -44t41 -127v-353h-120v344q0 79 -79 79q-59 0 -108 -41v-382h-120zM105 600q0 98 24 137t85 39q32 0 54 -12.5t41 -38.5l9 -12q17 -22 25 -29.5t18 -7.5q14 0 18.5 20.5t4.5 74.5h88q0 -97 -24 -136.5t-83 -39.5
q-34 0 -55.5 12.5t-41.5 38.5l-9 12q-16 22 -24.5 29.5t-18.5 7.5q-14 0 -18.5 -20.5t-4.5 -74.5h-88z" />
    <glyph glyph-name="ograve" unicode="&#xf2;" horiz-adv-x="562" 
d="M281 -14q-112 0 -171.5 70t-59.5 200q0 132 59 200.5t172 68.5t172 -68.5t59 -200.5q0 -130 -59.5 -200t-171.5 -70zM281 84q56 0 81.5 41t25.5 131t-25.5 130.5t-81.5 40.5t-81.5 -40.5t-25.5 -130.5t25.5 -131t81.5 -41zM238 600l-141 183h132l124 -183h-115z" />
    <glyph glyph-name="oacute" unicode="&#xf3;" horiz-adv-x="562" 
d="M281 -14q-112 0 -171.5 70t-59.5 200q0 132 59 200.5t172 68.5t172 -68.5t59 -200.5q0 -130 -59.5 -200t-171.5 -70zM281 84q56 0 81.5 41t25.5 131t-25.5 130.5t-81.5 40.5t-81.5 -40.5t-25.5 -130.5t25.5 -131t81.5 -41zM209 600l124 183h132l-141 -183h-115z" />
    <glyph glyph-name="ocircumflex" unicode="&#xf4;" horiz-adv-x="562" 
d="M281 -14q-112 0 -171.5 70t-59.5 200q0 132 59 200.5t172 68.5t172 -68.5t59 -200.5q0 -130 -59.5 -200t-171.5 -70zM281 84q56 0 81.5 41t25.5 131t-25.5 130.5t-81.5 40.5t-81.5 -40.5t-25.5 -130.5t25.5 -131t81.5 -41zM90 600l129 183h125l128 -183h-112l-79 113
l-79 -113h-112z" />
    <glyph glyph-name="otilde" unicode="&#xf5;" horiz-adv-x="562" 
d="M281 -14q-112 0 -171.5 70t-59.5 200q0 132 59 200.5t172 68.5t172 -68.5t59 -200.5q0 -130 -59.5 -200t-171.5 -70zM281 84q56 0 81.5 41t25.5 131t-25.5 130.5t-81.5 40.5t-81.5 -40.5t-25.5 -130.5t25.5 -131t81.5 -41zM97 600q0 98 24 137t85 39q32 0 54 -12.5
t41 -38.5l9 -12q17 -22 25 -29.5t18 -7.5q14 0 18.5 20.5t4.5 74.5h88q0 -97 -24 -136.5t-83 -39.5q-34 0 -55.5 12.5t-41.5 38.5l-9 12q-16 22 -24.5 29.5t-18.5 7.5q-14 0 -18.5 -20.5t-4.5 -74.5h-88z" />
    <glyph glyph-name="odieresis" unicode="&#xf6;" horiz-adv-x="562" 
d="M281 -14q-112 0 -171.5 70t-59.5 200q0 132 59 200.5t172 68.5t172 -68.5t59 -200.5q0 -130 -59.5 -200t-171.5 -70zM281 84q56 0 81.5 41t25.5 131t-25.5 130.5t-81.5 40.5t-81.5 -40.5t-25.5 -130.5t25.5 -131t81.5 -41zM118 608v122h119v-122h-119zM324 608v122h119
v-122h-119z" />
    <glyph glyph-name="divide" unicode="&#xf7;" 
d="M232 467v108h116v-108h-116zM71 283v102h438v-102h-438zM232 93v108h116v-108h-116z" />
    <glyph glyph-name="oslash" unicode="&#xf8;" horiz-adv-x="562" 
d="M116 -42l-54 37l44 63q-56 69 -56 198q0 132 59 200.5t172 68.5q74 0 126 -30l39 58l54 -37l-44 -63q56 -69 56 -197q0 -130 -59.5 -200t-171.5 -70q-74 0 -125 30zM168 256q0 -61 10 -100l171 255q-24 19 -68 19q-59 0 -86 -41t-27 -133zM281 81q59 0 86 42t27 133
q0 60 -10 99l-171 -255q24 -19 68 -19z" />
    <glyph glyph-name="ugrave" unicode="&#xf9;" horiz-adv-x="571" 
d="M226 -12q-154 0 -154 186v338h120v-332q0 -49 17.5 -70t58.5 -21q62 0 107 42v381h120v-512h-98l-12 80q-53 -92 -159 -92zM241 600l-141 183h132l124 -183h-115z" />
    <glyph glyph-name="uacute" unicode="&#xfa;" horiz-adv-x="571" 
d="M226 -12q-154 0 -154 186v338h120v-332q0 -49 17.5 -70t58.5 -21q62 0 107 42v381h120v-512h-98l-12 80q-53 -92 -159 -92zM212 600l124 183h132l-141 -183h-115z" />
    <glyph glyph-name="ucircumflex" unicode="&#xfb;" horiz-adv-x="571" 
d="M226 -12q-154 0 -154 186v338h120v-332q0 -49 17.5 -70t58.5 -21q62 0 107 42v381h120v-512h-98l-12 80q-53 -92 -159 -92zM93 600l129 183h125l128 -183h-112l-79 113l-79 -113h-112z" />
    <glyph glyph-name="udieresis" unicode="&#xfc;" horiz-adv-x="571" 
d="M226 -12q-154 0 -154 186v338h120v-332q0 -49 17.5 -70t58.5 -21q62 0 107 42v381h120v-512h-98l-12 80q-53 -92 -159 -92zM121 608v122h119v-122h-119zM327 608v122h119v-122h-119z" />
    <glyph glyph-name="yacute" unicode="&#xfd;" horiz-adv-x="490" 
d="M88 -202q-41 0 -80 12v87q17 -4 32.5 -5.5t29.5 -1.5q45 0 72 23.5t49 81.5l-184 517h130l112 -362l109 362h128l-202 -568q-28 -77 -74 -111.5t-122 -34.5zM175 600l124 183h132l-141 -183h-115z" />
    <glyph glyph-name="thorn" unicode="&#xfe;" horiz-adv-x="581" 
d="M76 -192v904h120v-261q51 73 151 73q89 0 136.5 -70t47.5 -199t-47.5 -198.5t-136.5 -69.5q-97 0 -151 70v-249h-120zM306 88q53 0 77 40t24 127t-24 127.5t-77 40.5q-60 0 -110 -39v-257q50 -39 110 -39z" />
    <glyph glyph-name="ydieresis" unicode="&#xff;" horiz-adv-x="490" 
d="M88 -202q-41 0 -80 12v87q17 -4 32.5 -5.5t29.5 -1.5q45 0 72 23.5t49 81.5l-184 517h130l112 -362l109 362h128l-202 -568q-28 -77 -74 -111.5t-122 -34.5zM84 608v122h119v-122h-119zM290 608v122h119v-122h-119z" />
    <glyph glyph-name="Abreve" unicode="&#x102;" horiz-adv-x="639" 
d="M26 0l216 674h162l209 -674h-128l-44 153h-245l-45 -153h-125zM226 253h186l-91 319zM323 738q-87 0 -130 45.5t-43 126.5h100q0 -43 17.5 -67t55.5 -24t56 24t18 67h100q0 -81 -43.5 -126.5t-130.5 -45.5z" />
    <glyph glyph-name="abreve" unicode="&#x103;" horiz-adv-x="537" 
d="M194 -12q-72 0 -111.5 39.5t-39.5 110.5q0 164 206 164h100v11q0 44 -8 67.5t-28 32.5t-58 9q-71 0 -152 -29l-25 97q93 34 193 34q106 0 150.5 -44.5t44.5 -150.5v-329h-98l-11 75q-54 -87 -163 -87zM239 84q67 0 110 43v98h-92q-93 0 -93 -73q0 -68 75 -68zM271 595
q-171 0 -171 176h100q0 -51 17 -73t54 -22q38 0 55 22.5t17 72.5h100q0 -176 -172 -176z" />
    <glyph glyph-name="Aogonek" unicode="&#x104;" horiz-adv-x="639" 
d="M26 0l216 674h162l209 -674h-128l-44 153h-245l-45 -153h-125zM226 253h186l-91 319zM552 -224q-59 0 -96 27t-37 78t26.5 83t66.5 52l101 -16q-41 -20 -67.5 -42.5t-26.5 -51.5q0 -24 16 -34t47 -10q22 0 43 6v-81q-15 -5 -32 -8t-41 -3z" />
    <glyph glyph-name="aogonek" unicode="&#x105;" horiz-adv-x="537" 
d="M194 -12q-72 0 -111.5 39.5t-39.5 110.5q0 164 206 164h100v11q0 44 -8 67.5t-28 32.5t-58 9q-71 0 -152 -29l-25 97q93 34 193 34q106 0 150.5 -44.5t44.5 -150.5v-329h-98l-11 75q-54 -87 -163 -87zM239 84q67 0 110 43v98h-92q-93 0 -93 -73q0 -68 75 -68zM405 -224
q-59 0 -95 28t-36 77q0 47 31.5 81t81.5 52l79 -14q-41 -20 -66.5 -42.5t-25.5 -51.5q0 -24 15 -34t46 -10q22 0 43 6v-81q-15 -5 -32 -8t-41 -3z" />
    <glyph glyph-name="Cacute" unicode="&#x106;" horiz-adv-x="557" 
d="M348 -14q-150 0 -221 83.5t-71 259.5q0 359 295 359q48 0 93.5 -8.5t76.5 -24.5l-30 -95q-64 23 -125 23q-97 0 -139.5 -59.5t-42.5 -195.5q0 -87 17.5 -139t57 -75t104.5 -23q78 0 132 25l27 -95q-30 -16 -75.5 -25.5t-98.5 -9.5zM246 747l132 163h147l-157 -163h-122z
" />
    <glyph glyph-name="cacute" unicode="&#x107;" horiz-adv-x="465" 
d="M286 -14q-120 0 -178 65t-58 201q0 133 63 203t182 70q76 0 137 -30l-29 -93q-31 11 -53 16t-45 5q-70 0 -100.5 -40.5t-30.5 -132.5q0 -85 30.5 -123.5t99.5 -38.5q51 0 103 21l26 -91q-55 -32 -147 -32zM192 600l124 183h132l-141 -183h-115z" />
    <glyph glyph-name="Eogonek" unicode="&#x118;" horiz-adv-x="559" 
d="M81 0v674h419v-102h-297v-179h255v-102h-255v-189h300v-102q-94 -42 -94 -96q0 -42 63 -42q19 0 43 6v-81q-29 -11 -73 -11q-61 0 -97 28.5t-36 77.5q0 80 79 118h-307z" />
    <glyph glyph-name="eogonek" unicode="&#x119;" horiz-adv-x="545" 
d="M407 -224q-59 0 -94 28.5t-35 76.5q0 64 60 108q-21 -3 -42 -3q-124 0 -185 65.5t-61 199.5q0 132 59.5 203t171.5 71q216 0 216 -271v-42h-327q6 -67 38 -95.5t99 -28.5q68 0 140 32l29 -89q-47 -26 -72.5 -58t-25.5 -64q0 -47 59 -47q19 0 43 6v-81q-29 -11 -73 -11z
M279 429q-52 0 -78 -31.5t-31 -102.5h207q-1 70 -24.5 102t-73.5 32z" />
    <glyph glyph-name="dotlessi" unicode="&#x131;" horiz-adv-x="294" 
d="M102 0v421h-79v91h197v-512h-118z" />
    <glyph glyph-name="IJ" unicode="&#x132;" horiz-adv-x="746" 
d="M81 0v674h124v-674h-124zM462 -14q-79 0 -141 30l33 100q54 -23 94 -23q54 0 76.5 30t22.5 101v348h-175v102h299v-464q0 -115 -51 -169.5t-158 -54.5z" />
    <glyph glyph-name="ij" unicode="&#x133;" horiz-adv-x="588" 
d="M93 609v122h126v-122h-126zM102 0v421h-79v91h197v-512h-118zM387 609v122h126v-122h-126zM368 -202q-18 0 -33 2t-30 6v89q11 -2 21 -3t18 -1q29 0 40.5 13.5t11.5 48.5v468h-79v91h197v-544q0 -92 -35 -131t-111 -39z" />
    <glyph glyph-name="Lslash" unicode="&#x141;" horiz-adv-x="541" 
d="M105 0v224l-77 -44v98l77 44v352h122v-282l163 93v-98l-163 -93v-192h274v-102h-396z" />
    <glyph glyph-name="lslash" unicode="&#x142;" horiz-adv-x="359" 
d="M22 230v97l78 42v343h116v-280l105 57v-97l-105 -57v-200q0 -28 10.5 -39t35.5 -11q10 0 20 1t20 3v-89q-17 -4 -33 -6t-34 -2q-73 0 -104 35.5t-31 119.5v125z" />
    <glyph glyph-name="Nacute" unicode="&#x143;" horiz-adv-x="686" 
d="M81 0v674h137l274 -516v516h113v-674h-137l-274 520v-520h-113zM250 747l132 163h147l-157 -163h-122z" />
    <glyph glyph-name="nacute" unicode="&#x144;" horiz-adv-x="575" 
d="M76 0v512h98l12 -86q48 98 159 98q76 0 117 -44t41 -127v-353h-120v344q0 79 -79 79q-59 0 -108 -41v-382h-120zM217 600l124 183h132l-141 -183h-115z" />
    <glyph glyph-name="OE" unicode="&#x152;" horiz-adv-x="961" 
d="M317 -14q-130 0 -196 88.5t-66 261.5q0 352 261 352q130 0 173 -82v68h413v-102h-297v-179h255v-102h-255v-189h300v-102h-416v68q-43 -82 -172 -82zM336 91q80 0 116.5 58.5t36.5 188.5q0 129 -36.5 187t-116.5 58q-79 0 -116 -59t-37 -188q0 -128 36.5 -186.5
t116.5 -58.5z" />
    <glyph glyph-name="oe" unicode="&#x153;" horiz-adv-x="887" 
d="M281 -14q-112 0 -171.5 70t-59.5 200q0 132 59 200.5t172 68.5q121 0 170 -86q51 86 172 86q216 0 216 -271v-42h-327q6 -67 38 -95.5t99 -28.5q68 0 140 32l29 -92q-76 -42 -180 -42q-140 0 -188 86q-44 -86 -169 -86zM621 429q-52 0 -78 -31.5t-31 -102.5h207
q-1 70 -24.5 102t-73.5 32zM281 84q56 0 81.5 41t25.5 131t-25.5 130.5t-81.5 40.5t-81.5 -40.5t-25.5 -130.5t25.5 -131t81.5 -41z" />
    <glyph glyph-name="Sacute" unicode="&#x15a;" horiz-adv-x="562" 
d="M261 -14q-125 0 -215 48l32 99q36 -20 83 -31t96 -11q127 0 127 95q0 41 -20.5 63t-70.5 33l-65 15q-87 20 -125 64.5t-38 126.5q0 97 60.5 148.5t173.5 51.5q47 0 98 -10.5t97 -29.5l-27 -98q-74 33 -156 33q-64 0 -94 -21.5t-30 -70.5q0 -37 18.5 -56t68.5 -32l53 -13
q98 -24 140.5 -71.5t42.5 -130.5q0 -202 -249 -202zM197 747l132 163h147l-157 -163h-122z" />
    <glyph glyph-name="sacute" unicode="&#x15b;" horiz-adv-x="458" 
d="M214 -14q-50 0 -98 11t-81 30l26 96q32 -18 73 -28.5t82 -10.5q90 0 90 60q0 26 -14 38t-52 21l-55 12q-71 15 -104.5 51.5t-33.5 98.5q0 73 52.5 116t140.5 43q54 0 91 -7t76 -26l-22 -91q-33 14 -65 20t-72 6q-43 0 -66 -14.5t-23 -41.5q0 -24 15 -36t55 -22l41 -10
q59 -14 91.5 -33.5t46 -49.5t13.5 -79q0 -154 -207 -154zM168 600l124 183h132l-141 -183h-115z" />
    <glyph glyph-name="Scaron" unicode="&#x160;" horiz-adv-x="562" 
d="M261 -14q-125 0 -215 48l32 99q36 -20 83 -31t96 -11q127 0 127 95q0 41 -20.5 63t-70.5 33l-65 15q-87 20 -125 64.5t-38 126.5q0 97 60.5 148.5t173.5 51.5q47 0 98 -10.5t97 -29.5l-27 -98q-74 33 -156 33q-64 0 -94 -21.5t-30 -70.5q0 -37 18.5 -56t68.5 -32l53 -13
q98 -24 140.5 -71.5t42.5 -130.5q0 -202 -249 -202zM222 747l-124 163h120l72 -99l72 99h119l-125 -163h-134z" />
    <glyph glyph-name="scaron" unicode="&#x161;" horiz-adv-x="458" 
d="M214 -14q-50 0 -98 11t-81 30l26 96q32 -18 73 -28.5t82 -10.5q90 0 90 60q0 26 -14 38t-52 21l-55 12q-71 15 -104.5 51.5t-33.5 98.5q0 73 52.5 116t140.5 43q54 0 91 -7t76 -26l-22 -91q-33 14 -65 20t-72 6q-43 0 -66 -14.5t-23 -41.5q0 -24 15 -36t55 -22l41 -10
q59 -14 91.5 -33.5t46 -49.5t13.5 -79q0 -154 -207 -154zM177 600l-128 183h112l79 -113l79 113h112l-129 -183h-125z" />
    <glyph glyph-name="Wcircumflex" unicode="&#x174;" horiz-adv-x="854" 
d="M163 0l-140 674h119l106 -571l105 556h150l107 -558l107 573h114l-140 -674h-166l-98 531l-98 -531h-166zM236 747l125 163h134l124 -163h-120l-72 99l-72 -99h-119z" />
    <glyph glyph-name="wcircumflex" unicode="&#x175;" horiz-adv-x="762" 
d="M138 0l-125 512h127l77 -412l98 402h137l96 -406l81 416h120l-125 -512h-147l-95 396l-97 -396h-147zM193 600l129 183h125l128 -183h-112l-79 113l-79 -113h-112z" />
    <glyph glyph-name="Ycircumflex" unicode="&#x176;" horiz-adv-x="585" 
d="M230 0v232l-221 442h133l154 -318l158 318h122l-222 -434v-240h-124zM106 747l125 163h134l124 -163h-120l-72 99l-72 -99h-119z" />
    <glyph glyph-name="ycircumflex" unicode="&#x177;" horiz-adv-x="490" 
d="M88 -202q-41 0 -80 12v87q17 -4 32.5 -5.5t29.5 -1.5q45 0 72 23.5t49 81.5l-184 517h130l112 -362l109 362h128l-202 -568q-28 -77 -74 -111.5t-122 -34.5zM56 600l129 183h125l128 -183h-112l-79 113l-79 -113h-112z" />
    <glyph glyph-name="Ydieresis" unicode="&#x178;" horiz-adv-x="585" 
d="M230 0v232l-221 442h133l154 -318l158 318h122l-222 -434v-240h-124zM135 752v123h119v-123h-119zM341 752v123h119v-123h-119z" />
    <glyph glyph-name="Zacute" unicode="&#x179;" horiz-adv-x="560" 
d="M49 0v82l315 490h-307v102h455v-83l-314 -489h319v-102h-468zM195 747l132 163h147l-157 -163h-122z" />
    <glyph glyph-name="zacute" unicode="&#x17a;" horiz-adv-x="481" 
d="M53 0v74l234 347h-230v91h366v-74l-234 -347h239v-91h-375zM165 600l124 183h132l-141 -183h-115z" />
    <glyph glyph-name="Zdotaccent" unicode="&#x17b;" horiz-adv-x="560" 
d="M49 0v82l315 490h-307v102h455v-83l-314 -489h319v-102h-468zM225 752v122h126v-122h-126z" />
    <glyph glyph-name="zdotaccent" unicode="&#x17c;" horiz-adv-x="481" 
d="M53 0v74l234 347h-230v91h366v-74l-234 -347h239v-91h-375zM174 609v122h126v-122h-126z" />
    <glyph glyph-name="Zcaron" unicode="&#x17d;" horiz-adv-x="560" 
d="M49 0v82l315 490h-307v102h455v-83l-314 -489h319v-102h-468zM220 747l-124 163h120l72 -99l72 99h119l-125 -163h-134z" />
    <glyph glyph-name="zcaron" unicode="&#x17e;" horiz-adv-x="481" 
d="M53 0v74l234 347h-230v91h366v-74l-234 -347h239v-91h-375zM174 600l-128 183h112l79 -113l79 113h112l-129 -183h-125z" />
    <glyph glyph-name="uni0218" unicode="&#x218;" horiz-adv-x="562" 
d="M261 -14q-125 0 -215 48l32 99q36 -20 83 -31t96 -11q127 0 127 95q0 41 -20.5 63t-70.5 33l-65 15q-87 20 -125 64.5t-38 126.5q0 97 60.5 148.5t173.5 51.5q47 0 98 -10.5t97 -29.5l-27 -98q-74 33 -156 33q-64 0 -94 -21.5t-30 -70.5q0 -37 18.5 -56t68.5 -32l53 -13
q98 -24 140.5 -71.5t42.5 -130.5q0 -202 -249 -202zM199 -265l23 181h111l-43 -181h-91z" />
    <glyph glyph-name="uni0219" unicode="&#x219;" horiz-adv-x="458" 
d="M214 -14q-50 0 -98 11t-81 30l26 96q32 -18 73 -28.5t82 -10.5q90 0 90 60q0 26 -14 38t-52 21l-55 12q-71 15 -104.5 51.5t-33.5 98.5q0 73 52.5 116t140.5 43q54 0 91 -7t76 -26l-22 -91q-33 14 -65 20t-72 6q-43 0 -66 -14.5t-23 -41.5q0 -24 15 -36t55 -22l41 -10
q59 -14 91.5 -33.5t46 -49.5t13.5 -79q0 -154 -207 -154zM153 -265l23 181h111l-43 -181h-91z" />
    <glyph glyph-name="uni021A" unicode="&#x21a;" horiz-adv-x="540" 
d="M208 0v572h-186v102h496v-102h-186v-572h-124zM188 -265l23 181h111l-43 -181h-91z" />
    <glyph glyph-name="uni021B" unicode="&#x21b;" horiz-adv-x="406" 
d="M279 -8q-95 0 -135 41.5t-40 139.5v248h-86v86l53 3q23 2 33 9.5t11 26.5l9 121h98v-155h155v-91h-155v-262q0 -43 17 -58.5t64 -15.5q14 0 29.5 1.5t39.5 4.5v-89q-36 -10 -93 -10zM167 -265l23 181h111l-43 -181h-91z" />
    <glyph glyph-name="uni0237" unicode="&#x237;" horiz-adv-x="294" 
d="M74 -202q-18 0 -33 2t-30 6v89q11 -2 21 -3t18 -1q29 0 40.5 13.5t11.5 48.5v468h-79v91h197v-544q0 -92 -35 -131t-111 -39z" />
    <glyph glyph-name="circumflex" unicode="&#x2c6;" horiz-adv-x="442" 
d="M30 600l129 183h125l128 -183h-112l-79 113l-79 -113h-112z" />
    <glyph glyph-name="caron" unicode="&#x2c7;" horiz-adv-x="442" 
d="M158 600l-128 183h112l79 -113l79 113h112l-129 -183h-125z" />
    <glyph glyph-name="breve" unicode="&#x2d8;" horiz-adv-x="403" 
d="M201 595q-171 0 -171 176h100q0 -51 17 -73t54 -22q38 0 55 22.5t17 72.5h100q0 -176 -172 -176z" />
    <glyph glyph-name="dotaccent" unicode="&#x2d9;" horiz-adv-x="186" 
d="M30 609v122h126v-122h-126z" />
    <glyph glyph-name="ring" unicode="&#x2da;" horiz-adv-x="310" 
d="M155 593q-55 0 -90 34.5t-35 89.5q0 56 35 90t90 34q56 0 90.5 -34t34.5 -90t-34.5 -90t-90.5 -34zM155 659q25 0 40 15.5t15 42.5q0 26 -15 42t-40 16t-40 -15.5t-15 -42.5q0 -26 15 -42t40 -16z" />
    <glyph glyph-name="ogonek" unicode="&#x2db;" horiz-adv-x="263" 
d="M160 -224q-59 0 -95 28t-36 77q0 47 31.5 81t81.5 52l79 -14q-41 -20 -66.5 -42.5t-25.5 -51.5q0 -24 15 -34t46 -10q22 0 43 6v-81q-15 -5 -32 -8t-41 -3z" />
    <glyph glyph-name="tilde" unicode="&#x2dc;" horiz-adv-x="427" 
d="M30 600q0 98 24 137t85 39q32 0 54 -12.5t41 -38.5l9 -12q17 -22 25 -29.5t18 -7.5q14 0 18.5 20.5t4.5 74.5h88q0 -97 -24 -136.5t-83 -39.5q-34 0 -55.5 12.5t-41.5 38.5l-9 12q-16 22 -24.5 29.5t-18.5 7.5q-14 0 -18.5 -20.5t-4.5 -74.5h-88z" />
    <glyph glyph-name="gravecomb" unicode="&#x300;" horiz-adv-x="0" 
d="M-43 600l-141 183h132l124 -183h-115z" />
    <glyph glyph-name="acutecomb" unicode="&#x301;" horiz-adv-x="0" 
d="M-72 600l124 183h132l-141 -183h-115z" />
    <glyph glyph-name="uni0302" unicode="&#x302;" horiz-adv-x="0" 
d="M-191 600l129 183h125l128 -183h-112l-79 113l-79 -113h-112z" />
    <glyph glyph-name="tildecomb" unicode="&#x303;" horiz-adv-x="0" 
d="M-184 600q0 98 24 137t85 39q32 0 54 -12.5t41 -38.5l9 -12q17 -22 25 -29.5t18 -7.5q14 0 18.5 20.5t4.5 74.5h88q0 -97 -24 -136.5t-83 -39.5q-34 0 -55.5 12.5t-41.5 38.5l-9 12q-16 22 -24.5 29.5t-18.5 7.5q-14 0 -18.5 -20.5t-4.5 -74.5h-88z" />
    <glyph glyph-name="uni0306" unicode="&#x306;" horiz-adv-x="0" 
d="M-2 595q-171 0 -171 176h100q0 -51 17 -73t54 -22q38 0 55 22.5t17 72.5h100q0 -176 -172 -176z" />
    <glyph glyph-name="uni0307" unicode="&#x307;" horiz-adv-x="0" 
d="M-63 609v122h126v-122h-126z" />
    <glyph glyph-name="uni0308" unicode="&#x308;" horiz-adv-x="0" 
d="M-163 608v122h119v-122h-119zM43 608v122h119v-122h-119z" />
    <glyph glyph-name="uni030A" unicode="&#x30a;" horiz-adv-x="0" 
d="M0 593q-55 0 -90 34.5t-35 89.5q0 56 35 90t90 34q56 0 90.5 -34t34.5 -90t-34.5 -90t-90.5 -34zM0 659q25 0 40 15.5t15 42.5q0 26 -15 42t-40 16t-40 -15.5t-15 -42.5q0 -26 15 -42t40 -16z" />
    <glyph glyph-name="uni030C" unicode="&#x30c;" horiz-adv-x="0" 
d="M-63 600l-128 183h112l79 -113l79 113h112l-129 -183h-125z" />
    <glyph glyph-name="uni0326" unicode="&#x326;" horiz-adv-x="0" 
d="M-82 -265l23 181h111l-43 -181h-91z" />
    <glyph glyph-name="uni0327" unicode="&#x327;" horiz-adv-x="0" 
d="M-21 -266q-23 0 -47.5 3t-45.5 10v76q44 -10 80 -10q34 0 48 8.5t14 25.5q0 20 -19.5 29.5t-72.5 10.5l20 124l71 -1l-11 -61q56 -8 84.5 -33.5t28.5 -71.5q0 -110 -150 -110z" />
    <glyph glyph-name="uni0328" unicode="&#x328;" horiz-adv-x="0" 
d="M-60 -224q-59 0 -95 28t-36 77q0 47 31.5 81t81.5 52l79 -14q-41 -20 -66.5 -42.5t-25.5 -51.5q0 -24 15 -34t46 -10q22 0 43 6v-81q-15 -5 -32 -8t-41 -3z" />
    <glyph glyph-name="Wgrave" unicode="&#x1e80;" horiz-adv-x="854" 
d="M163 0l-140 674h119l106 -571l105 556h150l107 -558l107 573h114l-140 -674h-166l-98 531l-98 -531h-166zM396 747l-157 163h147l132 -163h-122z" />
    <glyph glyph-name="wgrave" unicode="&#x1e81;" horiz-adv-x="762" 
d="M138 0l-125 512h127l77 -412l98 402h137l96 -406l81 416h120l-125 -512h-147l-95 396l-97 -396h-147zM341 600l-141 183h132l124 -183h-115z" />
    <glyph glyph-name="Wacute" unicode="&#x1e82;" horiz-adv-x="854" 
d="M163 0l-140 674h119l106 -571l105 556h150l107 -558l107 573h114l-140 -674h-166l-98 531l-98 -531h-166zM335 747l132 163h147l-157 -163h-122z" />
    <glyph glyph-name="wacute" unicode="&#x1e83;" horiz-adv-x="762" 
d="M138 0l-125 512h127l77 -412l98 402h137l96 -406l81 416h120l-125 -512h-147l-95 396l-97 -396h-147zM312 600l124 183h132l-141 -183h-115z" />
    <glyph glyph-name="Wdieresis" unicode="&#x1e84;" horiz-adv-x="854" 
d="M163 0l-140 674h119l106 -571l105 556h150l107 -558l107 573h114l-140 -674h-166l-98 531l-98 -531h-166zM265 752v123h119v-123h-119zM471 752v123h119v-123h-119z" />
    <glyph glyph-name="wdieresis" unicode="&#x1e85;" horiz-adv-x="762" 
d="M138 0l-125 512h127l77 -412l98 402h137l96 -406l81 416h120l-125 -512h-147l-95 396l-97 -396h-147zM221 608v122h119v-122h-119zM427 608v122h119v-122h-119z" />
    <glyph glyph-name="uni1E9E" unicode="&#x1e9e;" horiz-adv-x="681" 
d="M401 -12q-27 0 -55 3.5t-52 9.5l13 102q42 -11 80 -11q65 0 95 25t30 80q0 57 -32 81.5t-108 24.5h-35v76l130 193q-24 6 -51.5 10t-52.5 4q-166 0 -166 -154v-432h-124v426q0 262 284 262q61 0 121.5 -11t111.5 -32v-74l-126 -183q82 -8 128 -59t46 -136
q0 -98 -62 -151.5t-175 -53.5z" />
    <glyph glyph-name="Ygrave" unicode="&#x1ef2;" horiz-adv-x="585" 
d="M230 0v232l-221 442h133l154 -318l158 318h122l-222 -434v-240h-124zM266 747l-157 163h147l132 -163h-122z" />
    <glyph glyph-name="ygrave" unicode="&#x1ef3;" horiz-adv-x="490" 
d="M88 -202q-41 0 -80 12v87q17 -4 32.5 -5.5t29.5 -1.5q45 0 72 23.5t49 81.5l-184 517h130l112 -362l109 362h128l-202 -568q-28 -77 -74 -111.5t-122 -34.5zM204 600l-141 183h132l124 -183h-115z" />
    <glyph glyph-name="uni2000" unicode="&#x2000;" horiz-adv-x="500" 
 />
    <glyph glyph-name="uni2001" unicode="&#x2001;" horiz-adv-x="1000" 
 />
    <glyph glyph-name="uni2002" unicode="&#x2002;" horiz-adv-x="500" 
 />
    <glyph glyph-name="uni2003" unicode="&#x2003;" horiz-adv-x="1000" 
 />
    <glyph glyph-name="uni2004" unicode="&#x2004;" horiz-adv-x="333" 
 />
    <glyph glyph-name="uni2005" unicode="&#x2005;" horiz-adv-x="250" 
 />
    <glyph glyph-name="uni2006" unicode="&#x2006;" horiz-adv-x="167" 
 />
    <glyph glyph-name="uni2007" unicode="&#x2007;" 
 />
    <glyph glyph-name="uni2008" unicode="&#x2008;" horiz-adv-x="275" 
 />
    <glyph glyph-name="uni2009" unicode="&#x2009;" horiz-adv-x="200" 
 />
    <glyph glyph-name="uni200A" unicode="&#x200a;" horiz-adv-x="62" 
 />
    <glyph glyph-name="uni200B" unicode="&#x200b;" horiz-adv-x="0" 
 />
    <glyph glyph-name="uni2010" unicode="&#x2010;" horiz-adv-x="403" 
d="M53 226v110h297v-110h-297z" />
    <glyph glyph-name="uni2011" unicode="&#x2011;" horiz-adv-x="403" 
d="M53 226v110h297v-110h-297z" />
    <glyph glyph-name="endash" unicode="&#x2013;" horiz-adv-x="450" 
d="M0 229v106h450v-106h-450z" />
    <glyph glyph-name="emdash" unicode="&#x2014;" horiz-adv-x="900" 
d="M0 229v106h900v-106h-900z" />
    <glyph glyph-name="quoteleft" unicode="&#x2018;" horiz-adv-x="270" 
d="M45 409l69 265h97l-31 -265h-135z" />
    <glyph glyph-name="quoteright" unicode="&#x2019;" horiz-adv-x="270" 
d="M59 409l31 265h135l-69 -265h-97z" />
    <glyph glyph-name="quotesinglbase" unicode="&#x201a;" horiz-adv-x="270" 
d="M59 -125l31 265h135l-69 -265h-97z" />
    <glyph glyph-name="quotedblleft" unicode="&#x201c;" horiz-adv-x="473" 
d="M45 409l69 265h97l-31 -265h-135zM248 409l69 265h97l-31 -265h-135z" />
    <glyph glyph-name="quotedblright" unicode="&#x201d;" horiz-adv-x="473" 
d="M59 409l31 265h135l-69 -265h-97zM262 409l31 265h135l-69 -265h-97z" />
    <glyph glyph-name="quotedblbase" unicode="&#x201e;" horiz-adv-x="473" 
d="M59 -125l31 265h135l-69 -265h-97zM262 -125l31 265h135l-69 -265h-97z" />
    <glyph glyph-name="dagger" unicode="&#x2020;" horiz-adv-x="468" 
d="M186 122v357h-138v86h138v147h96v-147h138v-86h-138v-357h-96z" />
    <glyph glyph-name="daggerdbl" unicode="&#x2021;" horiz-adv-x="468" 
d="M186 122v141h-138v86h138v136h-138v86h138v141h96v-141h138v-86h-138v-136h138v-86h-138v-141h-96z" />
    <glyph glyph-name="bullet" unicode="&#x2022;" horiz-adv-x="538" 
d="M130 126v288h278v-288h-278z" />
    <glyph glyph-name="ellipsis" unicode="&#x2026;" horiz-adv-x="837" 
d="M70 0v140h139v-140h-139zM349 0v140h139v-140h-139zM628 0v140h139v-140h-139z" />
    <glyph glyph-name="perthousand" unicode="&#x2030;" horiz-adv-x="1258" 
d="M180 0l399 674h123l-399 -674h-123zM838 182q0 -191 -159 -191t-159 192q0 191 159 191t159 -192zM624 182q0 -60 12.5 -85.5t42.5 -25.5t42.5 25.5t12.5 86.5q0 60 -12.5 85.5t-42.5 25.5t-42.5 -25.5t-12.5 -86.5zM1215 182q0 -191 -159 -191t-159 192q0 191 159 191
t159 -192zM1001 182q0 -60 12.5 -85.5t42.5 -25.5t42.5 25.5t12.5 86.5q0 60 -12.5 85.5t-42.5 25.5t-42.5 -25.5t-12.5 -86.5zM361 492q0 -191 -159 -191t-159 192q0 191 159 191t159 -192zM147 492q0 -60 12.5 -85.5t42.5 -25.5t42.5 25.5t12.5 86.5q0 60 -12.5 85.5
t-42.5 25.5t-42.5 -25.5t-12.5 -86.5z" />
    <glyph glyph-name="guilsinglleft" unicode="&#x2039;" horiz-adv-x="438" 
d="M234 47l-183 213l183 213h152l-183 -213l183 -213h-152z" />
    <glyph glyph-name="guilsinglright" unicode="&#x203a;" horiz-adv-x="438" 
d="M204 47h-152l183 213l-183 213h152l183 -213z" />
    <glyph glyph-name="fraction" unicode="&#x2044;" horiz-adv-x="200" 
d="M-161 0l399 674h123l-399 -674h-123z" />
    <glyph glyph-name="uni2070" unicode="&#x2070;" horiz-adv-x="404" 
d="M361 582q0 -191 -159 -191t-159 192q0 191 159 191t159 -192zM147 582q0 -60 12.5 -85.5t42.5 -25.5t42.5 25.5t12.5 86.5q0 60 -12.5 85.5t-42.5 25.5t-42.5 -25.5t-12.5 -86.5z" />
    <glyph glyph-name="uni2074" unicode="&#x2074;" horiz-adv-x="407" 
d="M225 400v74h-187v70l168 220h110v-218h51v-72h-51v-74h-91zM133 546h97v133z" />
    <glyph glyph-name="uni2075" unicode="&#x2075;" horiz-adv-x="376" 
d="M180 391q-37 0 -72.5 8t-61.5 21l23 75q53 -21 108 -21q59 0 59 40q0 42 -54 42q-34 0 -66 -15l-53 31v192h253v-80h-166v-67q25 13 59 13q58 0 92 -32t34 -86q0 -59 -39.5 -90t-115.5 -31z" />
    <glyph glyph-name="uni2076" unicode="&#x2076;" horiz-adv-x="395" 
d="M205 391q-162 0 -162 184q0 199 186 199q29 0 58 -5.5t53 -15.5l-20 -76q-45 16 -81 16q-48 0 -69.5 -22t-23.5 -75q27 31 84 31q60 0 93 -30.5t33 -85.5q0 -56 -40 -88t-111 -32zM205 558q-35 0 -59 -21q2 -73 59 -73q54 0 54 48q0 46 -54 46z" />
    <glyph glyph-name="uni2077" unicode="&#x2077;" horiz-adv-x="347" 
d="M29 685v79h282v-72l-121 -292h-106l119 285h-174z" />
    <glyph glyph-name="uni2078" unicode="&#x2078;" horiz-adv-x="398" 
d="M199 391q-76 0 -115.5 28t-39.5 80q0 34 19 57t53 31q-28 10 -46 33t-18 52q0 46 41 74t106 28t106 -28t41 -74q0 -29 -17.5 -52t-46.5 -33q34 -8 53 -31t19 -57q0 -52 -39.5 -80t-115.5 -28zM199 619q54 0 54 43q0 20 -14.5 31t-39.5 11t-39.5 -11t-14.5 -31
q0 -43 54 -43zM199 461q26 0 41 12t15 32t-15 32t-41 12t-41 -12t-15 -32t15 -32t41 -12z" />
    <glyph glyph-name="uni2079" unicode="&#x2079;" horiz-adv-x="395" 
d="M190 774q162 0 162 -184q0 -199 -186 -199q-29 0 -58 5.5t-53 15.5l20 76q45 -16 81 -16q48 0 69.5 22t23.5 75q-27 -31 -84 -31q-60 0 -93 30.5t-33 85.5q0 56 40.5 88t110.5 32zM136 653q0 -46 54 -46q35 0 59 21q-2 73 -59 73q-54 0 -54 -48z" />
    <glyph glyph-name="uni2080" unicode="&#x2080;" horiz-adv-x="404" 
d="M361 82q0 -191 -159 -191t-159 192q0 191 159 191t159 -192zM147 82q0 -60 12.5 -85.5t42.5 -25.5t42.5 25.5t12.5 86.5q0 60 -12.5 85.5t-42.5 25.5t-42.5 -25.5t-12.5 -86.5z" />
    <glyph glyph-name="uni2081" unicode="&#x2081;" horiz-adv-x="287" 
d="M121 -100v248h-88v76l72 3q17 1 22.5 6.5t7.5 17.5l4 22h80v-373h-98z" />
    <glyph glyph-name="uni2082" unicode="&#x2082;" horiz-adv-x="366" 
d="M44 -100v68l122 96q28 22 38.5 38.5t10.5 36.5q0 53 -62 53q-40 0 -81 -22l-30 72q50 32 124 32q69 0 107.5 -33.5t38.5 -94.5q0 -40 -19.5 -71.5t-65.5 -65.5l-41 -30h137v-79h-279z" />
    <glyph glyph-name="uni2083" unicode="&#x2083;" horiz-adv-x="370" 
d="M165 -109q-79 0 -134 29l23 75q29 -11 54 -16t52 -5q33 0 47 8.5t14 28.5q0 36 -54 36h-56v75h61q44 0 44 34q0 19 -13 27t-44 8q-49 0 -94 -20l-26 74q58 29 130 29q66 0 105 -27t39 -74q0 -33 -18 -55t-50 -29q36 -8 56 -32t20 -58q0 -50 -42 -79t-114 -29z" />
    <glyph glyph-name="uni2084" unicode="&#x2084;" horiz-adv-x="407" 
d="M225 -100v74h-187v70l168 220h110v-218h51v-72h-51v-74h-91zM133 46h97v133z" />
    <glyph glyph-name="uni2085" unicode="&#x2085;" horiz-adv-x="376" 
d="M180 -109q-37 0 -72.5 8t-61.5 21l23 75q53 -21 108 -21q59 0 59 40q0 42 -54 42q-34 0 -66 -15l-53 31v192h253v-80h-166v-67q25 13 59 13q58 0 92 -32t34 -86q0 -59 -39.5 -90t-115.5 -31z" />
    <glyph glyph-name="uni2086" unicode="&#x2086;" horiz-adv-x="395" 
d="M205 -109q-162 0 -162 184q0 199 186 199q29 0 58 -5.5t53 -15.5l-20 -76q-45 16 -81 16q-48 0 -69.5 -22t-23.5 -75q27 31 84 31q60 0 93 -30.5t33 -85.5q0 -56 -40 -88t-111 -32zM205 58q-35 0 -59 -21q2 -73 59 -73q54 0 54 48q0 46 -54 46z" />
    <glyph glyph-name="uni2087" unicode="&#x2087;" horiz-adv-x="347" 
d="M29 185v79h282v-72l-121 -292h-106l119 285h-174z" />
    <glyph glyph-name="uni2088" unicode="&#x2088;" horiz-adv-x="398" 
d="M199 -109q-76 0 -115.5 28t-39.5 80q0 34 19 57t53 31q-28 10 -46 33t-18 52q0 46 41 74t106 28t106 -28t41 -74q0 -29 -17.5 -52t-46.5 -33q34 -8 53 -31t19 -57q0 -52 -39.5 -80t-115.5 -28zM199 119q54 0 54 43q0 20 -14.5 31t-39.5 11t-39.5 -11t-14.5 -31
q0 -43 54 -43zM199 -39q26 0 41 12t15 32t-15 32t-41 12t-41 -12t-15 -32t15 -32t41 -12z" />
    <glyph glyph-name="uni2089" unicode="&#x2089;" horiz-adv-x="395" 
d="M190 274q162 0 162 -184q0 -199 -186 -199q-29 0 -58 5.5t-53 15.5l20 76q45 -16 81 -16q48 0 69.5 22t23.5 75q-27 -31 -84 -31q-60 0 -93 30.5t-33 85.5q0 56 40.5 88t110.5 32zM136 153q0 -46 54 -46q35 0 59 21q-2 73 -59 73q-54 0 -54 -48z" />
    <glyph glyph-name="Euro" unicode="&#x20ac;" 
d="M32 212v80h65q-1 18 -1 38q0 22 1 42h-65v80h75q24 115 95.5 175.5t185.5 60.5q93 0 167 -34l-32 -97q-67 25 -120 25q-135 0 -170 -130h237l-23 -80h-227q-1 -21 -1 -44q0 -19 1 -36h211l-23 -80h-178q17 -64 58 -92.5t113 -28.5t130 25l29 -95q-32 -16 -79.5 -25.5
t-99.5 -9.5q-231 0 -275 226h-74z" />
    <glyph glyph-name="uni20BD" unicode="&#x20bd;" 
d="M101 0v103h-76v80h76v82h-76v94h76v315h230q229 0 229 -205q0 -204 -229 -204h-113v-82h182v-80h-182v-103h-117zM318 576h-100v-217h100q65 0 92.5 25.5t27.5 85.5q0 57 -27.5 81.5t-92.5 24.5z" />
    <glyph glyph-name="trademark" unicode="&#x2122;" horiz-adv-x="762" 
d="M343 360v314h92l76 -192l76 192h92v-314h-72v214l-65 -163h-62l-65 163v-214h-72zM131 360v247h-84v67h246v-67h-84v-247h-78z" />
    <glyph glyph-name="arrowleft" unicode="&#x2190;" horiz-adv-x="740" 
d="M277 93l-244 244l243 243l64 -64l-128 -128h495v-102h-495l128 -128z" />
    <glyph glyph-name="arrowup" unicode="&#x2191;" horiz-adv-x="740" 
d="M317 0v499l-126 -132l-65 63l244 244l243 -243l-64 -64l-127 133v-500h-105z" />
    <glyph glyph-name="arrowright" unicode="&#x2192;" horiz-adv-x="740" 
d="M463 93l-63 65l128 128h-495v102h495l-128 128l64 64l243 -243z" />
    <glyph glyph-name="arrowdown" unicode="&#x2193;" horiz-adv-x="740" 
d="M370 0l-244 244l65 63l126 -132v499h105v-500l127 133l64 -64z" />
    <glyph glyph-name="minus" unicode="&#x2212;" 
d="M71 282v102h438v-102h-438z" />
    <glyph glyph-name="uniFEFF" unicode="&#xfeff;" horiz-adv-x="0" 
 />
    <glyph glyph-name="zero.pnum" horiz-adv-x="624" 
d="M568 337q0 -173 -65 -262t-191 -89t-191 89t-65 262t65 262t191 89t191 -89t65 -262zM183 337q0 -130 30.5 -188.5t98.5 -58.5t98.5 58.5t30.5 188.5q0 131 -30.5 189t-98.5 58t-98.5 -58t-30.5 -189z" />
    <glyph glyph-name="one.pnum" horiz-adv-x="410" 
d="M191 0v529h-156v91l133 5q34 1 40 35l5 34h99v-694h-121z" />
    <glyph glyph-name="two.pnum" horiz-adv-x="587" 
d="M57 0v94l215 199q56 52 79 92.5t23 83.5q0 55 -33 84t-95 29q-69 0 -152 -37l-38 90q97 53 201 53q116 0 179.5 -55t63.5 -156q0 -68 -33 -128t-110 -128l-133 -118h294v-103h-461z" />
    <glyph glyph-name="three.pnum" horiz-adv-x="557" 
d="M40 636q50 27 100 39.5t106 12.5q112 0 174.5 -49.5t62.5 -137.5q0 -60 -32.5 -99.5t-90.5 -52.5q66 -12 102.5 -56.5t36.5 -113.5q0 -92 -65.5 -142.5t-186.5 -50.5q-115 0 -219 56l36 92q83 -44 176 -44q135 0 135 109q0 95 -123 95h-86v102h80q59 0 86 22t27 68
q0 97 -124 97q-36 0 -77 -9.5t-82 -26.5z" />
    <glyph glyph-name="four.pnum" horiz-adv-x="636" 
d="M382 0v137h-330v93l307 444h137v-437h91v-100h-91v-137h-114zM173 237h209v301z" />
    <glyph glyph-name="five.pnum" horiz-adv-x="592" 
d="M280 -14q-124 0 -216 55l36 93q84 -44 170 -44q140 0 140 110q0 55 -33 85t-94 30q-70 0 -124 -39l-79 43v355h416v-105h-309v-205q46 49 140 49q97 0 152 -56.5t55 -156.5q0 -105 -64.5 -159.5t-189.5 -54.5z" />
    <glyph glyph-name="six.pnum" horiz-adv-x="611" 
d="M321 -14q-261 0 -261 334q0 181 74.5 274.5t218.5 93.5q49 0 95 -10t82 -30l-32 -94q-35 16 -67.5 23t-66.5 7q-93 0 -135 -59t-43 -193q55 76 163 76q96 0 152.5 -54.5t56.5 -147.5q0 -102 -63.5 -161t-173.5 -59zM321 314q-69 0 -134 -56q9 -175 131 -175q55 0 85.5 31
t30.5 87q0 55 -29 84t-84 29z" />
    <glyph glyph-name="seven.pnum" horiz-adv-x="544" 
d="M33 569v105h469v-93l-252 -581h-136l251 569h-332z" />
    <glyph glyph-name="eight.pnum" horiz-adv-x="604" 
d="M302 -14q-120 0 -183.5 49t-63.5 142q0 66 35 110t97 58q-54 14 -84.5 55t-30.5 101q0 86 62 136.5t168 50.5t168 -50.5t62 -136.5q0 -60 -30.5 -101t-84.5 -55q62 -14 97 -58t35 -110q0 -93 -63.5 -142t-183.5 -49zM302 391q107 0 107 100t-107 100t-107 -100t107 -100z
M302 83q121 0 121 105q0 106 -121 106t-121 -106q0 -105 121 -105z" />
    <glyph glyph-name="nine.pnum" horiz-adv-x="611" 
d="M290 688q261 0 261 -334q0 -181 -74.5 -274.5t-218.5 -93.5q-49 0 -95 10.5t-82 29.5l32 94q35 -16 67.5 -23t66.5 -7q93 0 135 59t43 193q-55 -76 -163 -76q-96 0 -152.5 54.5t-56.5 147.5q0 102 64 161t173 59zM177 473q0 -54 29.5 -83.5t83.5 -29.5q69 0 134 56
q-9 175 -131 175q-55 0 -85.5 -31t-30.5 -87z" />
    <glyph glyph-name="zero.dnom" horiz-adv-x="404" 
d="M361 182q0 -191 -159 -191t-159 192q0 191 159 191t159 -192zM147 182q0 -60 12.5 -85.5t42.5 -25.5t42.5 25.5t12.5 86.5q0 60 -12.5 85.5t-42.5 25.5t-42.5 -25.5t-12.5 -86.5z" />
    <glyph glyph-name="one.dnom" horiz-adv-x="287" 
d="M121 0v248h-88v76l72 3q17 1 22.5 6.5t7.5 17.5l4 22h80v-373h-98z" />
    <glyph glyph-name="two.dnom" horiz-adv-x="366" 
d="M44 0v68l122 96q28 22 38.5 38.5t10.5 36.5q0 53 -62 53q-40 0 -81 -22l-30 72q50 32 124 32q69 0 107.5 -33.5t38.5 -94.5q0 -40 -19.5 -71.5t-65.5 -65.5l-41 -30h137v-79h-279z" />
    <glyph glyph-name="three.dnom" horiz-adv-x="370" 
d="M165 -9q-79 0 -134 29l23 75q29 -11 54 -16t52 -5q33 0 47 8.5t14 28.5q0 36 -54 36h-56v75h61q44 0 44 34q0 19 -13 27t-44 8q-49 0 -94 -20l-26 74q58 29 130 29q66 0 105 -27t39 -74q0 -33 -18 -55t-50 -29q36 -8 56 -32t20 -58q0 -50 -42 -79t-114 -29z" />
    <glyph glyph-name="four.dnom" horiz-adv-x="407" 
d="M225 0v74h-187v70l168 220h110v-218h51v-72h-51v-74h-91zM133 146h97v133z" />
    <glyph glyph-name="five.dnom" horiz-adv-x="376" 
d="M180 -9q-37 0 -72.5 8t-61.5 21l23 75q53 -21 108 -21q59 0 59 40q0 42 -54 42q-34 0 -66 -15l-53 31v192h253v-80h-166v-67q25 13 59 13q58 0 92 -32t34 -86q0 -59 -39.5 -90t-115.5 -31z" />
    <glyph glyph-name="six.dnom" horiz-adv-x="395" 
d="M205 -9q-162 0 -162 184q0 199 186 199q29 0 58 -5.5t53 -15.5l-20 -76q-45 16 -81 16q-48 0 -69.5 -22t-23.5 -75q27 31 84 31q60 0 93 -30.5t33 -85.5q0 -56 -40 -88t-111 -32zM205 158q-35 0 -59 -21q2 -73 59 -73q54 0 54 48q0 46 -54 46z" />
    <glyph glyph-name="seven.dnom" horiz-adv-x="347" 
d="M29 285v79h282v-72l-121 -292h-106l119 285h-174z" />
    <glyph glyph-name="eight.dnom" horiz-adv-x="398" 
d="M199 -9q-76 0 -115.5 28t-39.5 80q0 34 19 57t53 31q-28 10 -46 33t-18 52q0 46 41 74t106 28t106 -28t41 -74q0 -29 -17.5 -52t-46.5 -33q34 -8 53 -31t19 -57q0 -52 -39.5 -80t-115.5 -28zM199 219q54 0 54 43q0 20 -14.5 31t-39.5 11t-39.5 -11t-14.5 -31
q0 -43 54 -43zM199 61q26 0 41 12t15 32t-15 32t-41 12t-41 -12t-15 -32t15 -32t41 -12z" />
    <glyph glyph-name="nine.dnom" horiz-adv-x="395" 
d="M190 374q162 0 162 -184q0 -199 -186 -199q-29 0 -58 5.5t-53 15.5l20 76q45 -16 81 -16q48 0 69.5 22t23.5 75q-27 -31 -84 -31q-60 0 -93 30.5t-33 85.5q0 56 40.5 88t110.5 32zM136 253q0 -46 54 -46q35 0 59 21q-2 73 -59 73q-54 0 -54 -48z" />
    <glyph glyph-name="zero.numr" horiz-adv-x="404" 
d="M361 492q0 -191 -159 -191t-159 192q0 191 159 191t159 -192zM147 492q0 -60 12.5 -85.5t42.5 -25.5t42.5 25.5t12.5 86.5q0 60 -12.5 85.5t-42.5 25.5t-42.5 -25.5t-12.5 -86.5z" />
    <glyph glyph-name="one.numr" horiz-adv-x="287" 
d="M121 310v248h-88v76l72 3q17 1 22.5 6.5t7.5 17.5l4 22h80v-373h-98z" />
    <glyph glyph-name="two.numr" horiz-adv-x="366" 
d="M44 310v68l122 96q28 22 38.5 38.5t10.5 36.5q0 53 -62 53q-40 0 -81 -22l-30 72q50 32 124 32q69 0 107.5 -33.5t38.5 -94.5q0 -40 -19.5 -71.5t-65.5 -65.5l-41 -30h137v-79h-279z" />
    <glyph glyph-name="three.numr" horiz-adv-x="370" 
d="M165 301q-79 0 -134 29l23 75q29 -11 54 -16t52 -5q33 0 47 8.5t14 28.5q0 36 -54 36h-56v75h61q44 0 44 34q0 19 -13 27t-44 8q-49 0 -94 -20l-26 74q58 29 130 29q66 0 105 -27t39 -74q0 -33 -18 -55t-50 -29q36 -8 56 -32t20 -58q0 -50 -42 -79t-114 -29z" />
    <glyph glyph-name="four.numr" horiz-adv-x="407" 
d="M225 310v74h-187v70l168 220h110v-218h51v-72h-51v-74h-91zM133 456h97v133z" />
    <glyph glyph-name="five.numr" horiz-adv-x="376" 
d="M180 301q-37 0 -72.5 8t-61.5 21l23 75q53 -21 108 -21q59 0 59 40q0 42 -54 42q-34 0 -66 -15l-53 31v192h253v-80h-166v-67q25 13 59 13q58 0 92 -32t34 -86q0 -59 -39.5 -90t-115.5 -31z" />
    <glyph glyph-name="six.numr" horiz-adv-x="395" 
d="M205 301q-162 0 -162 184q0 199 186 199q29 0 58 -5.5t53 -15.5l-20 -76q-45 16 -81 16q-48 0 -69.5 -22t-23.5 -75q27 31 84 31q60 0 93 -30.5t33 -85.5q0 -56 -40 -88t-111 -32zM205 468q-35 0 -59 -21q2 -73 59 -73q54 0 54 48q0 46 -54 46z" />
    <glyph glyph-name="seven.numr" horiz-adv-x="347" 
d="M29 595v79h282v-72l-121 -292h-106l119 285h-174z" />
    <glyph glyph-name="eight.numr" horiz-adv-x="398" 
d="M199 301q-76 0 -115.5 28t-39.5 80q0 34 19 57t53 31q-28 10 -46 33t-18 52q0 46 41 74t106 28t106 -28t41 -74q0 -29 -17.5 -52t-46.5 -33q34 -8 53 -31t19 -57q0 -52 -39.5 -80t-115.5 -28zM199 529q54 0 54 43q0 20 -14.5 31t-39.5 11t-39.5 -11t-14.5 -31
q0 -43 54 -43zM199 371q26 0 41 12t15 32t-15 32t-41 12t-41 -12t-15 -32t15 -32t41 -12z" />
    <glyph glyph-name="nine.numr" horiz-adv-x="395" 
d="M190 684q162 0 162 -184q0 -199 -186 -199q-29 0 -58 5.5t-53 15.5l20 76q45 -16 81 -16q48 0 69.5 22t23.5 75q-27 -31 -84 -31q-60 0 -93 30.5t-33 85.5q0 56 40.5 88t110.5 32zM136 563q0 -46 54 -46q35 0 59 21q-2 73 -59 73q-54 0 -54 -48z" />
    <glyph glyph-name="hyphen.case" horiz-adv-x="403" 
d="M53 281v110h297v-110h-297z" />
    <glyph glyph-name="uni2010.case" horiz-adv-x="403" 
d="M53 281v110h297v-110h-297z" />
    <glyph glyph-name="uni2011.case" horiz-adv-x="403" 
d="M53 281v110h297v-110h-297z" />
    <glyph glyph-name="uni00AD.case" horiz-adv-x="403" 
d="M53 281v110h297v-110h-297z" />
    <glyph glyph-name="endash.case" horiz-adv-x="450" 
d="M0 284v106h450v-106h-450z" />
    <glyph glyph-name="emdash.case" horiz-adv-x="900" 
d="M0 284v106h900v-106h-900z" />
    <glyph glyph-name="parenleft.case" horiz-adv-x="379" 
d="M227 -117q-140 192 -140 452t140 452h119q-135 -199 -135 -452q0 -252 135 -452h-119z" />
    <glyph glyph-name="parenright.case" horiz-adv-x="379" 
d="M152 -117h-119q135 200 135 452q0 253 -135 452h119q140 -192 140 -452t-140 -452z" />
    <glyph glyph-name="slash.case" horiz-adv-x="449" 
d="M15 -117l295 904h124l-295 -904h-124z" />
    <glyph glyph-name="backslash.case" horiz-adv-x="449" 
d="M434 -117h-124l-295 904h124z" />
    <glyph glyph-name="bracketleft.case" horiz-adv-x="399" 
d="M96 -117v904h272v-92h-154v-720h154v-92h-272z" />
    <glyph glyph-name="bracketright.case" horiz-adv-x="399" 
d="M303 -117h-272v92h154v720h-154v92h272v-904z" />
    <glyph glyph-name="braceleft.case" horiz-adv-x="440" 
d="M294 -128q-174 0 -174 135q0 27 8.5 56t33.5 75q20 38 27.5 57t7.5 35q0 60 -69 60h-78v93h78q69 0 69 60q0 17 -7.5 36t-27.5 56q-25 47 -33.5 75.5t-8.5 55.5q0 135 174 135q32 0 62.5 -3.5t52.5 -9.5v-92q-45 8 -80 8q-45 0 -65 -14t-20 -45q0 -19 9 -42t28 -59
q20 -37 28 -59t8 -45q0 -45 -28 -73t-72 -31q45 -4 72.5 -31.5t27.5 -71.5q0 -23 -8 -45t-28 -59q-19 -36 -28 -58.5t-9 -41.5q0 -31 20 -45.5t65 -14.5q35 0 80 8v-92q-21 -6 -52 -9.5t-63 -3.5z" />
    <glyph glyph-name="braceright.case" horiz-adv-x="440" 
d="M146 -128q-31 0 -62.5 3.5t-52.5 9.5v92q45 -8 80 -8q45 0 65 14.5t20 45.5q0 19 -8.5 41.5t-28.5 58.5q-20 37 -28 59t-8 45q0 45 28 73t72 31q-45 4 -72.5 31.5t-27.5 71.5q0 23 8 45t28 59q20 36 28.5 59t8.5 42q0 31 -20 45t-65 14q-35 0 -80 -8v92q22 6 53 9.5
t62 3.5q174 0 174 -135q0 -27 -8.5 -55.5t-33.5 -75.5q-20 -37 -27.5 -56t-7.5 -36q0 -60 69 -60h78v-93h-78q-69 0 -69 -60q0 -16 7.5 -35t27.5 -57q25 -46 33.5 -75t8.5 -56q0 -135 -174 -135z" />
    <glyph glyph-name="bullet.case" horiz-adv-x="538" 
d="M130 191v288h278v-288h-278z" />
    <glyph glyph-name="guilsinglleft.case" horiz-adv-x="438" 
d="M234 107l-183 213l183 213h152l-183 -213l183 -213h-152z" />
    <glyph glyph-name="guilsinglright.case" horiz-adv-x="438" 
d="M204 107h-152l183 213l-183 213h152l183 -213z" />
    <glyph glyph-name="guillemotleft.case" horiz-adv-x="721" 
d="M234 107l-183 213l183 213h152l-183 -213l183 -213h-152zM517 107l-183 213l183 213h152l-183 -213l183 -213h-152z" />
    <glyph glyph-name="guillemotright.case" horiz-adv-x="721" 
d="M204 107h-152l183 213l-183 213h152l183 -213zM487 107h-152l183 213l-183 213h152l183 -213z" />
    <glyph glyph-name="at.case" horiz-adv-x="953" 
d="M480 -115q-205 0 -314.5 110t-109.5 317q0 141 50.5 239.5t146.5 150t233 51.5q197 0 304 -101.5t107 -287.5q0 -124 -54 -191t-155 -67q-105 0 -131 68q-49 -68 -130 -68q-64 0 -101 34t-37 94q0 131 179 131h77v12q0 47 -17 64.5t-62 17.5q-28 0 -59.5 -6.5
t-63.5 -18.5l-19 78q82 31 155 31q85 0 124.5 -37.5t39.5 -117.5v-138q0 -63 57 -63q48 0 73.5 45.5t25.5 131.5q0 148 -79 224t-233 76q-161 0 -247 -91t-86 -261q0 -338 331 -338q116 0 227 47l31 -81q-55 -26 -123 -40.5t-140 -14.5zM453 185q57 0 92 44v73h-65
q-86 0 -86 -64q0 -53 59 -53z" />
    <glyph glyph-name="periodcentered.case" horiz-adv-x="275" 
d="M68 270v140h139v-140h-139z" />
    <glyph glyph-name="questiondown.case" horiz-adv-x="474" 
d="M194 534v140h139v-140h-139zM253 -14q-223 0 -223 178q0 56 22 94t80 80q31 23 47.5 39.5t22.5 34t6 41.5h109q0 -44 -8.5 -75.5t-29.5 -57.5t-57 -52q-40 -29 -55 -50.5t-15 -50.5q0 -77 111 -77q74 0 151 35l32 -98q-43 -21 -89.5 -31t-103.5 -10z" />
    <glyph glyph-name="exclamdown.case" horiz-adv-x="281" 
d="M71 534v140h139v-140h-139zM76 0l13 453h103l13 -453h-129z" />
    <glyph glyph-name="periodcentered.loclCAT" horiz-adv-x="97" 
d="M-38 313v128h123v-128h-123z" />
    <glyph glyph-name="periodcentered.loclCAT.cap" horiz-adv-x="0" 
d="M-177 303v128h123v-128h-123z" />
    <glyph glyph-name="uni0327.cap" horiz-adv-x="0" 
d="M-21 -266q-23 0 -47.5 3t-45.5 10v76q44 -10 80 -10q34 0 48 8.5t14 25.5q0 20 -19.5 29.5t-72.5 10.5l20 124l71 -1l-11 -61q56 -8 84.5 -33.5t28.5 -71.5q0 -110 -150 -110z" />
    <glyph glyph-name="uni0326.cap" horiz-adv-x="0" 
d="M-82 -265l23 181h111l-43 -181h-91z" />
    <glyph glyph-name="commabelow" horiz-adv-x="194" 
d="M30 -265l23 181h111l-43 -181h-91z" />
    <glyph glyph-name="uni0328.cap" horiz-adv-x="0" 
d="M-61 -224q-59 0 -96 27t-37 78t26.5 83t66.5 52l101 -16q-41 -20 -67.5 -42.5t-26.5 -51.5q0 -24 16 -34t47 -10q22 0 43 6v-81q-15 -5 -32 -8t-41 -3z" />
    <glyph glyph-name="uni0328.round" horiz-adv-x="0" 
d="M-68 -224q-59 0 -94 28t-35 77q0 48 42.5 95.5t143.5 74.5l12 -20q-44 -25 -71 -56.5t-27 -65.5q0 -47 59 -47q22 0 43 6v-81q-15 -5 -32 -8t-41 -3z" />
    <glyph glyph-name="acutecomb.cap" horiz-adv-x="0" 
d="M-93 747l132 163h147l-157 -163h-122z" />
    <glyph glyph-name="IJacute" horiz-adv-x="746" 
d="M81 0v674h124v-674h-124zM462 -14q-79 0 -141 30l33 100q54 -23 94 -23q54 0 76.5 30t22.5 101v348h-175v102h299v-464q0 -115 -51 -169.5t-158 -54.5zM50 747l132 163h147l-157 -163h-122zM465 747l132 163h147l-157 -163h-122z" />
    <glyph glyph-name="ijacute" horiz-adv-x="588" 
d="M102 0v421h-79v91h197v-512h-118zM368 -202q-18 0 -33 2t-30 6v89q11 -2 21 -3t18 -1q29 0 40.5 13.5t11.5 48.5v468h-79v91h197v-544q0 -92 -35 -131t-111 -39zM70 600l124 183h132l-141 -183h-115zM366 600l124 183h132l-141 -183h-115z" />
    <glyph glyph-name="gravecomb.cap" horiz-adv-x="0" 
d="M-32 747l-157 163h147l132 -163h-122z" />
    <glyph glyph-name="uni0302.cap" horiz-adv-x="0" 
d="M-192 747l125 163h134l124 -163h-120l-72 99l-72 -99h-119z" />
    <glyph glyph-name="tildecomb.cap" horiz-adv-x="0" 
d="M-191 747q0 97 29 134.5t81 37.5q34 0 57.5 -12.5t51.5 -41.5l9 -9q17 -17 26 -23t19 -6q15 0 22.5 15.5t7.5 67.5h88q0 -97 -29 -134.5t-81 -37.5q-34 0 -57 13t-52 41l-9 9q-18 18 -26 23.5t-19 5.5q-15 0 -22.5 -15t-7.5 -68h-88z" />
    <glyph glyph-name="uni030C.cap" horiz-adv-x="0" 
d="M-68 747l-124 163h120l72 -99l72 99h119l-125 -163h-134z" />
    <glyph glyph-name="uni0308.cap" horiz-adv-x="0" 
d="M-163 752v123h119v-123h-119zM43 752v123h119v-123h-119z" />
    <glyph glyph-name="uni0306.cap" horiz-adv-x="0" 
d="M0 738q-87 0 -130 45.5t-43 126.5h100q0 -43 17.5 -67t55.5 -24t56 24t18 67h100q0 -81 -43.5 -126.5t-130.5 -45.5z" />
    <glyph glyph-name="uni030A.cap" horiz-adv-x="0" 
d="M0 730q-55 0 -90 34.5t-35 89.5q0 56 35 90t90 34q56 0 90.5 -34t34.5 -90t-34.5 -90t-90.5 -34zM0 796q25 0 40 15.5t15 42.5q0 26 -15 42t-40 16t-40 -15.5t-15 -42.5q0 -26 15 -42t40 -16z" />
    <glyph glyph-name="uni0307.cap" horiz-adv-x="0" 
d="M-63 752v122h126v-122h-126z" />
    <glyph glyph-name="cent.BRACKET.160" 
d="M294 -60v89q-106 9 -160.5 72t-54.5 190t55.5 194t159.5 78v86h68v-85q63 -5 126 -30l-26 -96q-51 23 -100 25v-334q27 1 52 7.5t50 17.5l25 -95q-57 -26 -127 -31v-88h-68zM203 291q0 -76 22 -111.5t69 -45.5v323q-47 -12 -69 -50.5t-22 -115.5z" />
    <glyph glyph-name="dollar.BRACKET.160" 
d="M261 -66v93q-122 4 -213 46l26 95q91 -39 187 -42v157l-34 6q-88 16 -127 54t-39 108q0 79 51 124t148 53v98h68v-98q93 -4 172 -34l-27 -93q-72 26 -145 29v-157l24 -5q98 -19 137 -56t39 -109q0 -157 -199 -174v-95h-68zM167 454q0 -28 19 -42.5t74 -25.5v142
q-48 -5 -70.5 -23t-22.5 -51zM420 202q0 29 -18.5 43.5t-72.5 24.5v-141q91 10 91 73z" />
    <glyph glyph-name="g.salt" horiz-adv-x="542" 
d="M257 187q-33 0 -63 6q-43 -14 -43 -45q0 -18 12 -25.5t40 -7.5h125q95 0 139.5 -34.5t44.5 -108.5q0 -85 -63 -125.5t-194 -40.5q-237 0 -237 123q0 77 90 99q-61 24 -61 84q0 72 93 100q-41 21 -63.5 57.5t-22.5 85.5q0 79 55 124.5t149 45.5q93 0 148 -45q38 40 99 40
h16v-97h-16q-33 0 -56 -1q12 -29 12 -65q0 -79 -54.5 -124.5t-149.5 -45.5zM257 268q88 0 88 88t-87 88q-88 0 -88 -88t87 -88zM132 -42q0 -36 28.5 -50.5t98.5 -14.5t101.5 16t31.5 51q0 55 -65 55h-146q-8 0 -16 1q-33 -21 -33 -58z" />
    </font>
</defs>
</svg>
