<?xml version="1.0" standalone="no"?>
<!DOCTYPE svg PUBLIC "-//W3C//DTD SVG 1.1//EN" "http://www.w3.org/Graphics/SVG/1.1/DTD/svg11.dtd" >
<svg xmlns="http://www.w3.org/2000/svg" xmlns:xlink="http://www.w3.org/1999/xlink" version="1.1">
<metadata>
Created by FontForge 20170731 at Tue Mar 10 13:57:51 2020
 By Aleksey,,,
(c) 2020 Goldman Sachs. All rights reserved.
</metadata>
<defs>
<font id="GoldmanSans-Light" horiz-adv-x="580" >
  <font-face 
    font-family="Goldman Sans Light"
    font-weight="300"
    font-stretch="normal"
    units-per-em="1000"
    panose-1="2 11 5 3 2 2 3 2 2 4"
    ascent="712"
    descent="-288"
    x-height="507"
    cap-height="674"
    bbox="-170 -252 1129 939"
    underline-thickness="77"
    underline-position="-192"
    unicode-range="U+000D-FEFF"
  />
<missing-glyph horiz-adv-x="500" 
d="M59 0v674h382v-674h-382zM115 51h270v572h-270v-572z" />
    <glyph glyph-name="f_f" unicode="ff" horiz-adv-x="665" 
d="M115 0v455h-98v52h98v48q0 165 149 165q20 0 36.5 -1.5t32.5 -6.5v-52q-17 3 -29 4.5t-26 1.5q-56 0 -77.5 -25t-21.5 -90v-44h243v48q0 165 157 165q19 0 37.5 -2t37.5 -7v-52q-20 4 -33 5.5t-30 1.5q-59 0 -82 -25t-23 -90v-44h168v-52h-167v-455h-65v455h-242v-455
h-65z" />
    <glyph glyph-name="f_i" unicode="fi" horiz-adv-x="604" 
d="M115 0v455h-98v52h98v48q0 165 149 165q20 0 36.5 -1.5t32.5 -6.5v-52q-17 3 -29 4.5t-26 1.5q-56 0 -77.5 -25t-21.5 -90v-44h154v-52h-153v-455h-65zM439 621v81h79v-81h-79zM450 0v455h-72v52h138v-507h-66z" />
    <glyph glyph-name="f_j" unicode="fj" horiz-adv-x="604" 
d="M115 0v455h-98v52h98v48q0 165 149 165q20 0 36.5 -1.5t32.5 -6.5v-52q-17 3 -29 4.5t-26 1.5q-56 0 -77.5 -25t-21.5 -90v-44h154v-52h-153v-455h-65zM439 621v81h79v-81h-79zM405 -201q-33 0 -57 8v51q10 -2 20.5 -3.5t22.5 -1.5q34 0 46.5 19t12.5 60v523h-72v52h138
v-577q0 -131 -111 -131z" />
    <glyph glyph-name="f_f_i" unicode="ffi" horiz-adv-x="912" 
d="M115 0v455h-98v52h98v48q0 165 149 165q20 0 36.5 -1.5t32.5 -6.5v-52q-17 3 -29 4.5t-26 1.5q-56 0 -77.5 -25t-21.5 -90v-44h243v48q0 165 150 165q20 0 36 -1.5t32 -6.5v-52q-16 3 -28.5 4.5t-26.5 1.5q-56 0 -77.5 -25t-21.5 -90v-44h154v-52h-153v-455h-65v455h-242
v-455h-65zM746 621v81h80v-81h-80zM758 0v455h-73v52h138v-507h-65z" />
    <glyph glyph-name="f_f_j" unicode="ffj" horiz-adv-x="912" 
d="M115 0v455h-98v52h98v48q0 165 149 165q20 0 36.5 -1.5t32.5 -6.5v-52q-17 3 -29 4.5t-26 1.5q-56 0 -77.5 -25t-21.5 -90v-44h243v48q0 165 150 165q20 0 36 -1.5t32 -6.5v-52q-16 3 -28.5 4.5t-26.5 1.5q-56 0 -77.5 -25t-21.5 -90v-44h154v-52h-153v-455h-65v455h-242
v-455h-65zM746 621v81h80v-81h-80zM712 -201q-34 0 -56 8v51q10 -2 20 -3.5t22 -1.5q34 0 47 19t13 60v523h-73v52h138v-577q0 -131 -111 -131z" />
    <glyph glyph-name=".notdef" horiz-adv-x="500" 
d="M59 0v674h382v-674h-382zM115 51h270v572h-270v-572z" />
    <glyph glyph-name="uni0000" horiz-adv-x="0" 
 />
    <glyph glyph-name="uni0000" horiz-adv-x="0" 
 />
    <glyph glyph-name="uni000D" unicode="&#xd;" horiz-adv-x="229" 
 />
    <glyph glyph-name="space" unicode=" " horiz-adv-x="229" 
 />
    <glyph glyph-name="exclam" unicode="!" horiz-adv-x="236" 
d="M89 195l-7 479h71l-6 -479h-58zM78 0v97h80v-97h-80z" />
    <glyph glyph-name="quotedbl" unicode="&#x22;" horiz-adv-x="351" 
d="M71 425l-8 287h72l-7 -287h-57zM224 425l-8 287h72l-7 -287h-57z" />
    <glyph glyph-name="numbersign" unicode="#" 
d="M103 0l29 179h-96v48h104l35 220h-117v48h125l29 179h54l-29 -179h158l29 179h54l-29 -179h95v-48h-103l-36 -220h117v-48h-125l-29 -179h-54l29 179h-158l-29 -179h-53zM193 227h158l36 220h-158z" />
    <glyph glyph-name="dollar" unicode="$" 
d="M272 -67v94q-60 2 -116.5 14t-93.5 32l17 55q84 -41 193 -44v223l-26 5q-91 17 -129.5 53.5t-38.5 103.5q0 72 51 113t143 46v98h45v-97q93 -4 173 -37l-16 -53q-75 30 -157 33v-215l15 -3q68 -13 108 -33t57 -52t17 -81q0 -73 -50.5 -114t-146.5 -46v-95h-45zM268 367
l4 -1v205q-132 -8 -132 -105q0 -42 28 -63.5t100 -35.5zM451 189q0 48 -28.5 71.5t-105.5 38.5v-214q134 9 134 104z" />
    <glyph glyph-name="percent" unicode="%" horiz-adv-x="820" 
d="M172 0l405 674h71l-405 -674h-71zM769 180q0 -92 -37 -140.5t-108 -48.5q-70 0 -107 48t-37 141q0 92 37 140t108 48t107.5 -48t36.5 -140zM540 180q0 -72 20.5 -106t63.5 -34q85 0 85 140q0 72 -20 106t-64 34q-85 0 -85 -140zM340 495q0 -92 -37 -140.5t-108 -48.5
q-70 0 -107 48t-37 141q0 92 37 140t108 48t107.5 -48t36.5 -140zM111 495q0 -72 20.5 -106t63.5 -34q85 0 85 140q0 72 -20 106t-64 34q-85 0 -85 -140z" />
    <glyph glyph-name="ampersand" unicode="&#x26;" horiz-adv-x="681" 
d="M275 -13q-107 0 -165.5 49t-58.5 137q0 122 119 198q-22 30 -31 61t-9 68q0 88 60 137.5t165 49.5q47 0 91 -8.5t76 -25.5l-18 -54q-72 29 -143 29q-79 0 -122 -34t-43 -98q0 -33 12.5 -62.5t43.5 -63.5t88 -83l143 -122q39 81 40 221h-111v52h169v-48q0 -166 -53 -264
l148 -126h-92l-89 76q-77 -89 -220 -89zM119 181q0 -66 42.5 -101.5t121.5 -35.5q109 0 168 70l-188 160q-35 30 -59 56q-85 -52 -85 -149z" />
    <glyph glyph-name="quotesingle" unicode="'" horiz-adv-x="198" 
d="M71 425l-8 287h72l-7 -287h-57z" />
    <glyph glyph-name="parenleft" unicode="(" horiz-adv-x="357" 
d="M239 -162q-68 98 -103 210t-35 242t35 242.5t103 209.5h68q-137 -203 -137 -452t137 -452h-68z" />
    <glyph glyph-name="parenright" unicode=")" horiz-adv-x="357" 
d="M118 -162h-68q137 203 137 452t-137 452h68q68 -97 103 -209.5t35 -242.5t-35 -242t-103 -210z" />
    <glyph glyph-name="asterisk" unicode="*" horiz-adv-x="486" 
d="M144 325l-46 34l109 137l-161 49l17 54l157 -60l-5 172h56l-5 -172l156 60l18 -54l-161 -49l108 -137l-45 -34l-99 145z" />
    <glyph glyph-name="plus" unicode="+" 
d="M261 111v194h-188v57h188v194h58v-194h188v-57h-188v-194h-58z" />
    <glyph glyph-name="comma" unicode="," horiz-adv-x="221" 
d="M47 -150l26 247h79l-50 -247h-55z" />
    <glyph glyph-name="hyphen" unicode="-" horiz-adv-x="402" 
d="M64 247v62h274v-62h-274z" />
    <glyph glyph-name="period" unicode="." horiz-adv-x="221" 
d="M70 0v97h81v-97h-81z" />
    <glyph glyph-name="slash" unicode="/" horiz-adv-x="406" 
d="M21 -162l295 904h69l-295 -904h-69z" />
    <glyph glyph-name="zero" unicode="0" 
d="M526 338q0 -172 -60 -261.5t-176 -89.5q-115 0 -175 89.5t-60 261.5q0 171 60 260t175 89q116 0 176 -89t60 -260zM124 338q0 -149 41 -221t125 -72t125 72t41 221q0 148 -41 219.5t-125 71.5t-125 -71.5t-41 -219.5z" />
    <glyph glyph-name="one" unicode="1" 
d="M87 0v58h186v513h-182v52l142 3q28 1 37.5 8.5t11.5 29.5l4 35h54v-641h172v-58h-425z" />
    <glyph glyph-name="two" unicode="2" 
d="M65 0v54l210 196q52 49 82 87t43 73t13 73q0 70 -40.5 107t-117.5 37q-83 0 -163 -41l-22 50q87 51 190 51q106 0 164.5 -52.5t58.5 -148.5q0 -46 -16 -89t-51 -88.5t-94 -99.5l-167 -151h344v-58h-434z" />
    <glyph glyph-name="three" unicode="3" 
d="M71 637q41 23 90 36.5t104 13.5q103 0 160 -47.5t57 -130.5q0 -62 -33.5 -103t-90.5 -56q69 -14 106 -60.5t37 -114.5q0 -90 -61.5 -139t-174.5 -49q-60 0 -113.5 14t-93.5 39l21 52q81 -46 183 -46q83 0 126.5 34.5t43.5 102.5q0 62 -40.5 98t-125.5 36h-76l1 58h72
q74 0 112.5 34.5t38.5 93.5q0 62 -41 93.5t-113 31.5q-43 0 -86 -11t-81 -31z" />
    <glyph glyph-name="four" unicode="4" 
d="M369 0v164h-338v55l321 455h80v-452h113v-58h-113v-164h-63zM99 222h270v382z" />
    <glyph glyph-name="five" unicode="5" 
d="M272 -13q-125 0 -211 56l23 52q80 -49 183 -49q176 0 176 144q0 73 -42.5 112t-120.5 39q-87 0 -153 -50l-47 27v356h397v-58h-336v-271q59 53 158 53q100 0 156.5 -55t56.5 -153q0 -100 -61 -151.5t-179 -51.5z" />
    <glyph glyph-name="six" unicode="6" 
d="M301 -13q-119 0 -180.5 84.5t-61.5 247.5q0 368 267 368q46 0 89.5 -10.5t79.5 -30.5l-21 -53q-71 35 -143 35q-103 0 -153 -75.5t-50 -233.5v-9q30 42 80 66.5t110 24.5q94 0 148.5 -54t54.5 -148q0 -97 -59 -154.5t-161 -57.5zM302 345q-49 0 -94 -22t-79 -62
q14 -218 172 -218q71 0 111 41t40 113q0 71 -39 109.5t-111 38.5z" />
    <glyph glyph-name="seven" unicode="7" 
d="M69 616v58h448v-54l-270 -620h-74l270 616h-374z" />
    <glyph glyph-name="eight" unicode="8" 
d="M290 -13q-112 0 -175 49t-63 139q0 70 38 115.5t105 56.5q-57 11 -90 53.5t-33 106.5q0 83 59 131.5t159 48.5q101 0 159.5 -48.5t58.5 -131.5q0 -64 -33 -106.5t-91 -53.5q68 -11 106 -56t38 -116q0 -90 -62.5 -139t-175.5 -49zM290 373q150 0 150 128q0 63 -38 96.5
t-112 33.5q-73 0 -111.5 -33.5t-38.5 -96.5q0 -128 150 -128zM290 43q81 0 124.5 36t43.5 101q0 137 -168 137t-168 -137q0 -65 44 -101t124 -36z" />
    <glyph glyph-name="nine" unicode="9" 
d="M278 687q120 0 181.5 -84t61.5 -248q0 -368 -268 -368q-94 0 -168 41l21 53q70 -35 142 -35q104 0 154 76t50 233v11q-29 -43 -79.5 -67.5t-110.5 -24.5q-94 0 -148.5 54t-54.5 147q0 98 59 155t160 57zM127 477q0 -70 39.5 -109t110.5 -39q105 0 174 86q-7 106 -51 161
t-121 55q-70 0 -111 -40.5t-41 -113.5z" />
    <glyph glyph-name="colon" unicode=":" horiz-adv-x="221" 
d="M70 0v97h81v-97h-81zM70 410v97h81v-97h-81z" />
    <glyph glyph-name="semicolon" unicode=";" horiz-adv-x="221" 
d="M47 -150l26 247h79l-50 -247h-55zM70 410v97h81v-97h-81z" />
    <glyph glyph-name="less" unicode="&#x3c;" 
d="M507 562v-63l-362 -164l362 -163v-64l-434 196v61z" />
    <glyph glyph-name="equal" unicode="=" 
d="M73 427v57h434v-57h-434zM73 184v58h434v-58h-434z" />
    <glyph glyph-name="greater" unicode="&#x3e;" 
d="M73 108v62l362 164l-362 164v64l434 -197v-61z" />
    <glyph glyph-name="question" unicode="?" horiz-adv-x="473" 
d="M178 195q0 43 9 74.5t31 58.5t61 57q47 38 65 65.5t18 64.5q0 113 -143 113q-85 0 -165 -40l-19 54q83 45 188 45q101 0 154 -44t53 -127q0 -52 -22.5 -90t-80.5 -83q-35 -28 -54.5 -49.5t-26.5 -44t-7 -54.5h-61zM168 0v97h80v-97h-80z" />
    <glyph glyph-name="at" unicode="@" horiz-adv-x="953" 
d="M484 -217q-200 0 -306.5 107t-106.5 308q0 137 49 234.5t141.5 149t222.5 51.5q191 0 294.5 -99t103.5 -281q0 -123 -48 -191t-136 -68q-97 0 -120 73q-49 -73 -142 -73q-63 0 -98 31.5t-35 89.5q0 130 171 130h96v31q0 59 -22 83t-78 24q-61 0 -126 -28l-13 45
q67 32 147 32q77 0 112.5 -35t35.5 -112v-155q0 -88 77 -88q58 0 90 55t32 155q0 158 -88 243t-252 85q-112 0 -192 -45.5t-122.5 -130.5t-42.5 -206q0 -178 91.5 -270t266.5 -92q136 0 242 52l19 -47q-52 -28 -120.5 -43t-142.5 -15zM450 41q74 0 120 65v98h-90
q-118 0 -118 -88q0 -75 88 -75z" />
    <glyph glyph-name="A" unicode="A" horiz-adv-x="613" 
d="M34 0l229 674h91l225 -674h-71l-60 184h-283l-61 -184h-70zM184 241h245l-122 372z" />
    <glyph glyph-name="B" unicode="B" horiz-adv-x="618" 
d="M102 0v674h228q95 0 145.5 -45.5t50.5 -131.5q0 -59 -26 -97t-73 -50q59 -13 92.5 -57t33.5 -113q0 -88 -53 -134t-156 -46h-242zM321 616h-151v-242h165q124 0 124 121q0 62 -33.5 91.5t-104.5 29.5zM342 317h-172v-259h167q76 0 110.5 30.5t34.5 97.5q0 131 -140 131z
" />
    <glyph glyph-name="C" unicode="C" horiz-adv-x="554" 
d="M338 -13q-138 0 -205.5 84t-67.5 255q0 176 71.5 268.5t208.5 92.5q45 0 87.5 -9.5t76.5 -27.5l-19 -53q-64 30 -138 30q-216 0 -216 -301q0 -145 50.5 -212t159.5 -67q42 0 80 7.5t67 22.5l18 -53q-31 -17 -77 -27t-96 -10z" />
    <glyph glyph-name="D" unicode="D" horiz-adv-x="653" 
d="M102 0v674h196q145 0 219 -85.5t74 -252.5q0 -166 -74 -251t-219 -85h-196zM290 616h-119v-558h119q119 0 174.5 67.5t55.5 211.5t-55.5 211.5t-174.5 67.5z" />
    <glyph glyph-name="E" unicode="E" horiz-adv-x="559" 
d="M102 0v674h392v-58h-324v-243h275v-58h-275v-257h327v-58h-395z" />
    <glyph glyph-name="F" unicode="F" horiz-adv-x="524" 
d="M102 0v674h376v-58h-307v-256h274v-58h-274v-302h-69z" />
    <glyph glyph-name="G" unicode="G" horiz-adv-x="635" 
d="M355 -13q-150 0 -220 82.5t-70 260.5q0 357 299 357q50 0 96.5 -9.5t84.5 -29.5l-19 -55q-78 34 -157 34q-119 0 -176 -72.5t-57 -224.5t52 -218t172 -66q72 0 130 17v225h-163v59h228v-326q-40 -16 -93.5 -25t-106.5 -9z" />
    <glyph glyph-name="H" unicode="H" horiz-adv-x="667" 
d="M102 0v674h69v-297h325v297h69v-674h-69v318h-325v-318h-69z" />
    <glyph glyph-name="I" unicode="I" horiz-adv-x="273" 
d="M102 0v674h69v-674h-69z" />
    <glyph glyph-name="J" unicode="J" horiz-adv-x="448" 
d="M171 -13q-67 0 -126 30l20 56q47 -25 102 -25q63 0 90 36t27 121v411h-189v58h257v-475q0 -110 -43.5 -161t-137.5 -51z" />
    <glyph glyph-name="K" unicode="K" horiz-adv-x="572" 
d="M102 0v674h69v-327l277 327h79l-284 -333l312 -341h-86l-298 325v-325h-69z" />
    <glyph glyph-name="L" unicode="L" horiz-adv-x="512" 
d="M102 0v674h69v-616h302v-58h-371z" />
    <glyph glyph-name="M" unicode="M" horiz-adv-x="829" 
d="M102 0v674h90l223 -508l223 508h89v-674h-63v592l-216 -490h-67l-216 486v-588h-63z" />
    <glyph glyph-name="N" unicode="N" horiz-adv-x="682" 
d="M102 0v674h81l332 -587v587h65v-674h-81l-333 589v-589h-64z" />
    <glyph glyph-name="O" unicode="O" horiz-adv-x="665" 
d="M332 -13q-130 0 -198.5 89t-68.5 261t68.5 261t198.5 89q131 0 199 -89t68 -261t-68 -261t-199 -89zM332 47q196 0 196 290t-196 290t-196 -290t196 -290z" />
    <glyph glyph-name="P" unicode="P" horiz-adv-x="590" 
d="M102 0v674h216q225 0 225 -209q0 -208 -225 -208h-147v-257h-69zM312 616h-141v-300h141q85 0 122.5 35t37.5 114t-38 115t-122 36z" />
    <glyph glyph-name="Q" unicode="Q" horiz-adv-x="665" 
d="M333 -13q-131 0 -199.5 89t-68.5 261t68.5 261t199.5 89t198.5 -89t67.5 -261q0 -238 -129 -314l140 -77l-27 -50l-181 98q-33 -7 -69 -7zM333 47q195 0 195 290t-196 290t-196 -290t197 -290z" />
    <glyph glyph-name="R" unicode="R" horiz-adv-x="612" 
d="M102 0v674h215q214 0 214 -199q0 -161 -140 -188l184 -287h-79l-175 278h-151v-278h-68zM312 616h-142v-281h144q77 0 112 33.5t35 106.5q0 74 -35.5 107.5t-113.5 33.5z" />
    <glyph glyph-name="S" unicode="S" horiz-adv-x="546" 
d="M255 -13q-59 0 -111 11.5t-93 33.5l20 56q77 -41 183 -41q82 0 120.5 31t38.5 96q0 55 -28.5 85.5t-98.5 47.5l-54 13q-85 21 -123 63t-38 115q0 90 57 139.5t161 49.5q45 0 93.5 -11t85.5 -30l-19 -54q-31 17 -71.5 26t-84.5 9q-154 0 -154 -126q0 -49 26.5 -76.5
t92.5 -44.5l48 -12q95 -25 136.5 -69.5t41.5 -122.5q0 -189 -229 -189z" />
    <glyph glyph-name="T" unicode="T" horiz-adv-x="523" 
d="M227 0v616h-205v58h479v-58h-205v-616h-69z" />
    <glyph glyph-name="U" unicode="U" horiz-adv-x="651" 
d="M326 -13q-120 0 -176 67t-56 209v411h68v-420q0 -109 39.5 -158t124.5 -49q86 0 124.5 49t38.5 158v420h68v-411q0 -143 -55.5 -209.5t-175.5 -66.5z" />
    <glyph glyph-name="V" unicode="V" horiz-adv-x="594" 
d="M250 0l-216 674h72l192 -608l191 608h71l-219 -674h-91z" />
    <glyph glyph-name="W" unicode="W" horiz-adv-x="834" 
d="M185 0l-153 674h68l131 -613l144 602h86l143 -602l133 613h65l-154 -674h-90l-141 593l-141 -593h-91z" />
    <glyph glyph-name="X" unicode="X" 
d="M44 0l203 343l-193 331h78l158 -274l161 274h75l-196 -331l207 -343h-78l-171 289l-169 -289h-75z" />
    <glyph glyph-name="Y" unicode="Y" horiz-adv-x="560" 
d="M245 0v243l-224 431h76l186 -362l186 362h70l-225 -428v-246h-69z" />
    <glyph glyph-name="Z" unicode="Z" horiz-adv-x="554" 
d="M59 0v45l353 571h-346v58h429v-46l-353 -570h358v-58h-441z" />
    <glyph glyph-name="bracketleft" unicode="[" horiz-adv-x="382" 
d="M112 -162v904h236v-54h-170v-796h170v-54h-236z" />
    <glyph glyph-name="backslash" unicode="\" horiz-adv-x="406" 
d="M385 -162h-69l-295 904h69z" />
    <glyph glyph-name="bracketright" unicode="]" horiz-adv-x="382" 
d="M270 -162h-236v54h171v796h-171v54h236v-904z" />
    <glyph glyph-name="asciicircum" unicode="^" 
d="M62 236l197 438h62l197 -438h-64l-164 370l-165 -370h-63z" />
    <glyph glyph-name="underscore" unicode="_" horiz-adv-x="456" 
d="M30 -103v58h396v-58h-396z" />
    <glyph glyph-name="grave" unicode="`" horiz-adv-x="260" 
d="M164 609l-134 171h77l123 -171h-66z" />
    <glyph glyph-name="a" unicode="a" horiz-adv-x="522" 
d="M203 -12q-70 0 -109.5 38t-39.5 105q0 78 51.5 118.5t150.5 40.5h118v33q0 79 -26 109.5t-94 30.5q-71 0 -153 -35l-16 53q38 19 84 29t92 10q95 0 136 -43t41 -141v-336h-55l-7 77q-61 -89 -173 -89zM223 43q93 0 151 76v124h-113q-140 0 -140 -106q0 -94 102 -94z" />
    <glyph glyph-name="b" unicode="b" horiz-adv-x="571" 
d="M321 -13q-53 0 -96.5 22t-72.5 62l-6 -71h-56v712h66v-275q59 83 166 83q92 0 140.5 -68.5t48.5 -198.5t-48.5 -198t-141.5 -68zM304 44q139 0 139 209q0 210 -139 210q-84 0 -148 -71v-277q62 -71 148 -71z" />
    <glyph glyph-name="c" unicode="c" horiz-adv-x="459" 
d="M276 -13q-218 0 -218 263q0 131 58 200.5t167 69.5q38 0 73 -8.5t61 -23.5l-19 -53q-53 27 -111 27q-82 0 -121.5 -52t-39.5 -161q0 -205 157 -205q68 0 118 32l18 -52q-52 -37 -143 -37z" />
    <glyph glyph-name="d" unicode="d" horiz-adv-x="571" 
d="M250 -13q-93 0 -141.5 68.5t-48.5 197.5q0 131 48 199t141 68q53 0 95.5 -21.5t70.5 -61.5v275h66v-712h-56l-6 73q-62 -86 -169 -86zM267 44q86 0 148 71v277q-62 71 -148 71q-139 0 -139 -210q0 -209 139 -209z" />
    <glyph glyph-name="e" unicode="e" horiz-adv-x="522" 
d="M281 -13q-224 0 -224 262q0 129 55.5 200t158.5 71q99 0 150 -66t51 -194v-29h-349q4 -96 43.5 -141.5t120.5 -45.5q79 0 141 42l20 -52q-31 -23 -74.5 -35t-92.5 -12zM270 465q-139 0 -147 -185h282q-1 185 -135 185z" />
    <glyph glyph-name="f" unicode="f" horiz-adv-x="358" 
d="M115 0v455h-98v52h98v48q0 165 157 165q19 0 37.5 -2t37.5 -7v-52q-21 4 -34 5.5t-29 1.5q-60 0 -82.5 -25t-22.5 -90v-44h168v-52h-167v-455h-65z" />
    <glyph glyph-name="g" unicode="g" horiz-adv-x="571" 
d="M263 -201q-98 0 -178 39l17 54q73 -38 158 -38q80 0 117.5 40.5t37.5 126.5v64q-60 -85 -167 -85q-92 0 -140 66t-48 194q0 127 48.5 193.5t140.5 66.5q55 0 98.5 -23t71.5 -65l6 75h56v-488q0 -113 -52.5 -166.5t-165.5 -53.5zM267 56q84 0 148 74v260q-62 74 -148 74
q-139 0 -139 -204t139 -204z" />
    <glyph glyph-name="h" unicode="h" horiz-adv-x="564" 
d="M90 0v712h66v-280q58 88 169 88q156 0 156 -177v-343h-66v337q0 65 -26.5 95.5t-82.5 30.5q-85 0 -150 -72v-391h-66z" />
    <glyph glyph-name="i" unicode="i" horiz-adv-x="264" 
d="M99 621v81h79v-81h-79zM110 0v455h-76v52h141v-507h-65z" />
    <glyph glyph-name="j" unicode="j" horiz-adv-x="264" 
d="M99 621v81h79v-81h-79zM65 -201q-35 0 -57 8v51q10 -2 20.5 -3.5t22.5 -1.5q33 0 46 19t13 60v523h-76v52h141v-577q0 -67 -26.5 -99t-83.5 -32z" />
    <glyph glyph-name="k" unicode="k" horiz-adv-x="492" 
d="M90 0v712h65v-436l224 231h76l-230 -235l255 -272h-79l-246 263v-263h-65z" />
    <glyph glyph-name="l" unicode="l" horiz-adv-x="291" 
d="M192 -7q-54 0 -79 28.5t-25 89.5v601h66v-600q0 -38 11.5 -51.5t42.5 -13.5q11 0 21.5 1.5t24.5 4.5v-51q-15 -5 -30 -7t-32 -2z" />
    <glyph glyph-name="m" unicode="m" horiz-adv-x="852" 
d="M90 0v507h55l7 -76q53 89 158 89q110 0 141 -95q60 95 165 95q153 0 153 -178v-342h-66v335q0 66 -25.5 97t-78.5 31q-83 0 -140 -72q3 -21 3 -46v-345h-66v339q0 124 -105 124q-78 0 -135 -72v-391h-66z" />
    <glyph glyph-name="n" unicode="n" horiz-adv-x="564" 
d="M90 0v507h55l7 -78q59 91 172 91q157 0 157 -176v-344h-66v338q0 65 -26.5 95t-82.5 30q-85 0 -150 -72v-391h-66z" />
    <glyph glyph-name="o" unicode="o" horiz-adv-x="546" 
d="M273 -13q-104 0 -159.5 68.5t-55.5 198.5t55 198t160 68t160 -68t55 -198t-55.5 -198.5t-159.5 -68.5zM273 43q147 0 147 211q0 210 -147 210t-147 -210q0 -211 147 -211z" />
    <glyph glyph-name="p" unicode="p" horiz-adv-x="571" 
d="M90 -192v699h55l7 -75q59 88 170 88q92 0 140.5 -68.5t48.5 -198.5t-48.5 -198t-140.5 -68q-107 0 -166 79v-258h-66zM304 44q139 0 139 209q0 210 -139 210q-83 0 -148 -71v-277q62 -71 148 -71z" />
    <glyph glyph-name="q" unicode="q" horiz-adv-x="571" 
d="M415 -192v259q-60 -80 -166 -80q-92 0 -140.5 68.5t-48.5 197.5q0 131 48 199t141 68q55 0 98.5 -23t71.5 -65l6 75h56v-699h-66zM267 44q84 0 148 71v277q-63 71 -148 71q-139 0 -139 -210q0 -209 139 -209z" />
    <glyph glyph-name="r" unicode="r" horiz-adv-x="372" 
d="M90 0v507h55l7 -92q61 97 185 97h14v-65h-10q-124 0 -185 -79v-368h-66z" />
    <glyph glyph-name="s" unicode="s" horiz-adv-x="446" 
d="M215 -13q-52 0 -97 11t-77 33l18 55q69 -43 156 -43q56 0 88 24t32 67q0 40 -22 60.5t-77 31.5l-44 10q-73 16 -105.5 48.5t-32.5 90.5q0 66 48.5 105.5t128.5 39.5q48 0 85.5 -8.5t70.5 -26.5l-16 -51q-31 16 -63 22.5t-73 6.5q-55 0 -86 -22.5t-31 -62.5q0 -36 22 -55
t78 -31l35 -8q83 -19 115 -52t32 -98q0 -70 -48 -108.5t-137 -38.5z" />
    <glyph glyph-name="t" unicode="t" horiz-adv-x="381" 
d="M259 -7q-79 0 -111.5 37t-32.5 125v300h-95v49l63 2q22 2 30 8.5t9 25.5l7 107h51v-140h172v-52h-172v-301q0 -62 19.5 -84.5t74.5 -22.5q15 0 30 1.5t39 5.5v-51q-33 -10 -84 -10z" />
    <glyph glyph-name="u" unicode="u" horiz-adv-x="559" 
d="M235 -13q-152 0 -152 178v342h66v-336q0 -67 24.5 -97t79.5 -30q88 0 150 72v391h66v-507h-55l-7 76q-62 -89 -172 -89z" />
    <glyph glyph-name="v" unicode="v" horiz-adv-x="477" 
d="M196 0l-174 507h71l147 -453l148 453h67l-173 -507h-86z" />
    <glyph glyph-name="w" unicode="w" horiz-adv-x="725" 
d="M156 0l-134 507h70l108 -458l124 440h78l123 -439l111 457h66l-134 -507h-84l-122 429l-122 -429h-84z" />
    <glyph glyph-name="x" unicode="x" horiz-adv-x="468" 
d="M29 0l164 257l-160 250h74l127 -199l127 199h70l-159 -247l167 -260h-74l-134 209l-131 -209h-71z" />
    <glyph glyph-name="y" unicode="y" horiz-adv-x="470" 
d="M85 -201q-34 0 -60 9v51q26 -6 51 -6q31 0 52 10.5t37 35.5t31 70l7 20l-187 518h73l147 -434l146 434h70l-211 -585q-25 -67 -60 -95t-96 -28z" />
    <glyph glyph-name="z" unicode="z" horiz-adv-x="467" 
d="M55 0v43l276 412h-271v52h347v-44l-276 -411h281v-52h-357z" />
    <glyph glyph-name="braceleft" unicode="{" horiz-adv-x="422" 
d="M290 -173q-73 0 -112 31t-39 92q0 29 9.5 58.5t34.5 78.5q22 44 29.5 65t7.5 40q0 32 -19.5 51.5t-65.5 19.5h-78v55h78q46 0 65.5 20t19.5 51q0 19 -7.5 40.5t-29.5 64.5q-25 49 -34.5 79t-9.5 58q0 62 39 92.5t112 30.5q47 0 98 -13v-54q-26 6 -47 8.5t-37 2.5
q-97 0 -97 -75q0 -23 9.5 -49.5t31.5 -70.5t30.5 -68.5t8.5 -46.5q0 -39 -23 -67t-63 -31q41 -4 63.5 -31t22.5 -66q0 -22 -8.5 -46.5t-30.5 -68.5t-31.5 -70t-9.5 -49q0 -40 25 -57.5t72 -17.5q16 0 37 2t47 8v-54q-51 -13 -98 -13z" />
    <glyph glyph-name="bar" unicode="|" horiz-adv-x="289" 
d="M112 -192v934h65v-934h-65z" />
    <glyph glyph-name="braceright" unicode="}" horiz-adv-x="422" 
d="M132 -173q-47 0 -98 13v54q26 -6 47 -8t37 -2q47 0 72 17.5t25 57.5q0 23 -9 49t-32 70q-22 44 -30.5 68.5t-8.5 46.5q0 40 23.5 67.5t62.5 30.5q-41 4 -63.5 31.5t-22.5 65.5q0 22 8.5 46.5t30.5 68.5q23 44 32 70.5t9 49.5q0 75 -97 75q-16 0 -37 -2.5t-47 -8.5v54
q51 13 98 13q74 0 112.5 -30.5t38.5 -92.5q0 -28 -9.5 -58t-34.5 -79q-22 -43 -29.5 -64.5t-7.5 -40.5q0 -31 20 -51t65 -20h78v-55h-78q-45 0 -65 -19.5t-20 -51.5q0 -19 7.5 -40t29.5 -65q25 -49 34.5 -78.5t9.5 -58.5q0 -61 -38.5 -92t-112.5 -31z" />
    <glyph glyph-name="asciitilde" unicode="~" 
d="M408 204q-37 0 -63.5 19t-61.5 70l-29 43q-26 39 -43.5 53t-38.5 14q-26 0 -41 -16.5t-21 -57.5t-6 -116h-55q0 93 11.5 147.5t38 78t72.5 23.5q38 0 65 -19t61 -71l29 -43q26 -38 43.5 -52t38.5 -14q27 0 41.5 17t20.5 58.5t6 114.5h55q0 -91 -12 -146t-38.5 -79
t-72.5 -24z" />
    <glyph glyph-name="uni00A0" unicode="&#xa0;" horiz-adv-x="229" 
 />
    <glyph glyph-name="exclamdown" unicode="&#xa1;" horiz-adv-x="236" 
d="M78 410v97h80v-97h-80zM82 -167l7 479h58l6 -479h-71z" />
    <glyph glyph-name="cent" unicode="&#xa2;" 
d="M298 -53v87q-199 18 -199 258q0 242 199 265v86h45v-84q73 -1 141 -32l-18 -54q-61 29 -123 29v-413q31 0 62.5 8.5t62.5 24.5l17 -53q-30 -16 -67 -26t-75 -11v-85h-45zM165 292q0 -92 32 -140.5t101 -59.5v407q-68 -12 -100.5 -62.5t-32.5 -144.5z" />
    <glyph glyph-name="sterling" unicode="&#xa3;" 
d="M87 0v54q39 33 61.5 61t32 57.5t9.5 66.5q0 23 -3 42.5t-7 37.5h-116v48h100q-11 32 -21 65t-10 76q0 83 58.5 131t158.5 48q82 0 151 -39l-21 -52q-28 15 -59.5 23.5t-63.5 8.5q-76 0 -118.5 -35t-42.5 -97q0 -35 10 -65.5t21 -63.5h208v-48h-193q5 -19 8 -40t3 -44
q0 -55 -20.5 -96t-70.5 -83h356v-56h-431z" />
    <glyph glyph-name="currency" unicode="&#xa4;" 
d="M96 97l-39 39l87 88q-31 45 -31 107t31 107l-87 87l39 39l86 -86q45 32 108 32t108 -32l86 86l39 -38l-87 -88q31 -45 31 -107t-31 -107l87 -87l-39 -40l-87 87q-45 -32 -107 -32q-63 0 -108 32zM290 203q55 0 88 35t33 93q0 57 -33 92t-88 35t-88.5 -35t-33.5 -92
q0 -58 33.5 -93t88.5 -35z" />
    <glyph glyph-name="yen" unicode="&#xa5;" 
d="M97 116v46h161v101h-161v47h138l-191 364h73l175 -346l176 346h69l-192 -364h139v-47h-160v-101h160v-46h-160v-116h-66v116h-161z" />
    <glyph glyph-name="section" unicode="&#xa7;" horiz-adv-x="555" 
d="M269 -57q-56 0 -108.5 11t-88.5 30l18 56q84 -38 178 -38q142 0 142 91q0 41 -27.5 61t-92.5 27l-51 6q-88 10 -127.5 44t-39.5 99q0 82 73 122q-66 36 -66 119q0 72 53.5 110.5t153.5 38.5q56 0 108.5 -10.5t89.5 -30.5l-19 -56q-84 38 -178 38q-142 0 -142 -91
q0 -40 28 -60t92 -27l51 -6q88 -10 127.5 -44.5t39.5 -99.5q0 -82 -72 -122q65 -36 65 -119q0 -72 -53.5 -110.5t-153.5 -38.5zM317 237q25 -3 45 -8q28 16 44 40.5t16 52.5q0 47 -28 69t-96 29l-60 6q-25 3 -46 8q-27 -16 -43 -40.5t-16 -53.5q0 -46 28 -67.5t97 -28.5z
" />
    <glyph glyph-name="dieresis" unicode="&#xa8;" horiz-adv-x="324" 
d="M30 621v80h76v-80h-76zM217 621v80h77v-80h-77z" />
    <glyph glyph-name="copyright" unicode="&#xa9;" horiz-adv-x="794" 
d="M396 -13q-104 0 -179.5 42.5t-116.5 120.5t-41 186t41.5 186.5t117.5 121.5t179 43q104 0 179.5 -43t117 -121.5t41.5 -186.5q0 -107 -41.5 -185.5t-117.5 -121t-180 -42.5zM396 28q90 0 156.5 38t102.5 107t36 163q0 95 -36 164.5t-102 107.5t-156 38q-89 0 -155 -38.5
t-102.5 -108t-36.5 -163.5t36 -163t102 -107t155 -38zM410 140q-170 0 -170 194q0 98 45 151t129 53q60 0 105 -25l-16 -44q-35 19 -82 19q-121 0 -121 -156q0 -73 28 -107.5t89 -34.5q51 0 86 19l16 -44q-45 -25 -109 -25z" />
    <glyph glyph-name="ordfeminine" unicode="&#xaa;" horiz-adv-x="409" 
d="M166 301q-53 0 -83 29t-30 80q0 113 149 113h81v21q0 52 -18.5 73t-65.5 21q-27 0 -53.5 -6t-55.5 -18l-13 45q59 28 129 28q71 0 103 -32.5t32 -103.5v-241h-51l-4 51q-43 -60 -120 -60zM181 348q63 0 102 51v86h-78q-94 0 -94 -73q0 -64 70 -64z" />
    <glyph glyph-name="guillemotleft" unicode="&#xab;" horiz-adv-x="635" 
d="M252 47l-199 213l199 213h84l-197 -213l198 -213h-85zM493 47l-199 213l199 213h84l-197 -213l198 -213h-85z" />
    <glyph glyph-name="logicalnot" unicode="&#xac;" 
d="M444 201v188h-375v58h434v-246h-59z" />
    <glyph glyph-name="uni00AD" unicode="&#xad;" horiz-adv-x="402" 
d="M64 247v62h274v-62h-274z" />
    <glyph glyph-name="registered" unicode="&#xae;" horiz-adv-x="575" 
d="M287 214q-70 0 -122.5 29.5t-81.5 82.5t-29 124t29 124.5t82 83t123 29.5q71 0 123 -29.5t81 -82.5t29 -124t-29 -124.5t-81.5 -83t-123.5 -29.5zM287 248q90 0 143.5 55t53.5 147t-53.5 147.5t-142.5 55.5t-143 -55t-54 -147t53.5 -147.5t142.5 -55.5zM203 327v258h89
q41 0 65 -21.5t24 -59.5q0 -60 -54 -72l68 -105h-43l-62 99h-49v-99h-38zM292 552h-51v-92h52q48 0 48 45q0 47 -49 47z" />
    <glyph glyph-name="degree" unicode="&#xb0;" horiz-adv-x="441" 
d="M220 382q-67 0 -108.5 42.5t-41.5 110.5t42 110t109 42t108.5 -42t41.5 -110t-41.5 -110.5t-109.5 -42.5zM220 431q45 0 71.5 28.5t26.5 75.5t-26.5 75.5t-70.5 28.5t-71 -28.5t-27 -75.5t27 -75.5t70 -28.5z" />
    <glyph glyph-name="uni00B2" unicode="&#xb2;" horiz-adv-x="353" 
d="M46 400v42l121 99q39 32 54 56t15 52q0 71 -78 71q-47 0 -88 -29l-21 42q23 18 52 26.5t63 8.5q62 0 96 -30.5t34 -86.5q0 -40 -20 -72t-70 -71l-75 -60h178v-48h-261z" />
    <glyph glyph-name="uni00B3" unicode="&#xb3;" horiz-adv-x="355" 
d="M163 391q-77 0 -128 35l17 44q50 -30 108 -30q84 0 84 62q0 57 -83 57h-49l1 46h50q35 0 54.5 15t19.5 43q0 56 -76 56q-53 0 -97 -27l-18 43q50 33 121 33q58 0 92.5 -26t34.5 -71q0 -33 -19 -56t-50 -31q36 -7 56.5 -30.5t20.5 -58.5q0 -48 -37.5 -76t-101.5 -28z" />
    <glyph glyph-name="acute" unicode="&#xb4;" horiz-adv-x="260" 
d="M30 609l123 171h77l-134 -171h-66z" />
    <glyph glyph-name="paragraph" unicode="&#xb6;" horiz-adv-x="583" 
d="M308 -192v442h-31q-111 0 -164 55.5t-53 156.5t53 156.5t164 55.5h79v-866h-48zM422 -192v866h49v-866h-49z" />
    <glyph glyph-name="periodcentered" unicode="&#xb7;" horiz-adv-x="221" 
d="M70 212v97h81v-97h-81z" />
    <glyph glyph-name="cedilla" unicode="&#xb8;" horiz-adv-x="283" 
d="M123 -249q-22 0 -45.5 3t-47.5 11v46q25 -7 47 -9t40 -2q41 0 59 12t18 37q0 27 -21.5 40.5t-80.5 15.5l19 106l46 -1l-12 -65q52 -7 80.5 -29.5t28.5 -67.5q0 -97 -131 -97z" />
    <glyph glyph-name="uni00B9" unicode="&#xb9;" horiz-adv-x="266" 
d="M132 400v276h-95v46l72 2q17 1 22.5 6.5t7.5 19.5l3 17h47v-367h-57z" />
    <glyph glyph-name="ordmasculine" unicode="&#xba;" horiz-adv-x="419" 
d="M209 301q-77 0 -118 49.5t-41 143.5t41.5 143.5t118.5 49.5t118 -49.5t41 -143.5t-41.5 -143.5t-118.5 -49.5zM209 350q99 0 99 144q0 145 -98 145t-98 -145q0 -144 97 -144z" />
    <glyph glyph-name="guillemotright" unicode="&#xbb;" horiz-adv-x="635" 
d="M142 47h-85l198 213l-197 213h84l198 -213zM383 47h-85l198 213l-197 213h84l198 -213z" />
    <glyph glyph-name="onequarter" unicode="&#xbc;" horiz-adv-x="777" 
d="M132 0l405 674h71l-405 -674h-71zM620 0v84h-188v42l174 233h68v-231h62v-44h-62v-84h-54zM491 128h131v179zM132 315v276h-95v46l72 2q17 1 22.5 6.5t7.5 19.5l3 17h47v-367h-57z" />
    <glyph glyph-name="onehalf" unicode="&#xbd;" horiz-adv-x="815" 
d="M132 0l405 674h71l-405 -674h-71zM509 0v42l121 99q39 32 54 56t15 52q0 71 -78 71q-47 0 -88 -29l-21 42q23 18 52 26.5t63 8.5q62 0 96 -30.5t34 -86.5q0 -40 -20 -72t-70 -71l-75 -60h178v-48h-261zM132 315v276h-95v46l72 2q17 1 22.5 6.5t7.5 19.5l3 17h47v-367h-57
z" />
    <glyph glyph-name="threequarters" unicode="&#xbe;" horiz-adv-x="840" 
d="M195 0l405 674h71l-405 -674h-71zM683 0v84h-188v42l174 233h68v-231h62v-44h-62v-84h-54zM554 128h131v179zM163 306q-77 0 -128 35l17 44q50 -30 108 -30q84 0 84 62q0 57 -83 57h-49l1 46h50q35 0 54.5 15t19.5 43q0 56 -76 56q-53 0 -97 -27l-18 43q50 33 121 33
q58 0 92.5 -26t34.5 -71q0 -33 -19 -56t-50 -31q36 -7 56.5 -30.5t20.5 -58.5q0 -48 -37.5 -76t-101.5 -28z" />
    <glyph glyph-name="questiondown" unicode="&#xbf;" horiz-adv-x="473" 
d="M225 410v97h80v-97h-80zM250 -181q-100 0 -153 44t-53 127q0 53 22 91t80 83q36 28 55 49.5t26 44.5t7 54h61q0 -43 -9 -74.5t-31 -58.5t-61 -57q-47 -37 -64.5 -65t-17.5 -66q0 -113 142 -113q43 0 84 10.5t82 30.5l19 -55q-82 -45 -189 -45z" />
    <glyph glyph-name="Agrave" unicode="&#xc0;" horiz-adv-x="613" 
d="M34 0l229 674h91l225 -674h-71l-60 184h-283l-61 -184h-70zM184 241h245l-122 372zM292 751l-144 150h85l131 -150h-72z" />
    <glyph glyph-name="Aacute" unicode="&#xc1;" horiz-adv-x="613" 
d="M34 0l229 674h91l225 -674h-71l-60 184h-283l-61 -184h-70zM184 241h245l-122 372zM239 751l131 150h85l-144 -150h-72z" />
    <glyph glyph-name="Acircumflex" unicode="&#xc2;" horiz-adv-x="613" 
d="M34 0l229 674h91l225 -674h-71l-60 184h-283l-61 -184h-70zM184 241h245l-122 372zM151 751l122 150h73l120 -150h-71l-85 110l-89 -110h-70z" />
    <glyph glyph-name="Atilde" unicode="&#xc3;" horiz-adv-x="613" 
d="M34 0l229 674h91l225 -674h-71l-60 184h-283l-61 -184h-70zM184 241h245l-122 372zM139 751q0 85 21.5 119t67.5 34q32 0 51.5 -13t41.5 -39l16 -19q16 -19 27 -28t26 -9q23 0 31.5 22t8.5 80h53q0 -85 -21.5 -119t-68.5 -34q-31 0 -50.5 13.5t-41.5 38.5l-16 19
q-16 20 -27 28.5t-27 8.5q-22 0 -31 -21.5t-9 -80.5h-52z" />
    <glyph glyph-name="Adieresis" unicode="&#xc4;" horiz-adv-x="613" 
d="M34 0l229 674h91l225 -674h-71l-60 184h-283l-61 -184h-70zM184 241h245l-122 372zM177 770v80h76v-80h-76zM364 770v80h77v-80h-77z" />
    <glyph glyph-name="Aring" unicode="&#xc5;" horiz-adv-x="613" 
d="M34 0l229 674h91l225 -674h-71l-60 184h-283l-61 -184h-70zM184 241h245l-122 372zM309 734q-45 0 -73.5 28t-28.5 74q0 47 28.5 75t73.5 28q46 0 74 -28.5t28 -74.5t-28 -74t-74 -28zM309 775q26 0 41.5 16.5t15.5 44.5q0 29 -15.5 45t-41.5 16q-25 0 -41 -16t-16 -45
q0 -28 16 -44.5t41 -16.5z" />
    <glyph glyph-name="AE" unicode="&#xc6;" horiz-adv-x="917" 
d="M28 0l404 674h420v-58h-312v-242h262v-59h-262v-257h316v-58h-384v184h-258l-110 -184h-76zM472 617l-224 -376h224v376z" />
    <glyph glyph-name="Ccedilla" unicode="&#xc7;" horiz-adv-x="554" 
d="M338 -13q-138 0 -205.5 84t-67.5 255q0 176 71.5 268.5t208.5 92.5q45 0 87.5 -9.5t76.5 -27.5l-19 -53q-64 30 -138 30q-216 0 -216 -301q0 -145 50.5 -212t159.5 -67q42 0 80 7.5t67 22.5l18 -53q-31 -17 -77 -27t-96 -10zM320 -249q-25 0 -47.5 3.5t-45.5 10.5v47
q25 -7 44.5 -9.5t43.5 -2.5q72 0 72 48q0 28 -20.5 41t-81.5 16l19 106l46 -1l-12 -65q51 -7 80 -29.5t29 -68.5t-32.5 -71t-94.5 -25z" />
    <glyph glyph-name="Egrave" unicode="&#xc8;" horiz-adv-x="559" 
d="M102 0v674h392v-58h-324v-243h275v-58h-275v-257h327v-58h-395zM281 751l-144 150h85l131 -150h-72z" />
    <glyph glyph-name="Eacute" unicode="&#xc9;" horiz-adv-x="559" 
d="M102 0v674h392v-58h-324v-243h275v-58h-275v-257h327v-58h-395zM228 751l131 150h85l-144 -150h-72z" />
    <glyph glyph-name="Ecircumflex" unicode="&#xca;" horiz-adv-x="559" 
d="M102 0v674h392v-58h-324v-243h275v-58h-275v-257h327v-58h-395zM140 751l122 150h73l120 -150h-71l-85 110l-89 -110h-70z" />
    <glyph glyph-name="Edieresis" unicode="&#xcb;" horiz-adv-x="559" 
d="M102 0v674h392v-58h-324v-243h275v-58h-275v-257h327v-58h-395zM166 770v80h76v-80h-76zM353 770v80h77v-80h-77z" />
    <glyph glyph-name="Igrave" unicode="&#xcc;" horiz-adv-x="273" 
d="M102 0v674h69v-674h-69zM119 751l-144 150h85l131 -150h-72z" />
    <glyph glyph-name="Iacute" unicode="&#xcd;" horiz-adv-x="273" 
d="M102 0v674h69v-674h-69zM66 751l131 150h85l-144 -150h-72z" />
    <glyph glyph-name="Icircumflex" unicode="&#xce;" horiz-adv-x="273" 
d="M102 0v674h69v-674h-69zM-22 751l122 150h73l120 -150h-71l-85 110l-89 -110h-70z" />
    <glyph glyph-name="Idieresis" unicode="&#xcf;" horiz-adv-x="273" 
d="M102 0v674h69v-674h-69zM4 770v80h76v-80h-76zM191 770v80h77v-80h-77z" />
    <glyph glyph-name="Eth" unicode="&#xd0;" horiz-adv-x="667" 
d="M116 0v317h-81v55h81v302h196q146 0 219.5 -86.5t73.5 -251.5q0 -164 -73.5 -250t-219.5 -86h-196zM352 317h-169v-259h121q118 0 173.5 67t55.5 212q0 146 -55.5 212.5t-173.5 66.5h-121v-244h169v-55z" />
    <glyph glyph-name="Ntilde" unicode="&#xd1;" horiz-adv-x="682" 
d="M102 0v674h81l332 -587v587h65v-674h-81l-333 589v-589h-64zM171 751q0 85 21.5 119t67.5 34q32 0 51.5 -13t41.5 -39l16 -19q16 -19 27 -28t26 -9q23 0 31.5 22t8.5 80h53q0 -85 -21.5 -119t-68.5 -34q-31 0 -50.5 13.5t-41.5 38.5l-16 19q-16 20 -27 28.5t-27 8.5
q-22 0 -31 -21.5t-9 -80.5h-52z" />
    <glyph glyph-name="Ograve" unicode="&#xd2;" horiz-adv-x="665" 
d="M332 -13q-130 0 -198.5 89t-68.5 261t68.5 261t198.5 89q131 0 199 -89t68 -261t-68 -261t-199 -89zM332 47q196 0 196 290t-196 290t-196 -290t196 -290zM315 751l-144 150h85l131 -150h-72z" />
    <glyph glyph-name="Oacute" unicode="&#xd3;" horiz-adv-x="665" 
d="M332 -13q-130 0 -198.5 89t-68.5 261t68.5 261t198.5 89q131 0 199 -89t68 -261t-68 -261t-199 -89zM332 47q196 0 196 290t-196 290t-196 -290t196 -290zM262 751l131 150h85l-144 -150h-72z" />
    <glyph glyph-name="Ocircumflex" unicode="&#xd4;" horiz-adv-x="665" 
d="M332 -13q-130 0 -198.5 89t-68.5 261t68.5 261t198.5 89q131 0 199 -89t68 -261t-68 -261t-199 -89zM332 47q196 0 196 290t-196 290t-196 -290t196 -290zM174 751l122 150h73l120 -150h-71l-85 110l-89 -110h-70z" />
    <glyph glyph-name="Otilde" unicode="&#xd5;" horiz-adv-x="665" 
d="M332 -13q-130 0 -198.5 89t-68.5 261t68.5 261t198.5 89q131 0 199 -89t68 -261t-68 -261t-199 -89zM332 47q196 0 196 290t-196 290t-196 -290t196 -290zM162 751q0 85 21.5 119t67.5 34q32 0 51.5 -13t41.5 -39l16 -19q16 -19 27 -28t26 -9q23 0 31.5 22t8.5 80h53
q0 -85 -21.5 -119t-68.5 -34q-31 0 -50.5 13.5t-41.5 38.5l-16 19q-16 20 -27 28.5t-27 8.5q-22 0 -31 -21.5t-9 -80.5h-52z" />
    <glyph glyph-name="Odieresis" unicode="&#xd6;" horiz-adv-x="665" 
d="M332 -13q-130 0 -198.5 89t-68.5 261t68.5 261t198.5 89q131 0 199 -89t68 -261t-68 -261t-199 -89zM332 47q196 0 196 290t-196 290t-196 -290t196 -290zM200 770v80h76v-80h-76zM387 770v80h77v-80h-77z" />
    <glyph glyph-name="multiply" unicode="&#xd7;" 
d="M128 133l-40 40l162 161l-162 160l40 40l162 -160l161 160l40 -40l-161 -160l161 -161l-40 -40l-161 161z" />
    <glyph glyph-name="Oslash" unicode="&#xd8;" horiz-adv-x="665" 
d="M108 -24l-37 26l57 82q-63 89 -63 253q0 172 68.5 261t198.5 89q108 0 174 -61l51 72l37 -26l-57 -82q62 -89 62 -253q0 -172 -68 -261t-199 -89q-108 0 -174 61zM135 337q0 -123 36 -192l297 425q-47 57 -136 57q-197 0 -197 -290zM332 47q197 0 197 290q0 125 -35 193
l-297 -427q48 -56 135 -56z" />
    <glyph glyph-name="Ugrave" unicode="&#xd9;" horiz-adv-x="651" 
d="M326 -13q-120 0 -176 67t-56 209v411h68v-420q0 -109 39.5 -158t124.5 -49q86 0 124.5 49t38.5 158v420h68v-411q0 -143 -55.5 -209.5t-175.5 -66.5zM309 751l-144 150h85l131 -150h-72z" />
    <glyph glyph-name="Uacute" unicode="&#xda;" horiz-adv-x="651" 
d="M326 -13q-120 0 -176 67t-56 209v411h68v-420q0 -109 39.5 -158t124.5 -49q86 0 124.5 49t38.5 158v420h68v-411q0 -143 -55.5 -209.5t-175.5 -66.5zM256 751l131 150h85l-144 -150h-72z" />
    <glyph glyph-name="Ucircumflex" unicode="&#xdb;" horiz-adv-x="651" 
d="M326 -13q-120 0 -176 67t-56 209v411h68v-420q0 -109 39.5 -158t124.5 -49q86 0 124.5 49t38.5 158v420h68v-411q0 -143 -55.5 -209.5t-175.5 -66.5zM168 751l122 150h73l120 -150h-71l-85 110l-89 -110h-70z" />
    <glyph glyph-name="Udieresis" unicode="&#xdc;" horiz-adv-x="651" 
d="M326 -13q-120 0 -176 67t-56 209v411h68v-420q0 -109 39.5 -158t124.5 -49q86 0 124.5 49t38.5 158v420h68v-411q0 -143 -55.5 -209.5t-175.5 -66.5zM194 770v80h76v-80h-76zM381 770v80h77v-80h-77z" />
    <glyph glyph-name="Yacute" unicode="&#xdd;" horiz-adv-x="560" 
d="M245 0v243l-224 431h76l186 -362l186 362h70l-225 -428v-246h-69zM213 751l131 150h85l-144 -150h-72z" />
    <glyph glyph-name="Thorn" unicode="&#xde;" horiz-adv-x="600" 
d="M102 0v674h69v-126h160q222 0 222 -204q0 -103 -54.5 -153t-167.5 -50h-160v-141h-69zM325 489h-154v-290h154q84 0 121 34t37 111t-37 111t-121 34z" />
    <glyph glyph-name="germandbls" unicode="&#xdf;" horiz-adv-x="590" 
d="M336 -7q-46 0 -83 10v52q34 -8 70 -8q144 0 144 144q0 155 -159 155h-32v54h31q61 0 94 34.5t33 97.5q0 64 -35 98t-101 34q-72 0 -106.5 -40t-34.5 -123v-501h-66v504q0 216 206 216q96 0 149 -49t53 -138q0 -119 -104 -155q67 -15 103.5 -64t36.5 -128
q0 -94 -51 -143.5t-148 -49.5z" />
    <glyph glyph-name="agrave" unicode="&#xe0;" horiz-adv-x="522" 
d="M203 -12q-70 0 -109.5 38t-39.5 105q0 78 51.5 118.5t150.5 40.5h118v33q0 79 -26 109.5t-94 30.5q-71 0 -153 -35l-16 53q38 19 84 29t92 10q95 0 136 -43t41 -141v-336h-55l-7 77q-61 -89 -173 -89zM223 43q93 0 151 76v124h-113q-140 0 -140 -106q0 -94 102 -94z
M251 609l-134 171h77l123 -171h-66z" />
    <glyph glyph-name="aacute" unicode="&#xe1;" horiz-adv-x="522" 
d="M203 -12q-70 0 -109.5 38t-39.5 105q0 78 51.5 118.5t150.5 40.5h118v33q0 79 -26 109.5t-94 30.5q-71 0 -153 -35l-16 53q38 19 84 29t92 10q95 0 136 -43t41 -141v-336h-55l-7 77q-61 -89 -173 -89zM223 43q93 0 151 76v124h-113q-140 0 -140 -106q0 -94 102 -94z
M211 609l123 171h77l-134 -171h-66z" />
    <glyph glyph-name="acircumflex" unicode="&#xe2;" horiz-adv-x="522" 
d="M203 -12q-70 0 -109.5 38t-39.5 105q0 78 51.5 118.5t150.5 40.5h118v33q0 79 -26 109.5t-94 30.5q-71 0 -153 -35l-16 53q38 19 84 29t92 10q95 0 136 -43t41 -141v-336h-55l-7 77q-61 -89 -173 -89zM223 43q93 0 151 76v124h-113q-140 0 -140 -106q0 -94 102 -94z
M104 609l125 171h69l125 -171h-66l-93 127l-94 -127h-66z" />
    <glyph glyph-name="atilde" unicode="&#xe3;" horiz-adv-x="522" 
d="M203 -12q-70 0 -109.5 38t-39.5 105q0 78 51.5 118.5t150.5 40.5h118v33q0 79 -26 109.5t-94 30.5q-71 0 -153 -35l-16 53q38 19 84 29t92 10q95 0 136 -43t41 -141v-336h-55l-7 77q-61 -89 -173 -89zM223 43q93 0 151 76v124h-113q-140 0 -140 -106q0 -94 102 -94z
M96 609q0 88 20 123t69 35q29 0 48 -12t40 -40l15 -21q17 -23 28 -32t25 -9q22 0 29.5 23t7.5 87h53q0 -88 -19.5 -123t-69.5 -35q-29 0 -48 12t-40 40l-15 21q-17 23 -28 31.5t-25 8.5q-22 0 -29.5 -23t-7.5 -86h-53z" />
    <glyph glyph-name="adieresis" unicode="&#xe4;" horiz-adv-x="522" 
d="M203 -12q-70 0 -109.5 38t-39.5 105q0 78 51.5 118.5t150.5 40.5h118v33q0 79 -26 109.5t-94 30.5q-71 0 -153 -35l-16 53q38 19 84 29t92 10q95 0 136 -43t41 -141v-336h-55l-7 77q-61 -89 -173 -89zM223 43q93 0 151 76v124h-113q-140 0 -140 -106q0 -94 102 -94z
M132 621v80h76v-80h-76zM319 621v80h77v-80h-77z" />
    <glyph glyph-name="aring" unicode="&#xe5;" horiz-adv-x="522" 
d="M203 -12q-70 0 -109.5 38t-39.5 105q0 78 51.5 118.5t150.5 40.5h118v33q0 79 -26 109.5t-94 30.5q-71 0 -153 -35l-16 53q38 19 84 29t92 10q95 0 136 -43t41 -141v-336h-55l-7 77q-61 -89 -173 -89zM223 43q93 0 151 76v124h-113q-140 0 -140 -106q0 -94 102 -94z
M264 603q-45 0 -73.5 28.5t-28.5 74.5t28.5 74t73.5 28q46 0 74 -28t28 -74t-28 -74.5t-74 -28.5zM264 645q26 0 41.5 16.5t15.5 44.5t-15.5 44.5t-41.5 16.5q-25 0 -41 -16t-16 -45q0 -28 16 -44.5t41 -16.5z" />
    <glyph glyph-name="ae" unicode="&#xe6;" horiz-adv-x="830" 
d="M207 -12q-73 0 -113 37.5t-40 105.5q0 76 51.5 114.5t150.5 38.5h116q-1 71 -11 110t-35.5 54t-71.5 15q-37 0 -73.5 -8t-79.5 -27l-16 53q80 39 176 39q124 0 154 -93q23 45 66 69t100 24q97 0 148 -66t51 -192v-28h-344q3 -97 42.5 -143.5t119.5 -46.5q79 0 141 42
l20 -52q-67 -47 -166 -47q-139 0 -190 105q-69 -104 -196 -104zM580 465q-135 0 -143 -182h277q-2 182 -134 182zM224 43q94 0 163 90q-13 45 -15 104h-111q-140 0 -140 -100q0 -94 103 -94z" />
    <glyph glyph-name="ccedilla" unicode="&#xe7;" horiz-adv-x="459" 
d="M276 -13q-218 0 -218 263q0 131 58 200.5t167 69.5q38 0 73 -8.5t61 -23.5l-19 -53q-53 27 -111 27q-82 0 -121.5 -52t-39.5 -161q0 -205 157 -205q68 0 118 32l18 -52q-52 -37 -143 -37zM250 -249q-22 0 -45.5 3t-47.5 11v46q25 -7 47 -9t40 -2q41 0 59 12t18 37
q0 27 -21.5 40.5t-80.5 15.5l19 106l46 -1l-12 -65q52 -7 80.5 -29.5t28.5 -67.5q0 -97 -131 -97z" />
    <glyph glyph-name="egrave" unicode="&#xe8;" horiz-adv-x="522" 
d="M281 -13q-224 0 -224 262q0 129 55.5 200t158.5 71q99 0 150 -66t51 -194v-29h-349q4 -96 43.5 -141.5t120.5 -45.5q79 0 141 42l20 -52q-31 -23 -74.5 -35t-92.5 -12zM270 465q-139 0 -147 -185h282q-1 185 -135 185zM258 609l-134 171h77l123 -171h-66z" />
    <glyph glyph-name="eacute" unicode="&#xe9;" horiz-adv-x="522" 
d="M281 -13q-224 0 -224 262q0 129 55.5 200t158.5 71q99 0 150 -66t51 -194v-29h-349q4 -96 43.5 -141.5t120.5 -45.5q79 0 141 42l20 -52q-31 -23 -74.5 -35t-92.5 -12zM270 465q-139 0 -147 -185h282q-1 185 -135 185zM218 609l123 171h77l-134 -171h-66z" />
    <glyph glyph-name="ecircumflex" unicode="&#xea;" horiz-adv-x="522" 
d="M281 -13q-224 0 -224 262q0 129 55.5 200t158.5 71q99 0 150 -66t51 -194v-29h-349q4 -96 43.5 -141.5t120.5 -45.5q79 0 141 42l20 -52q-31 -23 -74.5 -35t-92.5 -12zM270 465q-139 0 -147 -185h282q-1 185 -135 185zM111 609l125 171h69l125 -171h-66l-93 127l-94 -127
h-66z" />
    <glyph glyph-name="edieresis" unicode="&#xeb;" horiz-adv-x="522" 
d="M281 -13q-224 0 -224 262q0 129 55.5 200t158.5 71q99 0 150 -66t51 -194v-29h-349q4 -96 43.5 -141.5t120.5 -45.5q79 0 141 42l20 -52q-31 -23 -74.5 -35t-92.5 -12zM270 465q-139 0 -147 -185h282q-1 185 -135 185zM139 621v80h76v-80h-76zM326 621v80h77v-80h-77z
" />
    <glyph glyph-name="igrave" unicode="&#xec;" horiz-adv-x="264" 
d="M110 0v455h-76v52h141v-507h-65zM109 609l-134 171h77l123 -171h-66z" />
    <glyph glyph-name="iacute" unicode="&#xed;" horiz-adv-x="264" 
d="M110 0v455h-76v52h141v-507h-65zM69 609l123 171h77l-134 -171h-66z" />
    <glyph glyph-name="icircumflex" unicode="&#xee;" horiz-adv-x="264" 
d="M110 0v455h-76v52h141v-507h-65zM-38 609l125 171h69l125 -171h-66l-93 127l-94 -127h-66z" />
    <glyph glyph-name="idieresis" unicode="&#xef;" horiz-adv-x="264" 
d="M110 0v455h-76v52h141v-507h-65zM-10 621v80h76v-80h-76zM177 621v80h77v-80h-77z" />
    <glyph glyph-name="eth" unicode="&#xf0;" horiz-adv-x="560" 
d="M280 -13q-102 0 -157.5 63t-55.5 179q0 110 51 172t142 62q105 0 163 -86q-12 72 -45 126.5t-90 94.5l-134 -79l-22 40l112 66q-48 25 -111 46l22 47q83 -23 145 -60l97 57l21 -40l-76 -45q157 -118 157 -364q0 -136 -56 -207.5t-163 -71.5zM135 227q0 -90 37.5 -137
t108.5 -47q150 0 150 224q0 16 -0.5 31t-2.5 31q-32 42 -68.5 60.5t-83.5 18.5q-141 0 -141 -181z" />
    <glyph glyph-name="ntilde" unicode="&#xf1;" horiz-adv-x="564" 
d="M90 0v507h55l7 -78q59 91 172 91q157 0 157 -176v-344h-66v338q0 65 -26.5 95t-82.5 30q-85 0 -150 -72v-391h-66zM117 609q0 88 20 123t69 35q29 0 48 -12t40 -40l15 -21q17 -23 28 -32t25 -9q22 0 29.5 23t7.5 87h53q0 -88 -19.5 -123t-69.5 -35q-29 0 -48 12t-40 40
l-15 21q-17 23 -28 31.5t-25 8.5q-22 0 -29.5 -23t-7.5 -86h-53z" />
    <glyph glyph-name="ograve" unicode="&#xf2;" horiz-adv-x="546" 
d="M273 -13q-104 0 -159.5 68.5t-55.5 198.5t55 198t160 68t160 -68t55 -198t-55.5 -198.5t-159.5 -68.5zM273 43q147 0 147 211q0 210 -147 210t-147 -210q0 -211 147 -211zM260 609l-134 171h77l123 -171h-66z" />
    <glyph glyph-name="oacute" unicode="&#xf3;" horiz-adv-x="546" 
d="M273 -13q-104 0 -159.5 68.5t-55.5 198.5t55 198t160 68t160 -68t55 -198t-55.5 -198.5t-159.5 -68.5zM273 43q147 0 147 211q0 210 -147 210t-147 -210q0 -211 147 -211zM220 609l123 171h77l-134 -171h-66z" />
    <glyph glyph-name="ocircumflex" unicode="&#xf4;" horiz-adv-x="546" 
d="M273 -13q-104 0 -159.5 68.5t-55.5 198.5t55 198t160 68t160 -68t55 -198t-55.5 -198.5t-159.5 -68.5zM273 43q147 0 147 211q0 210 -147 210t-147 -210q0 -211 147 -211zM113 609l125 171h69l125 -171h-66l-93 127l-94 -127h-66z" />
    <glyph glyph-name="otilde" unicode="&#xf5;" horiz-adv-x="546" 
d="M273 -13q-104 0 -159.5 68.5t-55.5 198.5t55 198t160 68t160 -68t55 -198t-55.5 -198.5t-159.5 -68.5zM273 43q147 0 147 211q0 210 -147 210t-147 -210q0 -211 147 -211zM105 609q0 88 20 123t69 35q29 0 48 -12t40 -40l15 -21q17 -23 28 -32t25 -9q22 0 29.5 23t7.5 87
h53q0 -88 -19.5 -123t-69.5 -35q-29 0 -48 12t-40 40l-15 21q-17 23 -28 31.5t-25 8.5q-22 0 -29.5 -23t-7.5 -86h-53z" />
    <glyph glyph-name="odieresis" unicode="&#xf6;" horiz-adv-x="546" 
d="M273 -13q-104 0 -159.5 68.5t-55.5 198.5t55 198t160 68t160 -68t55 -198t-55.5 -198.5t-159.5 -68.5zM273 43q147 0 147 211q0 210 -147 210t-147 -210q0 -211 147 -211zM141 621v80h76v-80h-76zM328 621v80h77v-80h-77z" />
    <glyph glyph-name="divide" unicode="&#xf7;" 
d="M255 466v85h70v-85h-70zM73 305v57h434v-57h-434zM255 116v85h70v-85h-70z" />
    <glyph glyph-name="oslash" unicode="&#xf8;" horiz-adv-x="546" 
d="M99 -41l-35 24l49 72q-55 68 -55 199q0 130 55 198t160 68q78 0 129 -38l45 66l35 -25l-49 -72q55 -68 55 -197q0 -130 -55.5 -198.5t-159.5 -68.5q-78 0 -129 38zM124 254q0 -94 27 -145l217 324q-35 32 -95 32q-149 0 -149 -211zM273 42q149 0 149 212q0 95 -27 145
l-217 -325q35 -32 95 -32z" />
    <glyph glyph-name="ugrave" unicode="&#xf9;" horiz-adv-x="559" 
d="M235 -13q-152 0 -152 178v342h66v-336q0 -67 24.5 -97t79.5 -30q88 0 150 72v391h66v-507h-55l-7 76q-62 -89 -172 -89zM262 609l-134 171h77l123 -171h-66z" />
    <glyph glyph-name="uacute" unicode="&#xfa;" horiz-adv-x="559" 
d="M235 -13q-152 0 -152 178v342h66v-336q0 -67 24.5 -97t79.5 -30q88 0 150 72v391h66v-507h-55l-7 76q-62 -89 -172 -89zM222 609l123 171h77l-134 -171h-66z" />
    <glyph glyph-name="ucircumflex" unicode="&#xfb;" horiz-adv-x="559" 
d="M235 -13q-152 0 -152 178v342h66v-336q0 -67 24.5 -97t79.5 -30q88 0 150 72v391h66v-507h-55l-7 76q-62 -89 -172 -89zM115 609l125 171h69l125 -171h-66l-93 127l-94 -127h-66z" />
    <glyph glyph-name="udieresis" unicode="&#xfc;" horiz-adv-x="559" 
d="M235 -13q-152 0 -152 178v342h66v-336q0 -67 24.5 -97t79.5 -30q88 0 150 72v391h66v-507h-55l-7 76q-62 -89 -172 -89zM143 621v80h76v-80h-76zM330 621v80h77v-80h-77z" />
    <glyph glyph-name="yacute" unicode="&#xfd;" horiz-adv-x="470" 
d="M85 -201q-34 0 -60 9v51q26 -6 51 -6q31 0 52 10.5t37 35.5t31 70l7 20l-187 518h73l147 -434l146 434h70l-211 -585q-25 -67 -60 -95t-96 -28zM181 609l123 171h77l-134 -171h-66z" />
    <glyph glyph-name="thorn" unicode="&#xfe;" horiz-adv-x="571" 
d="M90 -192v904h66v-275q59 83 166 83q92 0 140.5 -68.5t48.5 -198.5t-48.5 -198t-140.5 -68q-107 0 -166 79v-258h-66zM304 44q139 0 139 209q0 210 -139 210q-84 0 -148 -71v-277q62 -71 148 -71z" />
    <glyph glyph-name="ydieresis" unicode="&#xff;" horiz-adv-x="470" 
d="M85 -201q-34 0 -60 9v51q26 -6 51 -6q31 0 52 10.5t37 35.5t31 70l7 20l-187 518h73l147 -434l146 434h70l-211 -585q-25 -67 -60 -95t-96 -28zM102 621v80h76v-80h-76zM289 621v80h77v-80h-77z" />
    <glyph glyph-name="Abreve" unicode="&#x102;" horiz-adv-x="613" 
d="M34 0l229 674h91l225 -674h-71l-60 184h-283l-61 -184h-70zM184 241h245l-122 372zM309 745q-76 0 -113 41.5t-37 114.5h59q0 -52 21.5 -80t69.5 -28t70 28.5t22 79.5h58q0 -73 -36.5 -114.5t-113.5 -41.5z" />
    <glyph glyph-name="abreve" unicode="&#x103;" horiz-adv-x="522" 
d="M203 -12q-70 0 -109.5 38t-39.5 105q0 78 51.5 118.5t150.5 40.5h118v33q0 79 -26 109.5t-94 30.5q-71 0 -153 -35l-16 53q38 19 84 29t92 10q95 0 136 -43t41 -141v-336h-55l-7 77q-61 -89 -173 -89zM223 43q93 0 151 76v124h-113q-140 0 -140 -106q0 -94 102 -94z
M263 605q-76 0 -112.5 41t-36.5 117h59q0 -55 21.5 -82.5t68.5 -27.5q48 0 69.5 28t21.5 82h59q0 -76 -36.5 -117t-113.5 -41z" />
    <glyph glyph-name="Aogonek" unicode="&#x104;" horiz-adv-x="613" 
d="M34 0l229 674h91l225 -674h-71l-60 184h-283l-61 -184h-70zM184 241h245l-122 372zM539 -210q-52 0 -81 24.5t-29 68.5q0 81 94 132l56 -15q-48 -25 -70 -51t-22 -55q0 -28 16.5 -40t50.5 -12q24 0 43 6v-49q-10 -4 -24.5 -6.5t-33.5 -2.5z" />
    <glyph glyph-name="aogonek" unicode="&#x105;" horiz-adv-x="522" 
d="M203 -12q-70 0 -109.5 38t-39.5 105q0 78 51.5 118.5t150.5 40.5h118v33q0 79 -26 109.5t-94 30.5q-71 0 -153 -35l-16 53q38 19 84 29t92 10q95 0 136 -43t41 -141v-336h-55l-7 77q-61 -89 -173 -89zM223 43q93 0 151 76v124h-113q-140 0 -140 -106q0 -94 102 -94z
M398 -210q-52 0 -80.5 25t-28.5 68q0 82 102 131l47 -14q-48 -25 -69 -51t-21 -55q0 -28 16 -40t50 -12q24 0 43 6v-49q-11 -4 -25.5 -6.5t-33.5 -2.5z" />
    <glyph glyph-name="Cacute" unicode="&#x106;" horiz-adv-x="554" 
d="M338 -13q-138 0 -205.5 84t-67.5 255q0 176 71.5 268.5t208.5 92.5q45 0 87.5 -9.5t76.5 -27.5l-19 -53q-64 30 -138 30q-216 0 -216 -301q0 -145 50.5 -212t159.5 -67q42 0 80 7.5t67 22.5l18 -53q-31 -17 -77 -27t-96 -10zM267 751l131 150h85l-144 -150h-72z" />
    <glyph glyph-name="cacute" unicode="&#x107;" horiz-adv-x="459" 
d="M276 -13q-218 0 -218 263q0 131 58 200.5t167 69.5q38 0 73 -8.5t61 -23.5l-19 -53q-53 27 -111 27q-82 0 -121.5 -52t-39.5 -161q0 -205 157 -205q68 0 118 32l18 -52q-52 -37 -143 -37zM207 609l123 171h77l-134 -171h-66z" />
    <glyph glyph-name="Eogonek" unicode="&#x118;" horiz-adv-x="559" 
d="M102 0v674h392v-58h-324v-243h275v-58h-275v-257h327v-58q-92 -47 -92 -106q0 -52 66 -52q24 0 43 6v-49q-21 -9 -58 -9q-52 0 -81 25t-29 69q0 74 79 116h-323z" />
    <glyph glyph-name="eogonek" unicode="&#x119;" horiz-adv-x="522" 
d="M400 -210q-52 0 -81 25.5t-29 71.5q0 60 54 106q-30 -6 -63 -6q-224 0 -224 262q0 129 55.5 200t158.5 71q99 0 150 -66t51 -194v-29h-349q4 -96 43.5 -141t120.5 -45q77 0 141 41l20 -49q-99 -66 -99 -138q0 -57 67 -57q22 0 43 6v-49q-22 -9 -59 -9zM270 465
q-139 0 -147 -185h282q-1 185 -135 185z" />
    <glyph glyph-name="dotlessi" unicode="&#x131;" horiz-adv-x="264" 
d="M110 0v455h-76v52h141v-507h-65z" />
    <glyph glyph-name="IJ" unicode="&#x132;" horiz-adv-x="720" 
d="M102 0v674h69v-674h-69zM444 -13q-67 0 -126 30l20 56q47 -25 102 -25q63 0 90 36t27 121v411h-189v58h257v-475q0 -110 -43.5 -161t-137.5 -51z" />
    <glyph glyph-name="ij" unicode="&#x133;" horiz-adv-x="528" 
d="M99 621v81h79v-81h-79zM110 0v455h-76v52h141v-507h-65zM363 621v81h79v-81h-79zM329 -201q-35 0 -57 8v51q10 -2 20.5 -3.5t22.5 -1.5q33 0 46 19t13 60v523h-76v52h141v-577q0 -67 -26.5 -99t-83.5 -32z" />
    <glyph glyph-name="Lslash" unicode="&#x141;" horiz-adv-x="528" 
d="M117 0v256l-83 -46v58l83 46v360h68v-322l178 99v-57l-178 -100v-236h303v-58h-371z" />
    <glyph glyph-name="lslash" unicode="&#x142;" horiz-adv-x="318" 
d="M207 -7q-55 0 -79 27.5t-24 90.5v207l-79 -42v56l79 42v338h65v-303l112 60v-56l-112 -60v-241q0 -38 11.5 -51.5t42.5 -13.5q11 0 21.5 1.5t24.5 4.5v-51q-14 -5 -29.5 -7t-32.5 -2z" />
    <glyph glyph-name="Nacute" unicode="&#x143;" horiz-adv-x="682" 
d="M102 0v674h81l332 -587v587h65v-674h-81l-333 589v-589h-64zM271 751l131 150h85l-144 -150h-72z" />
    <glyph glyph-name="nacute" unicode="&#x144;" horiz-adv-x="564" 
d="M90 0v507h55l7 -78q59 91 172 91q157 0 157 -176v-344h-66v338q0 65 -26.5 95t-82.5 30q-85 0 -150 -72v-391h-66zM232 609l123 171h77l-134 -171h-66z" />
    <glyph glyph-name="OE" unicode="&#x152;" horiz-adv-x="975" 
d="M321 -13q-125 0 -190.5 89t-65.5 261t65.5 261t190.5 89q152 0 200 -127v114h389v-58h-323v-243h274v-58h-274v-257h327v-58h-393v113q-49 -126 -200 -126zM329 47q192 0 192 290t-192 290q-193 0 -193 -290t193 -290z" />
    <glyph glyph-name="oe" unicode="&#x153;" horiz-adv-x="886" 
d="M273 -13q-104 0 -159.5 68.5t-55.5 198.5t55 198t160 68q136 0 182 -120q48 120 180 120q99 0 150.5 -66t51.5 -194v-29h-349q4 -96 43.5 -141.5t119.5 -45.5q78 0 142 42l20 -52q-32 -23 -75 -35t-92 -12q-148 0 -192 117q-44 -117 -181 -117zM635 465q-139 0 -147 -185
h282q-1 185 -135 185zM273 43q147 0 147 211q0 210 -147 210t-147 -210q0 -211 147 -211z" />
    <glyph glyph-name="Sacute" unicode="&#x15a;" horiz-adv-x="546" 
d="M255 -13q-59 0 -111 11.5t-93 33.5l20 56q77 -41 183 -41q82 0 120.5 31t38.5 96q0 55 -28.5 85.5t-98.5 47.5l-54 13q-85 21 -123 63t-38 115q0 90 57 139.5t161 49.5q45 0 93.5 -11t85.5 -30l-19 -54q-31 17 -71.5 26t-84.5 9q-154 0 -154 -126q0 -49 26.5 -76.5
t92.5 -44.5l48 -12q95 -25 136.5 -69.5t41.5 -122.5q0 -189 -229 -189zM209 751l131 150h85l-144 -150h-72z" />
    <glyph glyph-name="sacute" unicode="&#x15b;" horiz-adv-x="446" 
d="M215 -13q-52 0 -97 11t-77 33l18 55q69 -43 156 -43q56 0 88 24t32 67q0 40 -22 60.5t-77 31.5l-44 10q-73 16 -105.5 48.5t-32.5 90.5q0 66 48.5 105.5t128.5 39.5q48 0 85.5 -8.5t70.5 -26.5l-16 -51q-31 16 -63 22.5t-73 6.5q-55 0 -86 -22.5t-31 -62.5q0 -36 22 -55
t78 -31l35 -8q83 -19 115 -52t32 -98q0 -70 -48 -108.5t-137 -38.5zM180 609l123 171h77l-134 -171h-66z" />
    <glyph glyph-name="Scaron" unicode="&#x160;" horiz-adv-x="546" 
d="M255 -13q-59 0 -111 11.5t-93 33.5l20 56q77 -41 183 -41q82 0 120.5 31t38.5 96q0 55 -28.5 85.5t-98.5 47.5l-54 13q-85 21 -123 63t-38 115q0 90 57 139.5t161 49.5q45 0 93.5 -11t85.5 -30l-19 -54q-31 17 -71.5 26t-84.5 9q-154 0 -154 -126q0 -49 26.5 -76.5
t92.5 -44.5l48 -12q95 -25 136.5 -69.5t41.5 -122.5q0 -189 -229 -189zM244 751l-121 150h70l87 -110l87 110h69l-120 -150h-72z" />
    <glyph glyph-name="scaron" unicode="&#x161;" horiz-adv-x="446" 
d="M215 -13q-52 0 -97 11t-77 33l18 55q69 -43 156 -43q56 0 88 24t32 67q0 40 -22 60.5t-77 31.5l-44 10q-73 16 -105.5 48.5t-32.5 90.5q0 66 48.5 105.5t128.5 39.5q48 0 85.5 -8.5t70.5 -26.5l-16 -51q-31 16 -63 22.5t-73 6.5q-55 0 -86 -22.5t-31 -62.5q0 -36 22 -55
t78 -31l35 -8q83 -19 115 -52t32 -98q0 -70 -48 -108.5t-137 -38.5zM198 609l-125 171h66l94 -127l94 127h65l-125 -171h-69z" />
    <glyph glyph-name="Wcircumflex" unicode="&#x174;" horiz-adv-x="834" 
d="M185 0l-153 674h68l131 -613l144 602h86l143 -602l133 613h65l-154 -674h-90l-141 593l-141 -593h-91zM260 751l122 150h73l120 -150h-71l-85 110l-89 -110h-70z" />
    <glyph glyph-name="wcircumflex" unicode="&#x175;" horiz-adv-x="725" 
d="M156 0l-134 507h70l108 -458l124 440h78l123 -439l111 457h66l-134 -507h-84l-122 429l-122 -429h-84zM203 609l125 171h69l125 -171h-66l-93 127l-94 -127h-66z" />
    <glyph glyph-name="Ycircumflex" unicode="&#x176;" horiz-adv-x="560" 
d="M245 0v243l-224 431h76l186 -362l186 362h70l-225 -428v-246h-69zM125 751l122 150h73l120 -150h-71l-85 110l-89 -110h-70z" />
    <glyph glyph-name="ycircumflex" unicode="&#x177;" horiz-adv-x="470" 
d="M85 -201q-34 0 -60 9v51q26 -6 51 -6q31 0 52 10.5t37 35.5t31 70l7 20l-187 518h73l147 -434l146 434h70l-211 -585q-25 -67 -60 -95t-96 -28zM74 609l125 171h69l125 -171h-66l-93 127l-94 -127h-66z" />
    <glyph glyph-name="Ydieresis" unicode="&#x178;" horiz-adv-x="560" 
d="M245 0v243l-224 431h76l186 -362l186 362h70l-225 -428v-246h-69zM151 770v80h76v-80h-76zM338 770v80h77v-80h-77z" />
    <glyph glyph-name="Zacute" unicode="&#x179;" horiz-adv-x="554" 
d="M59 0v45l353 571h-346v58h429v-46l-353 -570h358v-58h-441zM210 751l131 150h85l-144 -150h-72z" />
    <glyph glyph-name="zacute" unicode="&#x17a;" horiz-adv-x="467" 
d="M55 0v43l276 412h-271v52h347v-44l-276 -411h281v-52h-357zM179 609l123 171h77l-134 -171h-66z" />
    <glyph glyph-name="Zdotaccent" unicode="&#x17b;" horiz-adv-x="554" 
d="M59 0v45l353 571h-346v58h429v-46l-353 -570h358v-58h-441zM240 770v80h80v-80h-80z" />
    <glyph glyph-name="zdotaccent" unicode="&#x17c;" horiz-adv-x="467" 
d="M55 0v43l276 412h-271v52h347v-44l-276 -411h281v-52h-357zM192 621v81h80v-81h-80z" />
    <glyph glyph-name="Zcaron" unicode="&#x17d;" horiz-adv-x="554" 
d="M59 0v45l353 571h-346v58h429v-46l-353 -570h358v-58h-441zM245 751l-121 150h70l87 -110l87 110h69l-120 -150h-72z" />
    <glyph glyph-name="zcaron" unicode="&#x17e;" horiz-adv-x="467" 
d="M55 0v43l276 412h-271v52h347v-44l-276 -411h281v-52h-357zM197 609l-125 171h66l94 -127l94 127h65l-125 -171h-69z" />
    <glyph glyph-name="uni0218" unicode="&#x218;" horiz-adv-x="546" 
d="M255 -13q-59 0 -111 11.5t-93 33.5l20 56q77 -41 183 -41q82 0 120.5 31t38.5 96q0 55 -28.5 85.5t-98.5 47.5l-54 13q-85 21 -123 63t-38 115q0 90 57 139.5t161 49.5q45 0 93.5 -11t85.5 -30l-19 -54q-31 17 -71.5 26t-84.5 9q-154 0 -154 -126q0 -49 26.5 -76.5
t92.5 -44.5l48 -12q95 -25 136.5 -69.5t41.5 -122.5q0 -189 -229 -189zM212 -252l25 169h66l-39 -169h-52z" />
    <glyph glyph-name="uni0219" unicode="&#x219;" horiz-adv-x="446" 
d="M215 -13q-52 0 -97 11t-77 33l18 55q69 -43 156 -43q56 0 88 24t32 67q0 40 -22 60.5t-77 31.5l-44 10q-73 16 -105.5 48.5t-32.5 90.5q0 66 48.5 105.5t128.5 39.5q48 0 85.5 -8.5t70.5 -26.5l-16 -51q-31 16 -63 22.5t-73 6.5q-55 0 -86 -22.5t-31 -62.5q0 -36 22 -55
t78 -31l35 -8q83 -19 115 -52t32 -98q0 -70 -48 -108.5t-137 -38.5zM168 -252l25 169h66l-39 -169h-52z" />
    <glyph glyph-name="uni021A" unicode="&#x21a;" horiz-adv-x="523" 
d="M227 0v616h-205v58h479v-58h-205v-616h-69zM200 -252l25 169h66l-39 -169h-52z" />
    <glyph glyph-name="uni021B" unicode="&#x21b;" horiz-adv-x="381" 
d="M259 -7q-79 0 -111.5 37t-32.5 125v300h-95v49l63 2q22 2 30 8.5t9 25.5l7 107h51v-140h172v-52h-172v-301q0 -62 19.5 -84.5t74.5 -22.5q15 0 30 1.5t39 5.5v-51q-33 -10 -84 -10zM176 -252l25 169h66l-39 -169h-52z" />
    <glyph glyph-name="uni0237" unicode="&#x237;" horiz-adv-x="264" 
d="M65 -201q-35 0 -57 8v51q10 -2 20.5 -3.5t22.5 -1.5q33 0 46 19t13 60v523h-76v52h141v-577q0 -67 -26.5 -99t-83.5 -32z" />
    <glyph glyph-name="circumflex" unicode="&#x2c6;" horiz-adv-x="379" 
d="M30 609l125 171h69l125 -171h-66l-93 127l-94 -127h-66z" />
    <glyph glyph-name="caron" unicode="&#x2c7;" horiz-adv-x="379" 
d="M155 609l-125 171h66l94 -127l94 127h65l-125 -171h-69z" />
    <glyph glyph-name="breve" unicode="&#x2d8;" horiz-adv-x="358" 
d="M179 605q-76 0 -112.5 41t-36.5 117h59q0 -55 21.5 -82.5t68.5 -27.5q48 0 69.5 28t21.5 82h59q0 -76 -36.5 -117t-113.5 -41z" />
    <glyph glyph-name="dotaccent" unicode="&#x2d9;" horiz-adv-x="139" 
d="M30 621v81h80v-81h-80z" />
    <glyph glyph-name="ring" unicode="&#x2da;" horiz-adv-x="265" 
d="M132 603q-45 0 -73.5 28.5t-28.5 74.5t28.5 74t73.5 28q46 0 74 -28t28 -74t-28 -74.5t-74 -28.5zM132 645q26 0 41.5 16.5t15.5 44.5t-15.5 44.5t-41.5 16.5q-25 0 -41 -16t-16 -45q0 -28 16 -44.5t41 -16.5z" />
    <glyph glyph-name="ogonek" unicode="&#x2db;" horiz-adv-x="227" 
d="M139 -210q-52 0 -80.5 25t-28.5 68q0 82 102 131l47 -14q-48 -25 -69 -51t-21 -55q0 -28 16 -40t50 -12q24 0 43 6v-49q-11 -4 -25.5 -6.5t-33.5 -2.5z" />
    <glyph glyph-name="tilde" unicode="&#x2dc;" horiz-adv-x="395" 
d="M30 609q0 88 20 123t69 35q29 0 48 -12t40 -40l15 -21q17 -23 28 -32t25 -9q22 0 29.5 23t7.5 87h53q0 -88 -19.5 -123t-69.5 -35q-29 0 -48 12t-40 40l-15 21q-17 23 -28 31.5t-25 8.5q-22 0 -29.5 -23t-7.5 -86h-53z" />
    <glyph glyph-name="gravecomb" unicode="&#x300;" horiz-adv-x="0" 
d="M-13 609l-134 171h77l123 -171h-66z" />
    <glyph glyph-name="acutecomb" unicode="&#x301;" horiz-adv-x="0" 
d="M-53 609l123 171h77l-134 -171h-66z" />
    <glyph glyph-name="uni0302" unicode="&#x302;" horiz-adv-x="0" 
d="M-160 609l125 171h69l125 -171h-66l-93 127l-94 -127h-66z" />
    <glyph glyph-name="tildecomb" unicode="&#x303;" horiz-adv-x="0" 
d="M-168 609q0 88 20 123t69 35q29 0 48 -12t40 -40l15 -21q17 -23 28 -32t25 -9q22 0 29.5 23t7.5 87h53q0 -88 -19.5 -123t-69.5 -35q-29 0 -48 12t-40 40l-15 21q-17 23 -28 31.5t-25 8.5q-22 0 -29.5 -23t-7.5 -86h-53z" />
    <glyph glyph-name="uni0306" unicode="&#x306;" horiz-adv-x="0" 
d="M-1 605q-76 0 -112.5 41t-36.5 117h59q0 -55 21.5 -82.5t68.5 -27.5q48 0 69.5 28t21.5 82h59q0 -76 -36.5 -117t-113.5 -41z" />
    <glyph glyph-name="uni0307" unicode="&#x307;" horiz-adv-x="0" 
d="M-40 621v81h80v-81h-80z" />
    <glyph glyph-name="uni0308" unicode="&#x308;" horiz-adv-x="0" 
d="M-132 621v80h76v-80h-76zM55 621v80h77v-80h-77z" />
    <glyph glyph-name="uni030A" unicode="&#x30a;" horiz-adv-x="0" 
d="M0 603q-45 0 -73.5 28.5t-28.5 74.5t28.5 74t73.5 28q46 0 74 -28t28 -74t-28 -74.5t-74 -28.5zM0 645q26 0 41.5 16.5t15.5 44.5t-15.5 44.5t-41.5 16.5q-25 0 -41 -16t-16 -45q0 -28 16 -44.5t41 -16.5z" />
    <glyph glyph-name="uni030C" unicode="&#x30c;" horiz-adv-x="0" 
d="M-35 609l-125 171h66l94 -127l94 127h65l-125 -171h-69z" />
    <glyph glyph-name="uni0326" unicode="&#x326;" horiz-adv-x="0" 
d="M-61 -252l25 169h66l-39 -169h-52z" />
    <glyph glyph-name="uni0327" unicode="&#x327;" horiz-adv-x="0" 
d="M-15 -249q-22 0 -45.5 3t-47.5 11v46q25 -7 47 -9t40 -2q41 0 59 12t18 37q0 27 -21.5 40.5t-80.5 15.5l19 106l46 -1l-12 -65q52 -7 80.5 -29.5t28.5 -67.5q0 -97 -131 -97z" />
    <glyph glyph-name="uni0328" unicode="&#x328;" horiz-adv-x="0" 
d="M-40 -210q-52 0 -80.5 25t-28.5 68q0 82 102 131l47 -14q-48 -25 -69 -51t-21 -55q0 -28 16 -40t50 -12q24 0 43 6v-49q-11 -4 -25.5 -6.5t-33.5 -2.5z" />
    <glyph glyph-name="Wgrave" unicode="&#x1e80;" horiz-adv-x="834" 
d="M185 0l-153 674h68l131 -613l144 602h86l143 -602l133 613h65l-154 -674h-90l-141 593l-141 -593h-91zM401 751l-144 150h85l131 -150h-72z" />
    <glyph glyph-name="wgrave" unicode="&#x1e81;" horiz-adv-x="725" 
d="M156 0l-134 507h70l108 -458l124 440h78l123 -439l111 457h66l-134 -507h-84l-122 429l-122 -429h-84zM350 609l-134 171h77l123 -171h-66z" />
    <glyph glyph-name="Wacute" unicode="&#x1e82;" horiz-adv-x="834" 
d="M185 0l-153 674h68l131 -613l144 602h86l143 -602l133 613h65l-154 -674h-90l-141 593l-141 -593h-91zM348 751l131 150h85l-144 -150h-72z" />
    <glyph glyph-name="wacute" unicode="&#x1e83;" horiz-adv-x="725" 
d="M156 0l-134 507h70l108 -458l124 440h78l123 -439l111 457h66l-134 -507h-84l-122 429l-122 -429h-84zM310 609l123 171h77l-134 -171h-66z" />
    <glyph glyph-name="Wdieresis" unicode="&#x1e84;" horiz-adv-x="834" 
d="M185 0l-153 674h68l131 -613l144 602h86l143 -602l133 613h65l-154 -674h-90l-141 593l-141 -593h-91zM286 770v80h76v-80h-76zM473 770v80h77v-80h-77z" />
    <glyph glyph-name="wdieresis" unicode="&#x1e85;" horiz-adv-x="725" 
d="M156 0l-134 507h70l108 -458l124 440h78l123 -439l111 457h66l-134 -507h-84l-122 429l-122 -429h-84zM231 621v80h76v-80h-76zM418 621v80h77v-80h-77z" />
    <glyph glyph-name="uni1E9E" unicode="&#x1e9e;" horiz-adv-x="672" 
d="M407 -12q-35 0 -67 5.5t-58 16.5l10 59q53 -22 111 -22q74 0 108.5 32.5t34.5 100.5q0 72 -40 106.5t-126 34.5h-33v43l150 243q-63 21 -138 21q-104 0 -152 -45.5t-48 -146.5v-436h-69v438q0 249 264 249q55 0 108.5 -10t105.5 -31v-42l-147 -231q94 -4 145 -54t51 -140
q0 -94 -53.5 -142.5t-156.5 -48.5z" />
    <glyph glyph-name="Ygrave" unicode="&#x1ef2;" horiz-adv-x="560" 
d="M245 0v243l-224 431h76l186 -362l186 362h70l-225 -428v-246h-69zM266 751l-144 150h85l131 -150h-72z" />
    <glyph glyph-name="ygrave" unicode="&#x1ef3;" horiz-adv-x="470" 
d="M85 -201q-34 0 -60 9v51q26 -6 51 -6q31 0 52 10.5t37 35.5t31 70l7 20l-187 518h73l147 -434l146 434h70l-211 -585q-25 -67 -60 -95t-96 -28zM221 609l-134 171h77l123 -171h-66z" />
    <glyph glyph-name="uni2000" unicode="&#x2000;" horiz-adv-x="500" 
 />
    <glyph glyph-name="uni2001" unicode="&#x2001;" horiz-adv-x="1000" 
 />
    <glyph glyph-name="uni2002" unicode="&#x2002;" horiz-adv-x="500" 
 />
    <glyph glyph-name="uni2003" unicode="&#x2003;" horiz-adv-x="1000" 
 />
    <glyph glyph-name="uni2004" unicode="&#x2004;" horiz-adv-x="333" 
 />
    <glyph glyph-name="uni2005" unicode="&#x2005;" horiz-adv-x="250" 
 />
    <glyph glyph-name="uni2006" unicode="&#x2006;" horiz-adv-x="167" 
 />
    <glyph glyph-name="uni2007" unicode="&#x2007;" 
 />
    <glyph glyph-name="uni2008" unicode="&#x2008;" horiz-adv-x="221" 
 />
    <glyph glyph-name="uni2009" unicode="&#x2009;" horiz-adv-x="200" 
 />
    <glyph glyph-name="uni200A" unicode="&#x200a;" horiz-adv-x="62" 
 />
    <glyph glyph-name="uni200B" unicode="&#x200b;" horiz-adv-x="0" 
 />
    <glyph glyph-name="uni2010" unicode="&#x2010;" horiz-adv-x="402" 
d="M64 247v62h274v-62h-274z" />
    <glyph glyph-name="uni2011" unicode="&#x2011;" horiz-adv-x="402" 
d="M64 247v62h274v-62h-274z" />
    <glyph glyph-name="endash" unicode="&#x2013;" horiz-adv-x="450" 
d="M0 249v59h450v-59h-450z" />
    <glyph glyph-name="emdash" unicode="&#x2014;" horiz-adv-x="900" 
d="M0 249v59h900v-59h-900z" />
    <glyph glyph-name="quoteleft" unicode="&#x2018;" horiz-adv-x="217" 
d="M54 451l52 223h55l-29 -223h-78z" />
    <glyph glyph-name="quoteright" unicode="&#x2019;" horiz-adv-x="217" 
d="M56 451l28 223h79l-52 -223h-55z" />
    <glyph glyph-name="quotesinglbase" unicode="&#x201a;" horiz-adv-x="217" 
d="M56 -126l28 223h79l-52 -223h-55z" />
    <glyph glyph-name="quotedblleft" unicode="&#x201c;" horiz-adv-x="372" 
d="M54 451l52 223h55l-29 -223h-78zM209 451l52 223h55l-29 -223h-78z" />
    <glyph glyph-name="quotedblright" unicode="&#x201d;" horiz-adv-x="372" 
d="M56 451l28 223h79l-52 -223h-55zM211 451l28 223h79l-52 -223h-55z" />
    <glyph glyph-name="quotedblbase" unicode="&#x201e;" horiz-adv-x="372" 
d="M56 -126l28 223h79l-52 -223h-55zM211 -126l28 223h79l-52 -223h-55z" />
    <glyph glyph-name="dagger" unicode="&#x2020;" horiz-adv-x="447" 
d="M196 126v382h-142v50h142v154h55v-154h142v-50h-142v-382h-55z" />
    <glyph glyph-name="daggerdbl" unicode="&#x2021;" horiz-adv-x="447" 
d="M196 126v152h-142v50h142v182h-142v50h142v152h55v-152h142v-50h-142v-182h142v-50h-142v-152h-55z" />
    <glyph glyph-name="bullet" unicode="&#x2022;" horiz-adv-x="538" 
d="M130 126v288h278v-288h-278z" />
    <glyph glyph-name="ellipsis" unicode="&#x2026;" horiz-adv-x="763" 
d="M87 0v97h81v-97h-81zM341 0v97h81v-97h-81zM596 0v97h81v-97h-81z" />
    <glyph glyph-name="perthousand" unicode="&#x2030;" horiz-adv-x="1180" 
d="M172 0l405 674h71l-405 -674h-71zM769 180q0 -92 -37 -140.5t-108 -48.5q-70 0 -107 48t-37 141q0 92 37 140t108 48t107.5 -48t36.5 -140zM540 180q0 -72 20.5 -106t63.5 -34q85 0 85 140q0 72 -20 106t-64 34q-85 0 -85 -140zM1129 180q0 -92 -37 -140.5t-108 -48.5
q-70 0 -107 48t-37 141q0 92 37 140t108 48t107.5 -48t36.5 -140zM900 180q0 -72 20.5 -106t63.5 -34q85 0 85 140q0 72 -20 106t-64 34q-85 0 -85 -140zM340 495q0 -92 -37 -140.5t-108 -48.5q-70 0 -107 48t-37 141q0 92 37 140t108 48t107.5 -48t36.5 -140zM111 495
q0 -72 20.5 -106t63.5 -34q85 0 85 140q0 72 -20 106t-64 34q-85 0 -85 -140z" />
    <glyph glyph-name="guilsinglleft" unicode="&#x2039;" horiz-adv-x="394" 
d="M252 47l-199 213l199 213h84l-197 -213l198 -213h-85z" />
    <glyph glyph-name="guilsinglright" unicode="&#x203a;" horiz-adv-x="394" 
d="M142 47h-85l198 213l-197 213h84l198 -213z" />
    <glyph glyph-name="fraction" unicode="&#x2044;" horiz-adv-x="168" 
d="M-154 0l405 674h71l-405 -674h-71z" />
    <glyph glyph-name="uni2070" unicode="&#x2070;" horiz-adv-x="391" 
d="M340 580q0 -92 -37 -140.5t-108 -48.5q-70 0 -107 48t-37 141q0 92 37 140t108 48t107.5 -48t36.5 -140zM111 580q0 -72 20.5 -106t63.5 -34q85 0 85 140q0 72 -20 106t-64 34q-85 0 -85 -140z" />
    <glyph glyph-name="uni2074" unicode="&#x2074;" horiz-adv-x="385" 
d="M228 400v84h-188v42l174 233h68v-231h62v-44h-62v-84h-54zM99 528h131v179z" />
    <glyph glyph-name="uni2075" unicode="&#x2075;" horiz-adv-x="358" 
d="M174 391q-75 0 -127 35l16 44q54 -29 110 -29q83 0 83 67q0 32 -21 50t-59 18q-21 0 -42 -6t-38 -18l-34 20v187h231v-49h-179v-109q31 20 78 20q56 0 89 -30.5t33 -83.5q0 -56 -36 -86t-104 -30z" />
    <glyph glyph-name="uni2076" unicode="&#x2076;" horiz-adv-x="376" 
d="M197 391q-71 0 -108.5 46t-37.5 134q0 97 41.5 147t121.5 50q57 0 102 -24l-15 -44q-41 20 -82 20q-56 0 -82.5 -35t-26.5 -106q36 40 100 40q56 0 88 -30t32 -82q0 -53 -35.5 -84.5t-97.5 -31.5zM198 575q-51 0 -88 -36q5 -103 88 -103q36 0 55.5 18.5t19.5 52.5
q0 32 -20 50t-55 18z" />
    <glyph glyph-name="uni2077" unicode="&#x2077;" horiz-adv-x="332" 
d="M33 711v48h258v-44l-134 -315h-63l133 311h-194z" />
    <glyph glyph-name="uni2078" unicode="&#x2078;" horiz-adv-x="383" 
d="M192 391q-69 0 -105.5 27t-36.5 77q0 35 19.5 59t53.5 32q-28 9 -45 31.5t-17 52.5q0 44 36 71t95 27t95 -27t36 -71q0 -30 -17.5 -52.5t-45.5 -31.5q34 -8 53.5 -32t19.5 -59q0 -50 -36.5 -77t-104.5 -27zM192 606q36 0 56 15t20 43q0 29 -20.5 44.5t-55.5 15.5
t-55.5 -15.5t-20.5 -44.5q0 -28 20 -43t56 -15zM192 435q39 0 61 16.5t22 46.5t-21.5 46.5t-61.5 16.5t-62 -16.5t-22 -46.5t22 -46.5t62 -16.5z" />
    <glyph glyph-name="uni2079" unicode="&#x2079;" horiz-adv-x="376" 
d="M179 768q71 0 108.5 -45.5t37.5 -133.5q0 -198 -163 -198q-57 0 -102 24l15 44q22 -10 42 -15t40 -5q55 0 81.5 34.5t27.5 106.5q-36 -40 -100 -40q-55 0 -87.5 30.5t-32.5 82.5q0 53 36 84t97 31zM103 652q0 -31 20 -49.5t55 -18.5q51 0 88 36q-5 103 -88 103
q-35 0 -55 -18t-20 -53z" />
    <glyph glyph-name="uni2080" unicode="&#x2080;" horiz-adv-x="391" 
d="M340 80q0 -92 -37 -140.5t-108 -48.5q-70 0 -107 48t-37 141q0 92 37 140t108 48t107.5 -48t36.5 -140zM111 80q0 -72 20.5 -106t63.5 -34q85 0 85 140q0 72 -20 106t-64 34q-85 0 -85 -140z" />
    <glyph glyph-name="uni2081" unicode="&#x2081;" horiz-adv-x="266" 
d="M132 -100v276h-95v46l72 2q17 1 22.5 6.5t7.5 19.5l3 17h47v-367h-57z" />
    <glyph glyph-name="uni2082" unicode="&#x2082;" horiz-adv-x="353" 
d="M46 -100v42l121 99q39 32 54 56t15 52q0 71 -78 71q-47 0 -88 -29l-21 42q23 18 52 26.5t63 8.5q62 0 96 -30.5t34 -86.5q0 -40 -20 -72t-70 -71l-75 -60h178v-48h-261z" />
    <glyph glyph-name="uni2083" unicode="&#x2083;" horiz-adv-x="355" 
d="M163 -109q-77 0 -128 35l17 44q50 -30 108 -30q84 0 84 62q0 57 -83 57h-49l1 46h50q35 0 54.5 15t19.5 43q0 56 -76 56q-53 0 -97 -27l-18 43q50 33 121 33q58 0 92.5 -26t34.5 -71q0 -33 -19 -56t-50 -31q36 -7 56.5 -30.5t20.5 -58.5q0 -48 -37.5 -76t-101.5 -28z" />
    <glyph glyph-name="uni2084" unicode="&#x2084;" horiz-adv-x="385" 
d="M228 -100v84h-188v42l174 233h68v-231h62v-44h-62v-84h-54zM99 28h131v179z" />
    <glyph glyph-name="uni2085" unicode="&#x2085;" horiz-adv-x="358" 
d="M174 -109q-75 0 -127 35l16 44q54 -29 110 -29q83 0 83 67q0 32 -21 50t-59 18q-21 0 -42 -6t-38 -18l-34 20v187h231v-49h-179v-109q31 20 78 20q56 0 89 -30.5t33 -83.5q0 -56 -36 -86t-104 -30z" />
    <glyph glyph-name="uni2086" unicode="&#x2086;" horiz-adv-x="376" 
d="M197 -109q-71 0 -108.5 46t-37.5 134q0 97 41.5 147t121.5 50q57 0 102 -24l-15 -44q-41 20 -82 20q-56 0 -82.5 -35t-26.5 -106q36 40 100 40q56 0 88 -30t32 -82q0 -53 -35.5 -84.5t-97.5 -31.5zM198 75q-51 0 -88 -36q5 -103 88 -103q36 0 55.5 18.5t19.5 52.5
q0 32 -20 50t-55 18z" />
    <glyph glyph-name="uni2087" unicode="&#x2087;" horiz-adv-x="332" 
d="M33 211v48h258v-44l-134 -315h-63l133 311h-194z" />
    <glyph glyph-name="uni2088" unicode="&#x2088;" horiz-adv-x="383" 
d="M192 -109q-69 0 -105.5 27t-36.5 77q0 35 19.5 59t53.5 32q-28 9 -45 31.5t-17 52.5q0 44 36 71t95 27t95 -27t36 -71q0 -30 -17.5 -52.5t-45.5 -31.5q34 -8 53.5 -32t19.5 -59q0 -50 -36.5 -77t-104.5 -27zM192 106q36 0 56 15t20 43q0 29 -20.5 44.5t-55.5 15.5
t-55.5 -15.5t-20.5 -44.5q0 -28 20 -43t56 -15zM192 -65q39 0 61 16.5t22 46.5t-21.5 46.5t-61.5 16.5t-62 -16.5t-22 -46.5t22 -46.5t62 -16.5z" />
    <glyph glyph-name="uni2089" unicode="&#x2089;" horiz-adv-x="376" 
d="M179 268q71 0 108.5 -45.5t37.5 -133.5q0 -198 -163 -198q-57 0 -102 24l15 44q22 -10 42 -15t40 -5q55 0 81.5 34.5t27.5 106.5q-36 -40 -100 -40q-55 0 -87.5 30.5t-32.5 82.5q0 53 36 84t97 31zM103 152q0 -31 20 -49.5t55 -18.5q51 0 88 36q-5 103 -88 103
q-35 0 -55 -18t-20 -53z" />
    <glyph glyph-name="Euro" unicode="&#x20ac;" 
d="M31 234v49h75q-1 21 -1 43q0 30 2 58h-75v49h81q20 124 88.5 189t179.5 65q90 0 162 -37l-19 -54q-68 31 -137 31q-170 0 -205 -194h281l-16 -49h-271q-2 -27 -2 -58q0 -23 1 -43h252l-15 -49h-232q14 -96 63.5 -141.5t137.5 -45.5q85 0 147 30l19 -53q-31 -17 -78.5 -27
t-97.5 -10q-227 0 -260 247h-80z" />
    <glyph glyph-name="uni20BD" unicode="&#x20bd;" 
d="M119 0v136h-83v49h83v102h-83v55h83v332h219q211 0 211 -195q0 -192 -211 -192h-153v-102h209v-49h-209v-136h-66zM330 617h-145v-275h145q79 0 114.5 33t35.5 105q0 71 -36.5 104t-113.5 33z" />
    <glyph glyph-name="trademark" unicode="&#x2122;" horiz-adv-x="736" 
d="M337 360v314h62l95 -220l94 220h61v-314h-46v252l-89 -203h-42l-89 204v-253h-46zM137 360v271h-94v43h237v-43h-94v-271h-49z" />
    <glyph glyph-name="arrowleft" unicode="&#x2190;" horiz-adv-x="740" 
d="M257 113l-224 224l223 223l38 -38l-160 -156h573v-59h-573l161 -155z" />
    <glyph glyph-name="arrowup" unicode="&#x2191;" horiz-adv-x="740" 
d="M340 0v575l-155 -163l-39 38l224 224l223 -223l-38 -38l-156 162v-575h-59z" />
    <glyph glyph-name="arrowright" unicode="&#x2192;" horiz-adv-x="740" 
d="M483 113l-38 39l161 155h-573v59h573l-160 156l38 38l223 -223z" />
    <glyph glyph-name="arrowdown" unicode="&#x2193;" horiz-adv-x="740" 
d="M370 0l-224 224l39 38l155 -163v575h59v-575l156 162l38 -38z" />
    <glyph glyph-name="minus" unicode="&#x2212;" 
d="M73 305v57h434v-57h-434z" />
    <glyph glyph-name="uniFEFF" unicode="&#xfeff;" horiz-adv-x="0" 
 />
    <glyph glyph-name="zero.pnum" horiz-adv-x="608" 
d="M542 338q0 -173 -60.5 -262t-177.5 -89t-177.5 89t-60.5 262q0 172 60.5 260.5t177.5 88.5t177.5 -88.5t60.5 -260.5zM136 338q0 -148 41.5 -220t126.5 -72t126.5 72t41.5 220q0 290 -168 290t-168 -290z" />
    <glyph glyph-name="one.pnum" horiz-adv-x="399" 
d="M213 0v571h-182v52l142 3q28 1 37.5 8.5t12.5 29.5l4 35h53v-699h-67z" />
    <glyph glyph-name="two.pnum" 
d="M64 0v54l210 196q53 49 83 87t43 73t13 73q0 70 -40.5 107t-117.5 37q-83 0 -163 -41l-22 50q87 51 189 51q107 0 165.5 -52.5t58.5 -148.5q0 -46 -16 -89.5t-51.5 -88.5t-94.5 -99l-166 -151h343v-58h-434z" />
    <glyph glyph-name="three.pnum" horiz-adv-x="542" 
d="M46 637q85 50 193 50q102 0 160 -47.5t58 -130.5q0 -61 -33.5 -102.5t-91.5 -56.5q68 -14 105.5 -60t37.5 -115q0 -90 -61.5 -139t-174.5 -49q-118 0 -207 53l22 52q80 -46 182 -46q170 0 170 137q0 65 -43 99.5t-123 34.5h-76l1 58h72q72 0 111.5 33.5t39.5 94.5
t-39.5 93t-114.5 32q-83 0 -167 -42z" />
    <glyph glyph-name="four.pnum" horiz-adv-x="617" 
d="M392 0v164h-344v53l326 457h82v-454h113v-56h-113v-164h-64zM118 220h274v382z" />
    <glyph glyph-name="five.pnum" horiz-adv-x="583" 
d="M275 -13q-123 0 -211 56l23 52q82 -49 184 -49q176 0 176 144q0 73 -42.5 112t-121.5 39q-87 0 -153 -50l-46 27v356h396v-58h-335v-270q59 52 157 52q101 0 157.5 -55t56.5 -153q0 -100 -61 -151.5t-180 -51.5z" />
    <glyph glyph-name="six.pnum" horiz-adv-x="595" 
d="M312 -13q-120 0 -182 84.5t-62 247.5q0 182 68.5 275t201.5 93q94 0 167 -41l-19 -53q-70 35 -144 35q-103 0 -153.5 -76t-50.5 -233v-10q30 42 80.5 67t109.5 25q95 0 150 -54t55 -148q0 -97 -59.5 -154.5t-161.5 -57.5zM314 345q-101 0 -175 -86q8 -106 51.5 -161
t120.5 -55q71 0 112 41t41 113q0 71 -39.5 109.5t-110.5 38.5z" />
    <glyph glyph-name="seven.pnum" horiz-adv-x="523" 
d="M25 616v58h448v-54l-269 -620h-75l270 616h-374z" />
    <glyph glyph-name="eight.pnum" horiz-adv-x="604" 
d="M302 -13q-112 0 -175 49t-63 139q0 70 38 115.5t105 56.5q-57 11 -90 53.5t-33 106.5q0 83 59 131.5t159 48.5q101 0 159.5 -48.5t58.5 -131.5q0 -64 -33 -106.5t-91 -53.5q68 -11 106 -56t38 -116q0 -90 -62.5 -139t-175.5 -49zM302 373q150 0 150 128q0 63 -38 96.5
t-112 33.5q-73 0 -111.5 -33.5t-38.5 -96.5q0 -128 150 -128zM302 43q81 0 124.5 36t43.5 101q0 137 -168 137t-168 -137q0 -65 44 -101t124 -36z" />
    <glyph glyph-name="nine.pnum" horiz-adv-x="595" 
d="M283 687q121 0 182.5 -84t61.5 -248q0 -181 -68 -274.5t-202 -93.5q-94 0 -167 41l19 53q71 -35 144 -35q104 0 154.5 76t50.5 233v13q-30 -44 -81 -69t-110 -25q-94 0 -149.5 54t-55.5 147q0 98 60 155t161 57zM131 477q0 -70 39.5 -109t110.5 -39q102 0 176 88
q-8 105 -52 159.5t-121 54.5q-71 0 -112 -41t-41 -113z" />
    <glyph glyph-name="zero.dnom" horiz-adv-x="391" 
d="M340 180q0 -92 -37 -140.5t-108 -48.5q-70 0 -107 48t-37 141q0 92 37 140t108 48t107.5 -48t36.5 -140zM111 180q0 -72 20.5 -106t63.5 -34q85 0 85 140q0 72 -20 106t-64 34q-85 0 -85 -140z" />
    <glyph glyph-name="one.dnom" horiz-adv-x="266" 
d="M132 0v276h-95v46l72 2q17 1 22.5 6.5t7.5 19.5l3 17h47v-367h-57z" />
    <glyph glyph-name="two.dnom" horiz-adv-x="353" 
d="M46 0v42l121 99q39 32 54 56t15 52q0 71 -78 71q-47 0 -88 -29l-21 42q23 18 52 26.5t63 8.5q62 0 96 -30.5t34 -86.5q0 -40 -20 -72t-70 -71l-75 -60h178v-48h-261z" />
    <glyph glyph-name="three.dnom" horiz-adv-x="355" 
d="M163 -9q-77 0 -128 35l17 44q50 -30 108 -30q84 0 84 62q0 57 -83 57h-49l1 46h50q35 0 54.5 15t19.5 43q0 56 -76 56q-53 0 -97 -27l-18 43q50 33 121 33q58 0 92.5 -26t34.5 -71q0 -33 -19 -56t-50 -31q36 -7 56.5 -30.5t20.5 -58.5q0 -48 -37.5 -76t-101.5 -28z" />
    <glyph glyph-name="four.dnom" horiz-adv-x="385" 
d="M228 0v84h-188v42l174 233h68v-231h62v-44h-62v-84h-54zM99 128h131v179z" />
    <glyph glyph-name="five.dnom" horiz-adv-x="358" 
d="M174 -9q-75 0 -127 35l16 44q54 -29 110 -29q83 0 83 67q0 32 -21 50t-59 18q-21 0 -42 -6t-38 -18l-34 20v187h231v-49h-179v-109q31 20 78 20q56 0 89 -30.5t33 -83.5q0 -56 -36 -86t-104 -30z" />
    <glyph glyph-name="six.dnom" horiz-adv-x="376" 
d="M197 -9q-71 0 -108.5 46t-37.5 134q0 97 41.5 147t121.5 50q57 0 102 -24l-15 -44q-41 20 -82 20q-56 0 -82.5 -35t-26.5 -106q36 40 100 40q56 0 88 -30t32 -82q0 -53 -35.5 -84.5t-97.5 -31.5zM198 175q-51 0 -88 -36q5 -103 88 -103q36 0 55.5 18.5t19.5 52.5
q0 32 -20 50t-55 18z" />
    <glyph glyph-name="seven.dnom" horiz-adv-x="332" 
d="M33 311v48h258v-44l-134 -315h-63l133 311h-194z" />
    <glyph glyph-name="eight.dnom" horiz-adv-x="383" 
d="M192 -9q-69 0 -105.5 27t-36.5 77q0 35 19.5 59t53.5 32q-28 9 -45 31.5t-17 52.5q0 44 36 71t95 27t95 -27t36 -71q0 -30 -17.5 -52.5t-45.5 -31.5q34 -8 53.5 -32t19.5 -59q0 -50 -36.5 -77t-104.5 -27zM192 206q36 0 56 15t20 43q0 29 -20.5 44.5t-55.5 15.5
t-55.5 -15.5t-20.5 -44.5q0 -28 20 -43t56 -15zM192 35q39 0 61 16.5t22 46.5t-21.5 46.5t-61.5 16.5t-62 -16.5t-22 -46.5t22 -46.5t62 -16.5z" />
    <glyph glyph-name="nine.dnom" horiz-adv-x="376" 
d="M179 368q71 0 108.5 -45.5t37.5 -133.5q0 -198 -163 -198q-57 0 -102 24l15 44q22 -10 42 -15t40 -5q55 0 81.5 34.5t27.5 106.5q-36 -40 -100 -40q-55 0 -87.5 30.5t-32.5 82.5q0 53 36 84t97 31zM103 252q0 -31 20 -49.5t55 -18.5q51 0 88 36q-5 103 -88 103
q-35 0 -55 -18t-20 -53z" />
    <glyph glyph-name="zero.numr" horiz-adv-x="391" 
d="M340 495q0 -92 -37 -140.5t-108 -48.5q-70 0 -107 48t-37 141q0 92 37 140t108 48t107.5 -48t36.5 -140zM111 495q0 -72 20.5 -106t63.5 -34q85 0 85 140q0 72 -20 106t-64 34q-85 0 -85 -140z" />
    <glyph glyph-name="one.numr" horiz-adv-x="266" 
d="M132 315v276h-95v46l72 2q17 1 22.5 6.5t7.5 19.5l3 17h47v-367h-57z" />
    <glyph glyph-name="two.numr" horiz-adv-x="353" 
d="M46 315v42l121 99q39 32 54 56t15 52q0 71 -78 71q-47 0 -88 -29l-21 42q23 18 52 26.5t63 8.5q62 0 96 -30.5t34 -86.5q0 -40 -20 -72t-70 -71l-75 -60h178v-48h-261z" />
    <glyph glyph-name="three.numr" horiz-adv-x="355" 
d="M163 306q-77 0 -128 35l17 44q50 -30 108 -30q84 0 84 62q0 57 -83 57h-49l1 46h50q35 0 54.5 15t19.5 43q0 56 -76 56q-53 0 -97 -27l-18 43q50 33 121 33q58 0 92.5 -26t34.5 -71q0 -33 -19 -56t-50 -31q36 -7 56.5 -30.5t20.5 -58.5q0 -48 -37.5 -76t-101.5 -28z" />
    <glyph glyph-name="four.numr" horiz-adv-x="385" 
d="M228 315v84h-188v42l174 233h68v-231h62v-44h-62v-84h-54zM99 443h131v179z" />
    <glyph glyph-name="five.numr" horiz-adv-x="358" 
d="M174 306q-75 0 -127 35l16 44q54 -29 110 -29q83 0 83 67q0 32 -21 50t-59 18q-21 0 -42 -6t-38 -18l-34 20v187h231v-49h-179v-109q31 20 78 20q56 0 89 -30.5t33 -83.5q0 -56 -36 -86t-104 -30z" />
    <glyph glyph-name="six.numr" horiz-adv-x="376" 
d="M197 306q-71 0 -108.5 46t-37.5 134q0 97 41.5 147t121.5 50q57 0 102 -24l-15 -44q-41 20 -82 20q-56 0 -82.5 -35t-26.5 -106q36 40 100 40q56 0 88 -30t32 -82q0 -53 -35.5 -84.5t-97.5 -31.5zM198 490q-51 0 -88 -36q5 -103 88 -103q36 0 55.5 18.5t19.5 52.5
q0 32 -20 50t-55 18z" />
    <glyph glyph-name="seven.numr" horiz-adv-x="332" 
d="M33 626v48h258v-44l-134 -315h-63l133 311h-194z" />
    <glyph glyph-name="eight.numr" horiz-adv-x="383" 
d="M192 306q-69 0 -105.5 27t-36.5 77q0 35 19.5 59t53.5 32q-28 9 -45 31.5t-17 52.5q0 44 36 71t95 27t95 -27t36 -71q0 -30 -17.5 -52.5t-45.5 -31.5q34 -8 53.5 -32t19.5 -59q0 -50 -36.5 -77t-104.5 -27zM192 521q36 0 56 15t20 43q0 29 -20.5 44.5t-55.5 15.5
t-55.5 -15.5t-20.5 -44.5q0 -28 20 -43t56 -15zM192 350q39 0 61 16.5t22 46.5t-21.5 46.5t-61.5 16.5t-62 -16.5t-22 -46.5t22 -46.5t62 -16.5z" />
    <glyph glyph-name="nine.numr" horiz-adv-x="376" 
d="M179 683q71 0 108.5 -45.5t37.5 -133.5q0 -198 -163 -198q-57 0 -102 24l15 44q22 -10 42 -15t40 -5q55 0 81.5 34.5t27.5 106.5q-36 -40 -100 -40q-55 0 -87.5 30.5t-32.5 82.5q0 53 36 84t97 31zM103 567q0 -31 20 -49.5t55 -18.5q51 0 88 36q-5 103 -88 103
q-35 0 -55 -18t-20 -53z" />
    <glyph glyph-name="hyphen.case" horiz-adv-x="402" 
d="M64 314v62h274v-62h-274z" />
    <glyph glyph-name="uni2010.case" horiz-adv-x="402" 
d="M64 314v62h274v-62h-274z" />
    <glyph glyph-name="uni2011.case" horiz-adv-x="402" 
d="M64 314v62h274v-62h-274z" />
    <glyph glyph-name="uni00AD.case" horiz-adv-x="402" 
d="M64 314v62h274v-62h-274z" />
    <glyph glyph-name="endash.case" horiz-adv-x="450" 
d="M0 316v59h450v-59h-450z" />
    <glyph glyph-name="emdash.case" horiz-adv-x="900" 
d="M0 316v59h900v-59h-900z" />
    <glyph glyph-name="parenleft.case" horiz-adv-x="357" 
d="M239 -117q-68 98 -103 210t-35 242t35 242.5t103 209.5h68q-137 -203 -137 -452t137 -452h-68z" />
    <glyph glyph-name="parenright.case" horiz-adv-x="357" 
d="M118 -117h-68q137 203 137 452t-137 452h68q68 -97 103 -209.5t35 -242.5t-35 -242t-103 -210z" />
    <glyph glyph-name="slash.case" horiz-adv-x="406" 
d="M21 -117l295 904h69l-295 -904h-69z" />
    <glyph glyph-name="backslash.case" horiz-adv-x="406" 
d="M385 -117h-69l-295 904h69z" />
    <glyph glyph-name="bracketleft.case" horiz-adv-x="382" 
d="M112 -117v904h236v-54h-170v-796h170v-54h-236z" />
    <glyph glyph-name="bracketright.case" horiz-adv-x="382" 
d="M270 -117h-236v54h171v796h-171v54h236v-904z" />
    <glyph glyph-name="braceleft.case" horiz-adv-x="422" 
d="M290 -128q-73 0 -112 31t-39 92q0 29 9.5 58.5t34.5 78.5q22 44 29.5 65t7.5 40q0 32 -19.5 51.5t-65.5 19.5h-78v55h78q46 0 65.5 20t19.5 51q0 19 -7.5 40.5t-29.5 64.5q-25 49 -34.5 79t-9.5 58q0 62 39 92.5t112 30.5q47 0 98 -13v-54q-26 6 -47 8.5t-37 2.5
q-97 0 -97 -75q0 -23 9.5 -49.5t31.5 -70.5t30.5 -68.5t8.5 -46.5q0 -39 -23 -67t-63 -31q41 -4 63.5 -31t22.5 -66q0 -22 -8.5 -46.5t-30.5 -68.5t-31.5 -70t-9.5 -49q0 -40 25 -57.5t72 -17.5q16 0 37 2t47 8v-54q-51 -13 -98 -13z" />
    <glyph glyph-name="braceright.case" horiz-adv-x="422" 
d="M132 -128q-47 0 -98 13v54q26 -6 47 -8t37 -2q47 0 72 17.5t25 57.5q0 23 -9 49t-32 70q-22 44 -30.5 68.5t-8.5 46.5q0 40 23.5 67.5t62.5 30.5q-41 4 -63.5 31.5t-22.5 65.5q0 22 8.5 46.5t30.5 68.5q23 44 32 70.5t9 49.5q0 75 -97 75q-16 0 -37 -2.5t-47 -8.5v54
q51 13 98 13q74 0 112.5 -30.5t38.5 -92.5q0 -28 -9.5 -58t-34.5 -79q-22 -43 -29.5 -64.5t-7.5 -40.5q0 -31 20 -51t65 -20h78v-55h-78q-45 0 -65 -19.5t-20 -51.5q0 -19 7.5 -40t29.5 -65q25 -49 34.5 -78.5t9.5 -58.5q0 -61 -38.5 -92t-112.5 -31z" />
    <glyph glyph-name="bullet.case" horiz-adv-x="538" 
d="M130 191v288h278v-288h-278z" />
    <glyph glyph-name="guilsinglleft.case" horiz-adv-x="394" 
d="M252 107l-199 213l199 213h84l-197 -213l198 -213h-85z" />
    <glyph glyph-name="guilsinglright.case" horiz-adv-x="394" 
d="M142 107h-85l198 213l-197 213h84l198 -213z" />
    <glyph glyph-name="guillemotleft.case" horiz-adv-x="635" 
d="M252 107l-199 213l199 213h84l-197 -213l198 -213h-85zM493 107l-199 213l199 213h84l-197 -213l198 -213h-85z" />
    <glyph glyph-name="guillemotright.case" horiz-adv-x="635" 
d="M142 107h-85l198 213l-197 213h84l198 -213zM383 107h-85l198 213l-197 213h84l198 -213z" />
    <glyph glyph-name="at.case" horiz-adv-x="953" 
d="M484 -107q-200 0 -306.5 107t-106.5 308q0 137 49 234.5t141.5 149t222.5 51.5q191 0 294.5 -99t103.5 -281q0 -123 -48 -191t-136 -68q-97 0 -120 73q-49 -73 -142 -73q-63 0 -98 31.5t-35 89.5q0 130 171 130h96v31q0 59 -22 83t-78 24q-61 0 -126 -28l-13 45
q67 32 147 32q77 0 112.5 -35t35.5 -112v-155q0 -88 77 -88q58 0 90 55t32 155q0 158 -88 243t-252 85q-112 0 -192 -45.5t-122.5 -130.5t-42.5 -206q0 -178 91.5 -270t266.5 -92q136 0 242 52l19 -47q-52 -28 -120.5 -43t-142.5 -15zM450 151q74 0 120 65v98h-90
q-118 0 -118 -88q0 -75 88 -75z" />
    <glyph glyph-name="periodcentered.case" horiz-adv-x="221" 
d="M70 291v97h81v-97h-81z" />
    <glyph glyph-name="questiondown.case" horiz-adv-x="473" 
d="M225 577v97h80v-97h-80zM250 -14q-100 0 -153 44t-53 127q0 53 22 91t80 83q36 28 55 49.5t26 44.5t7 54h61q0 -43 -9 -74.5t-31 -58.5t-61 -57q-47 -37 -64.5 -65t-17.5 -66q0 -113 142 -113q43 0 84 10.5t82 30.5l19 -55q-82 -45 -189 -45z" />
    <glyph glyph-name="exclamdown.case" horiz-adv-x="236" 
d="M78 577v97h80v-97h-80zM82 0l7 479h58l6 -479h-71z" />
    <glyph glyph-name="periodcentered.loclCAT" horiz-adv-x="59" 
d="M-34 328v82h78v-82h-78z" />
    <glyph glyph-name="periodcentered.loclCAT.cap" horiz-adv-x="0" 
d="M-158 317v82h78v-82h-78z" />
    <glyph glyph-name="uni0327.cap" horiz-adv-x="0" 
d="M-11 -249q-25 0 -47.5 3.5t-45.5 10.5v47q25 -7 44.5 -9.5t43.5 -2.5q72 0 72 48q0 28 -20.5 41t-81.5 16l19 106l46 -1l-12 -65q51 -7 80 -29.5t29 -68.5t-32.5 -71t-94.5 -25z" />
    <glyph glyph-name="uni0326.cap" horiz-adv-x="0" 
d="M-61 -252l25 169h66l-39 -169h-52z" />
    <glyph glyph-name="commabelow" horiz-adv-x="75" 
d="M-18 -252l25 169h66l-39 -169h-52z" />
    <glyph glyph-name="uni0328.cap" horiz-adv-x="0" 
d="M-40 -210q-52 0 -81 24.5t-29 68.5q0 81 94 132l56 -15q-48 -25 -70 -51t-22 -55q0 -28 16.5 -40t50.5 -12q24 0 43 6v-49q-10 -4 -24.5 -6.5t-33.5 -2.5z" />
    <glyph glyph-name="uni0328.round" horiz-adv-x="0" 
d="M-47 -210q-52 0 -80.5 25.5t-28.5 71.5q0 44 32 86.5t109 79.5l16 -16q-99 -65 -99 -138q0 -31 17 -44t50 -13q24 0 43 6v-49q-11 -4 -25.5 -6.5t-33.5 -2.5z" />
    <glyph glyph-name="acutecomb.cap" horiz-adv-x="0" 
d="M-70 751l131 150h85l-144 -150h-72z" />
    <glyph glyph-name="IJacute" horiz-adv-x="720" 
d="M102 0v674h69v-674h-69zM444 -13q-67 0 -126 30l20 56q47 -25 102 -25q63 0 90 36t27 121v411h-189v58h257v-475q0 -110 -43.5 -161t-137.5 -51zM66 751l131 150h85l-144 -150h-72zM462 751l131 150h85l-144 -150h-72z" />
    <glyph glyph-name="ijacute" horiz-adv-x="528" 
d="M110 0v455h-76v52h141v-507h-65zM329 -201q-35 0 -57 8v51q10 -2 20.5 -3.5t22.5 -1.5q33 0 46 19t13 60v523h-76v52h141v-577q0 -67 -26.5 -99t-83.5 -32zM69 609l123 171h77l-134 -171h-66zM334 609l123 171h77l-134 -171h-66z" />
    <glyph glyph-name="gravecomb.cap" horiz-adv-x="0" 
d="M-17 751l-144 150h85l131 -150h-72z" />
    <glyph glyph-name="uni0302.cap" horiz-adv-x="0" 
d="M-158 751l122 150h73l120 -150h-71l-85 110l-89 -110h-70z" />
    <glyph glyph-name="tildecomb.cap" horiz-adv-x="0" 
d="M-170 751q0 85 21.5 119t67.5 34q32 0 51.5 -13t41.5 -39l16 -19q16 -19 27 -28t26 -9q23 0 31.5 22t8.5 80h53q0 -85 -21.5 -119t-68.5 -34q-31 0 -50.5 13.5t-41.5 38.5l-16 19q-16 20 -27 28.5t-27 8.5q-22 0 -31 -21.5t-9 -80.5h-52z" />
    <glyph glyph-name="uni030C.cap" horiz-adv-x="0" 
d="M-35 751l-121 150h70l87 -110l87 110h69l-120 -150h-72z" />
    <glyph glyph-name="uni0308.cap" horiz-adv-x="0" 
d="M-132 770v80h76v-80h-76zM55 770v80h77v-80h-77z" />
    <glyph glyph-name="uni0306.cap" horiz-adv-x="0" 
d="M0 745q-76 0 -113 41.5t-37 114.5h59q0 -52 21.5 -80t69.5 -28t70 28.5t22 79.5h58q0 -73 -36.5 -114.5t-113.5 -41.5z" />
    <glyph glyph-name="uni030A.cap" horiz-adv-x="0" 
d="M0 734q-45 0 -73.5 28t-28.5 74q0 47 28.5 75t73.5 28q46 0 74 -28.5t28 -74.5t-28 -74t-74 -28zM0 775q26 0 41.5 16.5t15.5 44.5q0 29 -15.5 45t-41.5 16q-25 0 -41 -16t-16 -45q0 -28 16 -44.5t41 -16.5z" />
    <glyph glyph-name="uni0307.cap" horiz-adv-x="0" 
d="M-40 770v80h80v-80h-80z" />
    <glyph glyph-name="cent.BRACKET.160" 
d="M296 -53v86q-101 9 -151.5 72.5t-50.5 186.5q0 122 51.5 188.5t150.5 76.5v86h46v-84q72 -2 137 -32l-18 -54q-29 14 -60.5 21.5t-58.5 7.5v-413q32 1 62.5 9.5t58.5 23.5l17 -53q-60 -34 -138 -37v-85h-46zM161 292q0 -94 33.5 -142t101.5 -58v407q-68 -10 -101.5 -60.5
t-33.5 -146.5z" />
    <glyph glyph-name="dollar.BRACKET.160" 
d="M272 -67v94q-60 2 -116.5 14t-93.5 32l17 55q84 -41 193 -44v223l-26 5q-90 17 -129 52.5t-39 101.5q0 73 50.5 115t143.5 47v98h45v-97q93 -4 173 -37l-16 -53q-40 16 -77 24t-80 9v-214l15 -3q68 -13 107.5 -33.5t57 -52t17.5 -79.5q0 -75 -50.5 -116t-146.5 -46v-95
h-45zM268 367l4 -1v205q-132 -9 -132 -105q0 -42 27.5 -63.5t100.5 -35.5zM451 189q0 48 -28.5 71.5t-105.5 38.5v-214q134 9 134 104z" />
    <glyph glyph-name="g.salt" horiz-adv-x="527" 
d="M261 186q-36 0 -66 8q-68 -24 -68 -72q0 -24 19 -35t61 -11h104q95 0 139 -31t44 -98q0 -75 -57 -110t-180 -35q-115 0 -168.5 29.5t-53.5 93.5q0 78 85 105q-53 21 -53 76q0 69 90 102q-40 20 -62 57.5t-22 87.5q0 77 50.5 122t137.5 45q68 0 114 -28q52 19 112 19h13
v-54h-13q-20 0 -38 -0.5t-33 -0.5q33 -42 33 -103q0 -77 -50.5 -122t-137.5 -45zM261 235q57 0 90 31.5t33 86.5q0 56 -32.5 87t-90.5 31t-90.5 -31t-32.5 -87t32.5 -87t90.5 -31zM99 -62q0 -46 37.5 -65t122.5 -19q89 0 128.5 20.5t39.5 67.5q0 41 -27.5 59t-89.5 18h-120
q-15 0 -29 1q-62 -22 -62 -82z" />
    </font>
</defs>
</svg>
