<?xml version="1.0" standalone="no"?>
<!DOCTYPE svg PUBLIC "-//W3C//DTD SVG 1.1//EN" "http://www.w3.org/Graphics/SVG/1.1/DTD/svg11.dtd" >
<svg xmlns="http://www.w3.org/2000/svg" xmlns:xlink="http://www.w3.org/1999/xlink" version="1.1">
<metadata>
Created by FontForge 20170731 at Tue Mar 10 13:57:51 2020
 By Aleksey,,,
(c) 2020 Goldman Sachs. All rights reserved.
</metadata>
<defs>
<font id="GoldmanSans-Bold" horiz-adv-x="580" >
  <font-face 
    font-family="Goldman Sans"
    font-weight="700"
    font-stretch="normal"
    units-per-em="1000"
    panose-1="2 11 8 3 2 2 3 2 2 4"
    ascent="712"
    descent="-288"
    x-height="513"
    cap-height="674"
    bbox="-221 -274 1255 983"
    underline-thickness="77"
    underline-position="-192"
    unicode-range="U+000D-FEFF"
  />
<missing-glyph horiz-adv-x="500" 
d="M49 0v674h402v-674h-402zM152 92h196v490h-196v-490z" />
    <glyph glyph-name="f_f" unicode="ff" horiz-adv-x="758" 
d="M100 0v404h-84v109h84v22q0 191 198 191q27 0 47 -2t37 -7v-105q-31 4 -54 4q-51 0 -68 -16.5t-17 -66.5v-20h204v22q0 191 199 191q59 0 96 -9v-106q-19 3 -32 4t-30 1q-53 0 -71.5 -16.5t-18.5 -66.5v-20h152v-109h-147v-404h-148v404h-200v-404h-147z" />
    <glyph glyph-name="f_i" unicode="fi" horiz-adv-x="695" 
d="M473 601v137h153v-137h-153zM100 0v404h-84v109h84v22q0 191 198 191q27 0 47 -2t37 -7v-105q-31 4 -54 4q-51 0 -68 -16.5t-17 -66.5v-20h136v-109h-132v-404h-147zM479 0v404h-59v109h209v-513h-150z" />
    <glyph glyph-name="f_j" unicode="fj" horiz-adv-x="695" 
d="M473 601v137h153v-137h-153zM100 0v404h-84v109h84v22q0 191 198 191q27 0 47 -2t37 -7v-105q-31 4 -54 4q-51 0 -68 -16.5t-17 -66.5v-20h136v-109h-132v-404h-147zM467 -205q-24 0 -41 3t-34 7v109q20 -4 39 -4q26 0 37 12.5t11 43.5v438h-59v109h209v-520
q0 -66 -14 -110t-49.5 -66t-98.5 -22z" />
    <glyph glyph-name="f_f_i" unicode="ffi" horiz-adv-x="1042" 
d="M820 601v137h154v-137h-154zM100 0v404h-84v109h84v22q0 191 198 191q27 0 47 -2t37 -7v-105q-31 4 -54 4q-51 0 -68 -16.5t-17 -66.5v-20h204v22q0 191 198 191q27 0 47 -2t38 -7v-105q-31 4 -54 4q-51 0 -68.5 -16.5t-17.5 -66.5v-20h136v-109h-131v-404h-148v404h-200
v-404h-147zM826 0v404h-59v109h209v-513h-150z" />
    <glyph glyph-name="f_f_j" unicode="ffj" horiz-adv-x="1042" 
d="M820 601v137h154v-137h-154zM100 0v404h-84v109h84v22q0 191 198 191q27 0 47 -2t37 -7v-105q-31 4 -54 4q-51 0 -68 -16.5t-17 -66.5v-20h204v22q0 191 198 191q27 0 47 -2t38 -7v-105q-31 4 -54 4q-51 0 -68.5 -16.5t-17.5 -66.5v-20h136v-109h-131v-404h-148v404h-200
v-404h-147zM814 -205q-24 0 -40.5 3t-33.5 7v109q19 -4 38 -4q26 0 37 12.5t11 43.5v438h-59v109h209v-520q0 -66 -14 -110t-49.5 -66t-98.5 -22z" />
    <glyph glyph-name=".notdef" horiz-adv-x="500" 
d="M49 0v674h402v-674h-402zM152 92h196v490h-196v-490z" />
    <glyph glyph-name="uni0000" horiz-adv-x="0" 
 />
    <glyph glyph-name="uni0000" horiz-adv-x="0" 
 />
    <glyph glyph-name="uni000D" unicode="&#xd;" horiz-adv-x="211" 
 />
    <glyph glyph-name="space" unicode=" " horiz-adv-x="211" 
 />
    <glyph glyph-name="exclam" unicode="!" horiz-adv-x="294" 
d="M84 226l-14 448h154l-15 -448h-125zM66 0v150h161v-150h-161z" />
    <glyph glyph-name="quotedbl" unicode="&#x22;" horiz-adv-x="463" 
d="M61 388l-17 324h156l-17 -324h-122zM280 388l-17 324h156l-17 -324h-122z" />
    <glyph glyph-name="numbersign" unicode="#" 
d="M75 0l25 160h-80v94h95l25 166h-99v94h114l25 160h104l-25 -160h117l25 160h105l-25 -160h79v-94h-94l-25 -166h98v-94h-113l-25 -160h-104l25 160h-118l-25 -160h-104zM219 254h117l26 166h-118z" />
    <glyph glyph-name="dollar" unicode="$" 
d="M258 -67v95q-60 2 -116.5 13t-98.5 30l28 112q95 -34 187 -38v129l-34 6q-91 14 -131.5 53.5t-40.5 113.5q0 80 52.5 126t153.5 54v99h71v-98q98 -4 176 -32l-29 -110q-65 23 -147 27v-132l25 -4q97 -16 137.5 -56t40.5 -117q0 -161 -203 -175v-96h-71zM183 450
q0 -24 16 -36t59 -21v118q-39 -5 -57 -19.5t-18 -41.5zM402 205q0 24 -16 36.5t-57 20.5v-114q73 9 73 57z" />
    <glyph glyph-name="percent" unicode="%" horiz-adv-x="910" 
d="M190 0l395 674h134l-394 -674h-135zM870 183q0 -192 -165 -192q-82 0 -124 49.5t-42 144.5q0 192 166 192q82 0 123.5 -49.5t41.5 -144.5zM654 183q0 -58 11.5 -81.5t39.5 -23.5q29 0 40 23.5t11 83.5q0 59 -11 82.5t-40 23.5q-28 0 -39.5 -24t-11.5 -84zM370 489
q0 -192 -165 -192q-82 0 -124 49.5t-42 144.5q0 192 166 192q82 0 123.5 -49.5t41.5 -144.5zM154 489q0 -58 11.5 -81.5t39.5 -23.5q29 0 40 23.5t11 83.5q0 59 -11 82.5t-40 23.5q-28 0 -39.5 -24t-11.5 -84z" />
    <glyph glyph-name="ampersand" unicode="&#x26;" horiz-adv-x="718" 
d="M300 -14q-127 0 -194 51.5t-67 148.5q0 60 29 106.5t91 84.5q-18 29 -26 58t-8 61q0 91 63.5 141.5t175.5 50.5q45 0 93 -7.5t79 -19.5l-28 -113q-41 11 -70 16t-58 5q-119 0 -119 -83q0 -22 10 -43t37.5 -51t79.5 -79l106 -100q25 60 26 156h-94v101h214v-85
q0 -155 -59 -254l138 -131h-176l-45 42q-80 -56 -198 -56zM181 202q0 -101 135 -101q57 0 97 20l-170 160l-15 15q-47 -34 -47 -94z" />
    <glyph glyph-name="quotesingle" unicode="'" horiz-adv-x="244" 
d="M61 388l-17 324h156l-17 -324h-122z" />
    <glyph glyph-name="parenleft" unicode="(" horiz-adv-x="393" 
d="M221 -162q-67 95 -102 210t-35 242q0 128 35 243t102 209h140q-61 -98 -93 -214t-32 -238t32 -238t93 -214h-140z" />
    <glyph glyph-name="parenright" unicode=")" horiz-adv-x="393" 
d="M172 -162h-140q62 98 93.5 214t31.5 238t-31.5 238t-93.5 214h140q68 -94 102.5 -209t34.5 -243q0 -127 -34.5 -242t-102.5 -210z" />
    <glyph glyph-name="asterisk" unicode="*" horiz-adv-x="512" 
d="M172 283l-90 65l103 121l-150 39l34 105l143 -60l-12 158h111l-11 -158l142 60l34 -105l-149 -39l103 -121l-90 -65l-84 135z" />
    <glyph glyph-name="plus" unicode="+" 
d="M232 101v175h-162v115h162v174h116v-174h162v-115h-162v-175h-116z" />
    <glyph glyph-name="comma" unicode="," horiz-adv-x="280" 
d="M31 -150l32 310h160l-66 -310h-126z" />
    <glyph glyph-name="hyphen" unicode="-" horiz-adv-x="404" 
d="M48 211v136h308v-136h-308z" />
    <glyph glyph-name="period" unicode="." horiz-adv-x="280" 
d="M60 0v160h161v-160h-161z" />
    <glyph glyph-name="slash" unicode="/" horiz-adv-x="475" 
d="M15 -162l295 904h150l-295 -904h-150z" />
    <glyph glyph-name="zero" unicode="0" 
d="M545 337q0 -351 -255 -351t-255 351t255 351t255 -351zM191 337q0 -127 22.5 -179t76.5 -52t76.5 52t22.5 179t-22.5 179t-76.5 52t-76.5 -52t-22.5 -179z" />
    <glyph glyph-name="one" unicode="1" 
d="M77 0v123h153v382h-151v111l124 6q21 1 30.5 8.5t12.5 26.5l5 32h129v-566h142v-123h-445z" />
    <glyph glyph-name="two" unicode="2" 
d="M55 0v116l207 191q52 47 72 81.5t20 71.5q0 100 -117 100q-66 0 -144 -35l-45 113q100 50 206 50q119 0 185.5 -57.5t66.5 -160.5q0 -46 -15 -87t-48.5 -82t-89.5 -88l-103 -88h273v-125h-468z" />
    <glyph glyph-name="three" unicode="3" 
d="M51 640q47 23 97.5 35.5t111.5 12.5q117 0 181 -49.5t64 -137.5q0 -62 -32.5 -101t-87.5 -52q66 -14 100.5 -58.5t34.5 -107.5q0 -93 -69.5 -144.5t-194.5 -51.5q-64 0 -118.5 13.5t-99.5 38.5l39 114q81 -39 168 -39q123 0 123 90q0 36 -23.5 57t-85.5 21h-84v122h79
q56 0 78 19.5t22 56.5q0 44 -28.5 63t-81.5 19q-37 0 -76.5 -9t-75.5 -24z" />
    <glyph glyph-name="four" unicode="4" 
d="M338 0v132h-318v115l295 427h154v-420h83v-122h-83v-132h-131zM156 254h182v264z" />
    <glyph glyph-name="five" unicode="5" 
d="M266 -14q-128 0 -221 54l41 115q45 -22 85.5 -32t84.5 -10q65 0 94.5 22t29.5 70q0 98 -110 98q-63 0 -120 -37l-84 49v359h427v-127h-295v-172q46 41 128 41q96 0 150.5 -56.5t54.5 -156.5q0 -106 -67 -161.5t-198 -55.5z" />
    <glyph glyph-name="six" unicode="6" 
d="M301 -14q-264 0 -264 336q0 366 298 366q102 0 184 -40l-37 -113q-68 29 -132 29q-84 0 -121.5 -50t-39.5 -166q47 65 151 65q95 0 149 -54.5t54 -149.5q0 -104 -64.5 -163.5t-177.5 -59.5zM296 303q-31 0 -58.5 -11.5t-48.5 -30.5q2 -82 28 -121t80 -39q47 0 72.5 26.5
t25.5 75.5q0 100 -99 100z" />
    <glyph glyph-name="seven" unicode="7" 
d="M48 547v127h479v-114l-237 -560h-165l239 547h-316z" />
    <glyph glyph-name="eight" unicode="8" 
d="M290 -14q-122 0 -188 49t-66 142q0 65 34 109t95 60q-52 16 -82 56t-30 96q0 88 64 139t173 51t173 -51t64 -139q0 -57 -30 -96.5t-82 -55.5q61 -16 95 -60t34 -109q0 -93 -65.5 -142t-188.5 -49zM290 399q44 0 68 22.5t24 65.5q0 87 -92 87t-92 -87q0 -43 24 -65.5
t68 -22.5zM290 100q104 0 104 92q0 93 -104 93t-104 -93q0 -45 27 -68.5t77 -23.5z" />
    <glyph glyph-name="nine" unicode="9" 
d="M279 688q264 0 264 -336q0 -366 -299 -366q-103 0 -183 40l37 113q68 -29 132 -29q84 0 121.5 50.5t39.5 166.5q-46 -66 -151 -66q-95 0 -149 54.5t-54 149.5q0 104 64 163.5t178 59.5zM185 471q0 -100 98 -100q32 0 59 11.5t49 31.5q-2 82 -28.5 120.5t-80.5 38.5
q-46 0 -71.5 -26.5t-25.5 -75.5z" />
    <glyph glyph-name="colon" unicode=":" horiz-adv-x="280" 
d="M60 0v160h161v-160h-161zM60 353v160h161v-160h-161z" />
    <glyph glyph-name="semicolon" unicode=";" horiz-adv-x="280" 
d="M31 -150l32 310h160l-66 -310h-126zM60 353v160h161v-160h-161z" />
    <glyph glyph-name="less" unicode="&#x3c;" 
d="M510 589v-129l-304 -125l304 -125v-130l-439 182v143z" />
    <glyph glyph-name="equal" unicode="=" 
d="M70 397v119h440v-119h-440zM70 151v120h440v-120h-440z" />
    <glyph glyph-name="greater" unicode="&#x3e;" 
d="M70 80v128l304 126l-304 124v131l439 -183v-142z" />
    <glyph glyph-name="question" unicode="?" horiz-adv-x="484" 
d="M149 226q0 48 7.5 80t27.5 56t55 48q41 29 55 47.5t14 43.5q0 32 -23.5 46.5t-73.5 14.5q-37 0 -73.5 -7t-76.5 -24l-35 118q50 20 96 29.5t100 9.5q233 0 233 -180q0 -55 -22 -93.5t-76 -76.5q-31 -23 -47.5 -39t-22 -32t-5.5 -41h-133zM134 0v150h161v-150h-161z" />
    <glyph glyph-name="at" unicode="@" horiz-adv-x="953" 
d="M483 -226q-208 0 -318.5 110t-110.5 317q0 141 50.5 239.5t146.5 150t232 51.5q132 0 225 -46t141.5 -133t48.5 -211t-53 -190.5t-152 -66.5q-109 0 -139 69q-46 -69 -135 -69q-64 0 -100.5 34t-36.5 95q0 132 177 132h78v4q0 44 -16 59.5t-60 15.5q-59 0 -119 -21
l-22 92q85 28 156 28q91 0 132 -38.5t41 -122.5v-124q0 -64 57 -64q44 0 66.5 42.5t22.5 124.5q0 144 -79 219.5t-231 75.5q-159 0 -243.5 -89.5t-84.5 -256.5q0 -164 83.5 -248t246.5 -84q125 0 228 48l34 -87q-52 -27 -120 -41.5t-146 -14.5zM458 85q46 0 79 35v65h-64
q-68 0 -68 -53q0 -47 53 -47z" />
    <glyph glyph-name="A" unicode="A" horiz-adv-x="646" 
d="M17 0l204 674h205l203 -674h-157l-38 139h-227l-38 -139h-152zM239 254h164l-81 302z" />
    <glyph glyph-name="B" unicode="B" horiz-adv-x="636" 
d="M76 0v674h270q104 0 159 -47.5t55 -135.5q0 -119 -102 -143q63 -14 96.5 -56t33.5 -109q0 -183 -226 -183h-286zM326 559h-101v-162h101q47 0 67.5 19.5t20.5 62.5q0 44 -20.5 62t-67.5 18zM339 287h-114v-172h114q50 0 71.5 20t21.5 65q0 46 -22 66.5t-71 20.5z" />
    <glyph glyph-name="C" unicode="C" horiz-adv-x="562" 
d="M353 -14q-154 0 -229 84.5t-75 259.5q0 177 78 267.5t230 90.5q47 0 91.5 -8t78.5 -24l-31 -116q-64 21 -120 21q-87 0 -126 -55t-39 -178q0 -117 37.5 -166t127.5 -49q33 0 65 5.5t61 16.5l29 -116q-31 -16 -78 -24.5t-100 -8.5z" />
    <glyph glyph-name="D" unicode="D" horiz-adv-x="675" 
d="M76 0v674h229q161 0 242.5 -86t81.5 -253q0 -165 -82 -250t-242 -85h-229zM298 550h-67v-426h67q92 0 130 49t38 164q0 116 -38 164.5t-130 48.5z" />
    <glyph glyph-name="E" unicode="E" horiz-adv-x="567" 
d="M76 0v674h434v-123h-283v-148h237v-123h-237v-157h287v-123h-438z" />
    <glyph glyph-name="F" unicode="F" horiz-adv-x="541" 
d="M76 0v674h424v-124h-270v-162h235v-124h-235v-264h-154z" />
    <glyph glyph-name="G" unicode="G" horiz-adv-x="654" 
d="M369 -14q-166 0 -243.5 83t-77.5 260q0 182 82 270.5t248 88.5q55 0 106 -9.5t88 -27.5l-32 -117q-38 14 -74.5 20.5t-74.5 6.5q-99 0 -141 -54t-42 -182q0 -81 16 -127.5t53 -66.5t100 -20q19 0 38 1.5t37 4.5v147h-116v121h253v-365q-45 -16 -103 -25t-117 -9z" />
    <glyph glyph-name="H" unicode="H" horiz-adv-x="690" 
d="M76 0v674h156v-269h226v269h156v-674h-156v281h-226v-281h-156z" />
    <glyph glyph-name="I" unicode="I" horiz-adv-x="308" 
d="M76 0v674h156v-674h-156z" />
    <glyph glyph-name="J" unicode="J" horiz-adv-x="475" 
d="M182 -14q-84 0 -147 30l34 118q26 -10 48 -15t41 -5q50 0 71.5 25.5t21.5 86.5v322h-171v126h327v-464q0 -115 -54.5 -169.5t-170.5 -54.5z" />
    <glyph glyph-name="K" unicode="K" horiz-adv-x="631" 
d="M76 0v674h155v-307l202 307h167l-224 -329l247 -345h-179l-213 308v-308h-155z" />
    <glyph glyph-name="L" unicode="L" horiz-adv-x="527" 
d="M76 0v674h156v-548h255v-126h-411z" />
    <glyph glyph-name="M" unicode="M" horiz-adv-x="859" 
d="M76 0v674h185l170 -426l170 426h182v-674h-137v478l-151 -372h-131l-150 364v-470h-138z" />
    <glyph glyph-name="N" unicode="N" horiz-adv-x="704" 
d="M76 0v674h166l248 -472v472h138v-674h-167l-247 475v-475h-138z" />
    <glyph glyph-name="O" unicode="O" horiz-adv-x="685" 
d="M343 -14q-145 0 -220 89.5t-75 261.5q0 173 75 262t220 89q144 0 219 -89t75 -262q0 -172 -75 -261.5t-219 -89.5zM343 113q70 0 101 52.5t31 171.5t-31 171.5t-101 52.5t-101.5 -52.5t-31.5 -171.5t31.5 -171.5t101.5 -52.5z" />
    <glyph glyph-name="P" unicode="P" horiz-adv-x="611" 
d="M76 0v674h251q249 0 249 -226t-249 -226h-99v-222h-152zM312 555h-84v-214h84q59 0 84 24.5t25 82.5t-25 82.5t-84 24.5z" />
    <glyph glyph-name="Q" unicode="Q" horiz-adv-x="685" 
d="M340 -14q-142 0 -217 89.5t-75 262.5q0 172 75 261t220 89q144 0 219 -89t75 -262q0 -191 -99 -277l117 -60l-55 -105l-189 98q-34 -7 -71 -7zM342 113q71 0 102 52.5t31 171.5t-31 171.5t-102 52.5q-70 0 -101 -52.5t-31 -171.5q0 -118 31 -171t101 -53z" />
    <glyph glyph-name="R" unicode="R" horiz-adv-x="637" 
d="M76 0v674h248q121 0 183 -54.5t62 -161.5q0 -150 -123 -187l173 -271h-169l-150 248h-73v-248h-151zM313 557h-86v-196h86q54 0 78 23t24 74q0 52 -24.5 75.5t-77.5 23.5z" />
    <glyph glyph-name="S" unicode="S" horiz-adv-x="565" 
d="M260 -14q-121 0 -216 43l33 121q38 -17 84 -27t89 -10q62 0 90.5 19.5t28.5 61.5q0 31 -16 48.5t-54 25.5l-76 16q-85 19 -125 66t-40 129q0 100 64.5 154.5t179.5 54.5q110 0 203 -38l-31 -119q-34 15 -75 22.5t-84 7.5q-56 0 -82.5 -17.5t-26.5 -57.5q0 -30 15.5 -46
t55.5 -25l64 -14q95 -22 138 -70t43 -133q0 -212 -262 -212z" />
    <glyph glyph-name="T" unicode="T" horiz-adv-x="552" 
d="M198 0v549h-176v125h508v-125h-176v-549h-156z" />
    <glyph glyph-name="U" unicode="U" horiz-adv-x="669" 
d="M335 -14q-139 0 -202.5 68t-63.5 217v403h157v-432q0 -67 26.5 -97.5t82.5 -30.5t82 30.5t26 97.5v432h157v-403q0 -149 -63.5 -217t-201.5 -68z" />
    <glyph glyph-name="V" unicode="V" horiz-adv-x="634" 
d="M212 0l-197 674h163l144 -532l139 532h157l-196 -674h-210z" />
    <glyph glyph-name="W" unicode="W" horiz-adv-x="880" 
d="M153 0l-137 674h146l92 -524l104 512h168l106 -518l94 530h138l-137 -674h-192l-95 484l-95 -484h-192z" />
    <glyph glyph-name="X" unicode="X" horiz-adv-x="609" 
d="M14 0l197 345l-182 329h166l113 -212l115 212h164l-191 -335l199 -339h-169l-125 223l-123 -223h-164z" />
    <glyph glyph-name="Y" unicode="Y" horiz-adv-x="604" 
d="M225 0v225l-220 449h161l140 -294l143 294h150l-218 -433v-241h-156z" />
    <glyph glyph-name="Z" unicode="Z" horiz-adv-x="569" 
d="M46 0v106l294 445h-289v123h470v-106l-293 -445h299v-123h-481z" />
    <glyph glyph-name="bracketleft" unicode="[" horiz-adv-x="407" 
d="M85 -162v904h293v-110h-150v-684h150v-110h-293z" />
    <glyph glyph-name="backslash" unicode="\" horiz-adv-x="475" 
d="M460 -162h-150l-295 904h150z" />
    <glyph glyph-name="bracketright" unicode="]" horiz-adv-x="407" 
d="M322 -162h-293v110h149v684h-149v110h293v-904z" />
    <glyph glyph-name="asciicircum" unicode="^" 
d="M45 236l178 438h134l178 -438h-131l-115 299l-115 -299h-129z" />
    <glyph glyph-name="underscore" unicode="_" horiz-adv-x="456" 
d="M30 -149v120h396v-120h-396z" />
    <glyph glyph-name="grave" unicode="`" horiz-adv-x="340" 
d="M175 596l-145 186h155l125 -186h-135z" />
    <glyph glyph-name="a" unicode="a" horiz-adv-x="550" 
d="M191 -12q-73 0 -114 39.5t-41 110.5q0 88 52.5 128t166.5 40h90v5q0 56 -18.5 76t-70.5 20q-34 0 -72.5 -7t-79.5 -21l-27 113q46 16 97.5 24.5t100.5 8.5q113 0 163 -46.5t50 -153.5v-325h-127l-11 73q-52 -85 -159 -85zM247 99q28 0 54.5 10.5t43.5 27.5v84h-82
q-80 0 -80 -64q0 -58 64 -58z" />
    <glyph glyph-name="b" unicode="b" horiz-adv-x="593" 
d="M368 -13q-107 0 -162 85l-10 -72h-129v712h151v-256q54 69 151 69q88 0 134.5 -69t46.5 -200t-46.5 -200t-135.5 -69zM311 109q45 0 65 34t20 113q0 80 -20 114t-65 34q-52 0 -93 -35v-226q42 -34 93 -34z" />
    <glyph glyph-name="c" unicode="c" horiz-adv-x="469" 
d="M293 -14q-250 0 -250 265q0 133 66.5 204.5t188.5 71.5q81 0 142 -29l-29 -110q-27 10 -48.5 14.5t-43.5 4.5q-63 0 -92 -37.5t-29 -119.5q0 -77 28 -110.5t92 -33.5q45 0 96 18l27 -109q-58 -29 -148 -29z" />
    <glyph glyph-name="d" unicode="d" horiz-adv-x="593" 
d="M226 -13q-89 0 -136 69t-47 200t47 200t135 69q96 0 150 -69v256h151v-712h-127l-11 72q-27 -40 -69 -62.5t-93 -22.5zM283 109q52 0 92 34v226q-40 35 -92 35q-46 0 -66 -34.5t-20 -113.5t20 -113t66 -34z" />
    <glyph glyph-name="e" unicode="e" horiz-adv-x="551" 
d="M301 -14q-258 0 -258 267q0 132 62.5 203t178.5 71q226 0 226 -272v-45h-319q6 -57 35 -81t89 -24q71 0 140 31l34 -107q-78 -43 -188 -43zM282 420q-45 0 -67 -27t-25 -91h177q-1 64 -20.5 91t-64.5 27z" />
    <glyph glyph-name="f" unicode="f" horiz-adv-x="411" 
d="M100 0v404h-84v109h84v22q0 191 199 191q58 0 95 -9v-106q-18 3 -31.5 4t-30.5 1q-52 0 -70.5 -16.5t-18.5 -66.5v-20h151v-109h-147v-404h-147z" />
    <glyph glyph-name="g" unicode="g" horiz-adv-x="592" 
d="M259 -205q-93 0 -189 33l28 115q81 -28 148 -28q69 0 99 28t30 92v55q-52 -73 -148 -73q-183 0 -183 252q0 125 47 190.5t135 65.5q109 0 162 -88l11 76h126v-478q0 -127 -63 -183.5t-203 -56.5zM282 136q52 0 93 38v193q-40 38 -92 38q-45 0 -65 -32.5t-20 -103.5
q0 -70 20 -101.5t64 -31.5z" />
    <glyph glyph-name="h" unicode="h" horiz-adv-x="588" 
d="M67 0v712h151v-266q51 79 151 79q156 0 156 -179v-346h-151v334q0 70 -66 70q-49 0 -90 -36v-368h-151z" />
    <glyph glyph-name="i" unicode="i" horiz-adv-x="310" 
d="M88 601v137h153v-137h-153zM94 0v404h-72v109h222v-513h-150z" />
    <glyph glyph-name="j" unicode="j" horiz-adv-x="310" 
d="M88 601v137h153v-137h-153zM82 -205q-24 0 -41 3t-34 7v109q20 -4 39 -4q26 0 37 12.5t11 43.5v438h-72v109h222v-520q0 -66 -14 -110t-49.5 -66t-98.5 -22z" />
    <glyph glyph-name="k" unicode="k" horiz-adv-x="563" 
d="M67 0v712h149v-418l163 219h155l-176 -232l203 -281h-164l-181 257v-257h-149z" />
    <glyph glyph-name="l" unicode="l" horiz-adv-x="326" 
d="M220 -9q-85 0 -121 40.5t-36 134.5v546h151v-559q0 -27 10.5 -37.5t35.5 -10.5q18 0 38 4v-109q-39 -9 -78 -9z" />
    <glyph glyph-name="m" unicode="m" horiz-adv-x="873" 
d="M67 0v513h126l11 -80q50 92 155 92q108 0 140 -90q52 90 154 90q157 0 157 -181v-344h-150v332q0 72 -64 72q-48 0 -84 -37q1 -11 1 -23v-344h-150v332q0 72 -62 72q-45 0 -84 -36v-368h-150z" />
    <glyph glyph-name="n" unicode="n" horiz-adv-x="588" 
d="M67 0v513h127l11 -83q51 95 162 95q77 0 117.5 -45t40.5 -133v-347h-151v336q0 68 -66 68q-49 0 -90 -36v-368h-151z" />
    <glyph glyph-name="o" unicode="o" horiz-adv-x="576" 
d="M288 -14q-118 0 -181.5 70t-63.5 201t63 200.5t182 69.5t181.5 -69.5t62.5 -201.5q0 -130 -63 -200t-181 -70zM288 101q48 0 69 36.5t21 119.5t-21 119t-69 36q-49 0 -70 -36.5t-21 -119.5q0 -82 21 -118.5t70 -36.5z" />
    <glyph glyph-name="p" unicode="p" horiz-adv-x="593" 
d="M67 -192v705h127l10 -77q53 89 165 89q88 0 134.5 -69t46.5 -200t-46.5 -200t-134.5 -69q-95 0 -151 68v-247h-151zM311 109q45 0 65 34t20 113t-20 113.5t-65 34.5q-50 0 -93 -35v-226q43 -34 93 -34z" />
    <glyph glyph-name="q" unicode="q" horiz-adv-x="593" 
d="M375 -192v247q-56 -68 -150 -68q-88 0 -135 69t-47 200t47 200t135 69q111 0 164 -89l10 77h127v-705h-151zM283 109q50 0 92 34v226q-41 35 -92 35q-46 0 -66 -34t-20 -114q0 -79 20 -113t66 -34z" />
    <glyph glyph-name="r" unicode="r" horiz-adv-x="410" 
d="M67 0v513h127l13 -99q48 107 177 107h8v-141h-11q-57 0 -95 -10.5t-68 -33.5v-336h-151z" />
    <glyph glyph-name="s" unicode="s" horiz-adv-x="466" 
d="M214 -14q-50 0 -98 10t-83 29l30 113q31 -16 73 -26.5t81 -10.5q41 0 59.5 11t18.5 36q0 20 -11.5 29.5t-41.5 16.5l-60 13q-71 15 -104.5 53t-33.5 103q0 76 54 120t148 44q54 0 91.5 -7t80.5 -26l-25 -108q-33 14 -64.5 19.5t-72.5 5.5q-79 0 -79 -44q0 -19 12 -29
t46 -18l43 -10q60 -13 93.5 -32.5t47 -50.5t13.5 -80q0 -161 -218 -161z" />
    <glyph glyph-name="t" unicode="t" horiz-adv-x="422" 
d="M293 -9q-72 0 -115 19t-61.5 61.5t-18.5 114.5v218h-86v104l54 3q23 2 33 9.5t11 26.5l9 116h126v-150h149v-109h-149v-230q0 -40 16 -54.5t62 -14.5q14 0 29.5 1.5t36.5 4.5v-109q-21 -6 -44 -8.5t-52 -2.5z" />
    <glyph glyph-name="u" unicode="u" horiz-adv-x="584" 
d="M219 -12q-155 0 -155 186v339h151v-328q0 -41 13.5 -58.5t47.5 -17.5q51 0 90 36v368h151v-513h-127l-10 77q-57 -89 -161 -89z" />
    <glyph glyph-name="v" unicode="v" horiz-adv-x="522" 
d="M163 0l-151 513h156l95 -393l97 393h150l-153 -513h-194z" />
    <glyph glyph-name="w" unicode="w" horiz-adv-x="788" 
d="M135 0l-124 513h149l68 -398l87 391h162l88 -397l68 404h144l-123 -513h-175l-85 375l-85 -375h-174z" />
    <glyph glyph-name="x" unicode="x" horiz-adv-x="522" 
d="M13 0l159 260l-159 253h159l90 -148l89 148h150l-157 -249l166 -264h-161l-93 153l-91 -153h-152z" />
    <glyph glyph-name="y" unicode="y" horiz-adv-x="518" 
d="M173 2l-166 511h159l97 -362l100 362h152l-182 -554q-28 -85 -80.5 -124.5t-138.5 -39.5q-24 0 -47 3t-44 10v108q35 -7 66 -7q48 0 77 21.5t47 71.5h-40z" />
    <glyph glyph-name="z" unicode="z" horiz-adv-x="488" 
d="M47 0v98l223 303h-219v112h385v-98l-223 -303h228v-112h-394z" />
    <glyph glyph-name="braceleft" unicode="{" horiz-adv-x="443" 
d="M295 -173q-90 0 -137.5 36.5t-47.5 106.5q0 26 8.5 53.5t32.5 70.5q19 35 26 53t7 34q0 55 -63 55h-78v111h77q64 0 64 55q0 16 -7 34.5t-26 52.5q-24 43 -32.5 70.5t-8.5 53.5q0 71 47.5 107t137.5 36q32 0 63.5 -3.5t55.5 -11.5v-108q-40 9 -78 9q-43 0 -61 -12.5
t-18 -41.5q0 -19 8 -39t26 -52q21 -35 28.5 -55.5t7.5 -43.5q0 -45 -29 -73.5t-78 -33.5q49 -4 78 -32.5t29 -73.5q0 -22 -7.5 -43t-28.5 -56q-18 -31 -26 -51.5t-8 -38.5q0 -29 18 -42t61 -13q38 0 78 9v-108q-23 -7 -55 -11t-64 -4z" />
    <glyph glyph-name="bar" unicode="|" horiz-adv-x="313" 
d="M85 -192v934h143v-934h-143z" />
    <glyph glyph-name="braceright" unicode="}" horiz-adv-x="443" 
d="M148 -173q-32 0 -64 4t-55 11v108q41 -9 78 -9q42 0 60.5 13t18.5 42q0 18 -8 38.5t-27 51.5q-20 35 -28 56t-8 43q0 45 29.5 73.5t78.5 33.5q-49 4 -78.5 32.5t-29.5 73.5q0 23 8 43.5t28 55.5q19 32 27 52t8 39q0 29 -18.5 41.5t-60.5 12.5q-37 0 -78 -9v108
q23 8 55 11.5t64 3.5q90 0 137.5 -36t47.5 -107q0 -26 -8.5 -53.5t-32.5 -70.5q-19 -34 -26 -52.5t-7 -34.5q0 -55 63 -55h77v-111h-77q-63 0 -63 -55q0 -16 7 -34t26 -53q24 -43 32.5 -70.5t8.5 -53.5q0 -70 -47.5 -106.5t-137.5 -36.5z" />
    <glyph glyph-name="asciitilde" unicode="~" 
d="M393 178q-47 0 -76.5 22.5t-61.5 80.5l-16 31q-17 32 -26 42t-21 10q-16 0 -24.5 -14.5t-12 -52.5t-3.5 -107h-110q0 160 33 228.5t112 68.5q47 0 77 -22t61 -81l16 -31q17 -32 26 -42t21 -10q16 0 24.5 15t12 52.5t3.5 106.5h110q0 -160 -33 -228.5t-112 -68.5z" />
    <glyph glyph-name="uni00A0" unicode="&#xa0;" horiz-adv-x="211" 
 />
    <glyph glyph-name="exclamdown" unicode="&#xa1;" horiz-adv-x="294" 
d="M66 363v150h161v-150h-161zM70 -161l14 448h125l15 -448h-154z" />
    <glyph glyph-name="cent" unicode="&#xa2;" 
d="M311 -63v92q-226 19 -226 262q0 122 58.5 192t167.5 81v88h71v-87q61 -5 125 -28l-29 -112q-51 20 -96 21v-298q51 1 98 20l28 -111q-59 -24 -126 -29v-91h-71zM235 291q0 -60 17.5 -92t58.5 -44v283q-41 -13 -58.5 -48.5t-17.5 -98.5z" />
    <glyph glyph-name="sterling" unicode="&#xa3;" 
d="M76 0v109q95 48 95 147q0 19 -3 38h-115v95h87q-8 24 -14 49.5t-6 56.5q0 90 65 141.5t177 51.5q41 0 84 -10t83 -28l-36 -111q-57 23 -111 23q-56 0 -90 -26.5t-34 -70.5q0 -21 4 -39.5t10 -36.5h191v-95h-160q4 -22 4 -43q0 -82 -61 -130h295v-121h-465z" />
    <glyph glyph-name="currency" unicode="&#xa4;" 
d="M115 70l-83 82l87 87q-19 40 -19 90t19 90l-87 87l83 83l88 -88q39 18 87 18t88 -18l87 88l83 -83l-87 -87q19 -40 19 -90t-19 -90l87 -87l-83 -82l-88 87q-39 -18 -87 -18q-49 0 -88 18zM290 237q40 0 63 25t23 67q0 41 -23 66.5t-63 25.5t-63 -25.5t-23 -66.5
q0 -42 23 -67t63 -25z" />
    <glyph glyph-name="yen" unicode="&#xa5;" 
d="M57 96v80h160v71h-160v80h122l-167 347h153l128 -298l131 298h144l-168 -347h125v-80h-160v-71h160v-80h-160v-96h-148v96h-160z" />
    <glyph glyph-name="section" unicode="&#xa7;" horiz-adv-x="583" 
d="M282 -69q-60 0 -119 11t-96 30l32 112q92 -33 178 -33q101 0 101 49q0 22 -15.5 32.5t-53.5 14.5l-85 11q-163 21 -163 150q0 82 63 122q-60 43 -60 127q0 169 237 169q60 0 119 -11t96 -30l-32 -112q-92 33 -177 33q-102 0 -102 -49q0 -21 16 -31.5t53 -15.5l85 -11
q163 -20 163 -150q0 -82 -63 -122q60 -42 60 -127q0 -169 -237 -169zM357 263l14 -2q25 24 25 58q0 30 -19.5 45.5t-64.5 20.5l-86 10q-7 1 -13 2q-26 -24 -26 -58q0 -30 19.5 -45.5t64.5 -20.5z" />
    <glyph glyph-name="dieresis" unicode="&#xa8;" horiz-adv-x="406" 
d="M30 607v133h134v-133h-134zM241 607v133h135v-133h-135z" />
    <glyph glyph-name="copyright" unicode="&#xa9;" horiz-adv-x="794" 
d="M397 -14q-104 0 -180.5 43t-118 121.5t-41.5 186.5t41.5 186.5t118 121.5t180.5 43q105 0 181 -43t117.5 -121.5t41.5 -186.5t-41.5 -186.5t-117.5 -121.5t-181 -43zM397 48q84 0 145.5 35.5t95 100.5t33.5 153t-33.5 153t-95 100.5t-145.5 35.5q-83 0 -145 -35.5
t-95.5 -100.5t-33.5 -153t33.5 -153t95.5 -100.5t145 -35.5zM416 140q-182 0 -182 196q0 95 48 147.5t134 52.5q29 0 59 -7t52 -18l-25 -79q-18 8 -35.5 11.5t-37.5 3.5q-46 0 -66.5 -26t-20.5 -88q0 -56 19.5 -79.5t65.5 -23.5q41 0 75 15l25 -79q-46 -26 -111 -26z" />
    <glyph glyph-name="ordfeminine" unicode="&#xaa;" horiz-adv-x="434" 
d="M157 292q-54 0 -84 30t-30 83q0 64 39.5 93.5t124.5 29.5h58v1q0 36 -14 50t-51 14q-48 0 -110 -19l-21 90q35 11 72.5 17.5t73.5 6.5q85 0 124 -36t39 -113v-238h-98l-8 50q-35 -59 -115 -59zM199 378q17 0 35.5 6.5t30.5 16.5v61h-53q-57 0 -57 -45q0 -39 44 -39z" />
    <glyph glyph-name="guillemotleft" unicode="&#xab;" horiz-adv-x="750" 
d="M220 47l-173 213l173 213h182l-174 -213l174 -213h-182zM521 47l-173 213l173 213h182l-174 -213l174 -213h-182z" />
    <glyph glyph-name="logicalnot" unicode="&#xac;" 
d="M384 176v165h-318v120h440v-285h-122z" />
    <glyph glyph-name="uni00AD" unicode="&#xad;" horiz-adv-x="404" 
d="M48 211v136h308v-136h-308z" />
    <glyph glyph-name="registered" unicode="&#xae;" horiz-adv-x="575" 
d="M287 205q-71 0 -125 30t-83.5 84t-29.5 126q0 73 30 127.5t83.5 84.5t125.5 30t125.5 -30t83 -84t29.5 -127t-29.5 -127t-83.5 -84t-126 -30zM287 251q86 0 136.5 53t50.5 141q0 89 -50.5 142.5t-135.5 53.5t-136 -53t-51 -142t50.5 -142t135.5 -53zM197 326v255h96
q44 0 69 -22.5t25 -62.5q0 -57 -45 -73l59 -97h-65l-51 88h-30v-88h-58zM292 531h-37v-67h37q34 0 34 33q0 34 -34 34z" />
    <glyph glyph-name="degree" unicode="&#xb0;" horiz-adv-x="444" 
d="M222 356q-75 0 -121 46t-46 120t46 120t121 46t121.5 -46t46.5 -120t-46.5 -120t-121.5 -46zM222 446q33 0 52.5 21t19.5 55q0 35 -20 56t-52 21t-52 -21t-20 -56q0 -34 20 -55t52 -21z" />
    <glyph glyph-name="uni00B2" unicode="&#xb2;" horiz-adv-x="369" 
d="M42 400v75l116 89q29 23 40.5 39.5t11.5 35.5q0 47 -58 47q-19 0 -39 -5t-41 -16l-33 80q55 32 125 32q73 0 114 -34.5t41 -96.5q0 -41 -20 -72t-68 -64l-37 -25h134v-85h-286z" />
    <glyph glyph-name="uni00B3" unicode="&#xb3;" horiz-adv-x="373" 
d="M165 391q-78 0 -135 26l22 80q29 -10 53.5 -14t49.5 -4q32 0 45.5 7.5t13.5 26.5q0 33 -47 33h-61v80h64q40 0 40 30q0 18 -13.5 26t-44.5 8q-42 0 -88 -17l-27 79q59 25 129 25q71 0 111 -27t40 -75q0 -34 -18.5 -56t-50.5 -29q37 -9 57 -32.5t20 -58.5q0 -51 -42 -79.5
t-118 -28.5z" />
    <glyph glyph-name="acute" unicode="&#xb4;" horiz-adv-x="340" 
d="M30 596l125 186h155l-144 -186h-136z" />
    <glyph glyph-name="paragraph" unicode="&#xb6;" horiz-adv-x="612" 
d="M296 -192v442h-22q-107 0 -162.5 55t-55.5 157t55.5 157t162.5 55h105v-866h-83zM445 -192v866h82v-866h-82z" />
    <glyph glyph-name="periodcentered" unicode="&#xb7;" horiz-adv-x="280" 
d="M60 191v160h161v-160h-161z" />
    <glyph glyph-name="cedilla" unicode="&#xb8;" horiz-adv-x="315" 
d="M125 -268q-53 0 -95 12v84q23 -4 41 -6t35 -2q33 0 47 7.5t14 23.5q0 17 -19.5 25.5t-69.5 9.5l20 125l83 -1l-10 -58q114 -16 114 -107q0 -113 -160 -113z" />
    <glyph glyph-name="uni00B9" unicode="&#xb9;" horiz-adv-x="292" 
d="M119 400v243h-88v84l75 3q14 1 19.5 6t6.5 15l5 24h91v-375h-109z" />
    <glyph glyph-name="ordmasculine" unicode="&#xba;" horiz-adv-x="438" 
d="M218 291q-88 0 -134.5 51.5t-46.5 147.5t47 147t135 51t135 -51t47 -147t-47 -147.5t-136 -51.5zM218 382q33 0 47.5 25t14.5 83t-14 82.5t-47 24.5q-32 0 -46.5 -25t-14.5 -82q0 -58 14 -83t46 -25z" />
    <glyph glyph-name="guillemotright" unicode="&#xbb;" horiz-adv-x="750" 
d="M229 47h-182l175 213l-175 213h182l173 -213zM530 47h-182l175 213l-175 213h182l173 -213z" />
    <glyph glyph-name="onequarter" unicode="&#xbc;" horiz-adv-x="860" 
d="M145 0l395 674h134l-394 -674h-135zM673 0v72h-189v73l169 223h118v-221h49v-75h-49v-72h-98zM584 147h94v129zM119 306v243h-88v84l75 3q14 1 19.5 6t6.5 15l5 24h91v-375h-109z" />
    <glyph glyph-name="onehalf" unicode="&#xbd;" horiz-adv-x="898" 
d="M145 0l395 674h134l-394 -674h-135zM570 0v75l116 89q29 23 40.5 39.5t11.5 35.5q0 47 -58 47q-19 0 -39 -5t-41 -16l-33 80q55 32 125 32q73 0 114 -34.5t41 -96.5q0 -41 -20 -72t-68 -64l-37 -25h134v-85h-286zM119 306v243h-88v84l75 3q14 1 19.5 6t6.5 15l5 24h91
v-375h-109z" />
    <glyph glyph-name="threequarters" unicode="&#xbe;" horiz-adv-x="909" 
d="M194 0l395 674h134l-394 -674h-135zM723 0v72h-189v73l169 223h118v-221h49v-75h-49v-72h-98zM634 147h94v129zM165 297q-78 0 -135 26l22 80q29 -10 53.5 -14t49.5 -4q32 0 45.5 7.5t13.5 26.5q0 33 -47 33h-61v80h64q40 0 40 30q0 18 -13.5 26t-44.5 8q-42 0 -88 -17
l-27 79q59 25 129 25q71 0 111 -27t40 -75q0 -34 -18.5 -56t-50.5 -29q37 -9 57 -32.5t20 -58.5q0 -51 -42 -79.5t-118 -28.5z" />
    <glyph glyph-name="questiondown" unicode="&#xbf;" horiz-adv-x="484" 
d="M188 363v150h161v-150h-161zM263 -176q-234 0 -234 179q0 56 22 94.5t75 76.5q32 23 48.5 39t22 32.5t5.5 41.5h133q0 -48 -7.5 -80t-27 -56t-55.5 -49q-41 -29 -55.5 -47.5t-14.5 -44.5q0 -60 97 -60q39 0 75 7.5t75 23.5l36 -118q-50 -21 -96 -30t-99 -9z" />
    <glyph glyph-name="Agrave" unicode="&#xc0;" horiz-adv-x="646" 
d="M17 0l204 674h205l203 -674h-157l-38 139h-227l-38 -139h-152zM239 254h164l-81 302zM271 744l-169 172h174l140 -172h-145z" />
    <glyph glyph-name="Aacute" unicode="&#xc1;" horiz-adv-x="646" 
d="M17 0l204 674h205l203 -674h-157l-38 139h-227l-38 -139h-152zM239 254h164l-81 302zM222 744l140 172h175l-170 -172h-145z" />
    <glyph glyph-name="Acircumflex" unicode="&#xc2;" horiz-adv-x="646" 
d="M17 0l204 674h205l203 -674h-157l-38 139h-227l-38 -139h-152zM239 254h164l-81 302zM116 744l127 172h159l127 -172h-141l-65 97l-66 -97h-141z" />
    <glyph glyph-name="Atilde" unicode="&#xc3;" horiz-adv-x="646" 
d="M17 0l204 674h205l203 -674h-157l-38 139h-227l-38 -139h-152zM239 254h164l-81 302zM131 744q0 98 28.5 138.5t86.5 40.5q35 0 58.5 -12t54.5 -43l9 -10q16 -15 23.5 -20t15.5 -5q14 0 20.5 16t6.5 67h97q0 -97 -28.5 -138t-86.5 -41q-34 0 -58 12t-54 43l-10 9
q-16 17 -23.5 21.5t-15.5 4.5q-14 0 -20.5 -16t-6.5 -67h-97z" />
    <glyph glyph-name="Adieresis" unicode="&#xc4;" horiz-adv-x="646" 
d="M17 0l204 674h205l203 -674h-157l-38 139h-227l-38 -139h-152zM239 254h164l-81 302zM150 746v133h134v-133h-134zM361 746v133h135v-133h-135z" />
    <glyph glyph-name="Aring" unicode="&#xc5;" horiz-adv-x="646" 
d="M17 0l204 674h205l203 -674h-157l-38 139h-227l-38 -139h-152zM239 254h164l-81 302zM323 731q-56 0 -91.5 34t-35.5 92t35.5 92t91.5 34t91.5 -34.5t35.5 -91.5q0 -58 -35.5 -92t-91.5 -34zM323 802q24 0 38.5 14.5t14.5 40.5t-15 40.5t-38 14.5t-38 -14.5t-15 -40.5
t14.5 -40.5t38.5 -14.5z" />
    <glyph glyph-name="AE" unicode="&#xc6;" horiz-adv-x="942" 
d="M14 0l357 674h513v-123h-272v-147h226v-124h-226v-157h276v-123h-425v138h-218l-71 -138h-160zM459 551l-154 -298h158v298h-4z" />
    <glyph glyph-name="Ccedilla" unicode="&#xc7;" horiz-adv-x="562" 
d="M353 -14q-154 0 -229 84.5t-75 259.5q0 177 78 267.5t230 90.5q47 0 91.5 -8t78.5 -24l-31 -116q-64 21 -120 21q-87 0 -126 -55t-39 -178q0 -117 37.5 -166t127.5 -49q33 0 65 5.5t61 16.5l29 -116q-31 -16 -78 -24.5t-100 -8.5zM314 -268q-53 0 -95 12v84q23 -4 41 -6
t35 -2q33 0 47 7.5t14 23.5q0 17 -19.5 25.5t-69.5 9.5l20 125l83 -1l-10 -58q114 -16 114 -107q0 -113 -160 -113z" />
    <glyph glyph-name="Egrave" unicode="&#xc8;" horiz-adv-x="567" 
d="M76 0v674h434v-123h-283v-148h237v-123h-237v-157h287v-123h-438zM245 744l-169 172h174l140 -172h-145z" />
    <glyph glyph-name="Eacute" unicode="&#xc9;" horiz-adv-x="567" 
d="M76 0v674h434v-123h-283v-148h237v-123h-237v-157h287v-123h-438zM196 744l140 172h175l-170 -172h-145z" />
    <glyph glyph-name="Ecircumflex" unicode="&#xca;" horiz-adv-x="567" 
d="M76 0v674h434v-123h-283v-148h237v-123h-237v-157h287v-123h-438zM90 744l127 172h159l127 -172h-141l-65 97l-66 -97h-141z" />
    <glyph glyph-name="Edieresis" unicode="&#xcb;" horiz-adv-x="567" 
d="M76 0v674h434v-123h-283v-148h237v-123h-237v-157h287v-123h-438zM124 746v133h134v-133h-134zM335 746v133h135v-133h-135z" />
    <glyph glyph-name="Igrave" unicode="&#xcc;" horiz-adv-x="308" 
d="M76 0v674h156v-674h-156zM102 744l-169 172h174l140 -172h-145z" />
    <glyph glyph-name="Iacute" unicode="&#xcd;" horiz-adv-x="308" 
d="M76 0v674h156v-674h-156zM53 744l140 172h175l-170 -172h-145z" />
    <glyph glyph-name="Icircumflex" unicode="&#xce;" horiz-adv-x="308" 
d="M76 0v674h156v-674h-156zM-53 744l127 172h159l127 -172h-141l-65 97l-66 -97h-141z" />
    <glyph glyph-name="Idieresis" unicode="&#xcf;" horiz-adv-x="308" 
d="M76 0v674h156v-674h-156zM-19 746v133h134v-133h-134zM192 746v133h135v-133h-135z" />
    <glyph glyph-name="Eth" unicode="&#xd0;" horiz-adv-x="700" 
d="M98 0v289h-71v105h71v280h232q161 0 242 -86t81 -253q0 -164 -81 -249.5t-242 -85.5h-232zM368 289h-119v-165h73q59 0 96 20t54.5 66.5t17.5 126.5q0 81 -17.5 127.5t-54.5 66t-96 19.5h-73v-156h119v-105z" />
    <glyph glyph-name="Ntilde" unicode="&#xd1;" horiz-adv-x="704" 
d="M76 0v674h166l248 -472v472h138v-674h-167l-247 475v-475h-138zM159 744q0 98 28.5 138.5t86.5 40.5q35 0 58.5 -12t54.5 -43l9 -10q16 -15 23.5 -20t15.5 -5q14 0 20.5 16t6.5 67h97q0 -97 -28.5 -138t-86.5 -41q-34 0 -58 12t-54 43l-10 9q-16 17 -23.5 21.5t-15.5 4.5
q-14 0 -20.5 -16t-6.5 -67h-97z" />
    <glyph glyph-name="Ograve" unicode="&#xd2;" horiz-adv-x="685" 
d="M343 -14q-145 0 -220 89.5t-75 261.5q0 173 75 262t220 89q144 0 219 -89t75 -262q0 -172 -75 -261.5t-219 -89.5zM343 113q70 0 101 52.5t31 171.5t-31 171.5t-101 52.5t-101.5 -52.5t-31.5 -171.5t31.5 -171.5t101.5 -52.5zM291 744l-169 172h174l140 -172h-145z" />
    <glyph glyph-name="Oacute" unicode="&#xd3;" horiz-adv-x="685" 
d="M343 -14q-145 0 -220 89.5t-75 261.5q0 173 75 262t220 89q144 0 219 -89t75 -262q0 -172 -75 -261.5t-219 -89.5zM343 113q70 0 101 52.5t31 171.5t-31 171.5t-101 52.5t-101.5 -52.5t-31.5 -171.5t31.5 -171.5t101.5 -52.5zM242 744l140 172h175l-170 -172h-145z" />
    <glyph glyph-name="Ocircumflex" unicode="&#xd4;" horiz-adv-x="685" 
d="M343 -14q-145 0 -220 89.5t-75 261.5q0 173 75 262t220 89q144 0 219 -89t75 -262q0 -172 -75 -261.5t-219 -89.5zM343 113q70 0 101 52.5t31 171.5t-31 171.5t-101 52.5t-101.5 -52.5t-31.5 -171.5t31.5 -171.5t101.5 -52.5zM136 744l127 172h159l127 -172h-141l-65 97
l-66 -97h-141z" />
    <glyph glyph-name="Otilde" unicode="&#xd5;" horiz-adv-x="685" 
d="M343 -14q-145 0 -220 89.5t-75 261.5q0 173 75 262t220 89q144 0 219 -89t75 -262q0 -172 -75 -261.5t-219 -89.5zM343 113q70 0 101 52.5t31 171.5t-31 171.5t-101 52.5t-101.5 -52.5t-31.5 -171.5t31.5 -171.5t101.5 -52.5zM151 744q0 98 28.5 138.5t86.5 40.5
q35 0 58.5 -12t54.5 -43l9 -10q16 -15 23.5 -20t15.5 -5q14 0 20.5 16t6.5 67h97q0 -97 -28.5 -138t-86.5 -41q-34 0 -58 12t-54 43l-10 9q-16 17 -23.5 21.5t-15.5 4.5q-14 0 -20.5 -16t-6.5 -67h-97z" />
    <glyph glyph-name="Odieresis" unicode="&#xd6;" horiz-adv-x="685" 
d="M343 -14q-145 0 -220 89.5t-75 261.5q0 173 75 262t220 89q144 0 219 -89t75 -262q0 -172 -75 -261.5t-219 -89.5zM343 113q70 0 101 52.5t31 171.5t-31 171.5t-101 52.5t-101.5 -52.5t-31.5 -171.5t31.5 -171.5t101.5 -52.5zM170 746v133h134v-133h-134zM381 746v133
h135v-133h-135z" />
    <glyph glyph-name="multiply" unicode="&#xd7;" 
d="M149 110l-81 82l140 140l-140 140l81 82l141 -140l140 140l82 -82l-140 -140l140 -140l-82 -82l-140 140z" />
    <glyph glyph-name="Oslash" unicode="&#xd8;" horiz-adv-x="685" 
d="M130 -37l-65 46l52 74q-69 89 -69 254q0 173 75 262t220 89q99 0 166 -43l46 66l65 -46l-52 -74q69 -89 69 -254q0 -172 -75 -261.5t-219 -89.5q-100 0 -167 43zM202 337q0 -38 3.5 -69.5t9.5 -55.5l219 317q-31 33 -91 33q-74 0 -107.5 -53.5t-33.5 -171.5zM343 112
q74 0 107 53.5t33 171.5q0 77 -13 125l-219 -317q31 -33 92 -33z" />
    <glyph glyph-name="Ugrave" unicode="&#xd9;" horiz-adv-x="669" 
d="M335 -14q-139 0 -202.5 68t-63.5 217v403h157v-432q0 -67 26.5 -97.5t82.5 -30.5t82 30.5t26 97.5v432h157v-403q0 -149 -63.5 -217t-201.5 -68zM283 744l-169 172h174l140 -172h-145z" />
    <glyph glyph-name="Uacute" unicode="&#xda;" horiz-adv-x="669" 
d="M335 -14q-139 0 -202.5 68t-63.5 217v403h157v-432q0 -67 26.5 -97.5t82.5 -30.5t82 30.5t26 97.5v432h157v-403q0 -149 -63.5 -217t-201.5 -68zM234 744l140 172h175l-170 -172h-145z" />
    <glyph glyph-name="Ucircumflex" unicode="&#xdb;" horiz-adv-x="669" 
d="M335 -14q-139 0 -202.5 68t-63.5 217v403h157v-432q0 -67 26.5 -97.5t82.5 -30.5t82 30.5t26 97.5v432h157v-403q0 -149 -63.5 -217t-201.5 -68zM128 744l127 172h159l127 -172h-141l-65 97l-66 -97h-141z" />
    <glyph glyph-name="Udieresis" unicode="&#xdc;" horiz-adv-x="669" 
d="M335 -14q-139 0 -202.5 68t-63.5 217v403h157v-432q0 -67 26.5 -97.5t82.5 -30.5t82 30.5t26 97.5v432h157v-403q0 -149 -63.5 -217t-201.5 -68zM162 746v133h134v-133h-134zM373 746v133h135v-133h-135z" />
    <glyph glyph-name="Yacute" unicode="&#xdd;" horiz-adv-x="604" 
d="M225 0v225l-220 449h161l140 -294l143 294h150l-218 -433v-241h-156zM207 744l140 172h175l-170 -172h-145z" />
    <glyph glyph-name="Thorn" unicode="&#xde;" horiz-adv-x="623" 
d="M76 0v674h152v-111h111q249 0 249 -222q0 -221 -249 -221h-111v-120h-152zM324 444h-96v-205h96q59 0 84 23.5t25 78.5q0 56 -25 79.5t-84 23.5z" />
    <glyph glyph-name="germandbls" unicode="&#xdf;" horiz-adv-x="633" 
d="M375 -9q-22 0 -45.5 3t-43.5 7v110q23 -6 55 -6q52 0 76 24.5t24 76.5q0 55 -25.5 80.5t-79.5 25.5h-34v111h27q85 0 85 92q0 94 -94 94q-52 0 -76 -29t-24 -92v-488h-151v485q0 123 60 182t185 59q119 0 181 -51t62 -148q0 -116 -97 -151q133 -34 133 -186
q0 -199 -218 -199z" />
    <glyph glyph-name="agrave" unicode="&#xe0;" horiz-adv-x="550" 
d="M191 -12q-73 0 -114 39.5t-41 110.5q0 88 52.5 128t166.5 40h90v5q0 56 -18.5 76t-70.5 20q-34 0 -72.5 -7t-79.5 -21l-27 113q46 16 97.5 24.5t100.5 8.5q113 0 163 -46.5t50 -153.5v-325h-127l-11 73q-52 -85 -159 -85zM247 99q28 0 54.5 10.5t43.5 27.5v84h-82
q-80 0 -80 -64q0 -58 64 -58zM226 596l-145 186h155l125 -186h-135z" />
    <glyph glyph-name="aacute" unicode="&#xe1;" horiz-adv-x="550" 
d="M191 -12q-73 0 -114 39.5t-41 110.5q0 88 52.5 128t166.5 40h90v5q0 56 -18.5 76t-70.5 20q-34 0 -72.5 -7t-79.5 -21l-27 113q46 16 97.5 24.5t100.5 8.5q113 0 163 -46.5t50 -153.5v-325h-127l-11 73q-52 -85 -159 -85zM247 99q28 0 54.5 10.5t43.5 27.5v84h-82
q-80 0 -80 -64q0 -58 64 -58zM200 596l125 186h155l-144 -186h-136z" />
    <glyph glyph-name="acircumflex" unicode="&#xe2;" horiz-adv-x="550" 
d="M191 -12q-73 0 -114 39.5t-41 110.5q0 88 52.5 128t166.5 40h90v5q0 56 -18.5 76t-70.5 20q-34 0 -72.5 -7t-79.5 -21l-27 113q46 16 97.5 24.5t100.5 8.5q113 0 163 -46.5t50 -153.5v-325h-127l-11 73q-52 -85 -159 -85zM247 99q28 0 54.5 10.5t43.5 27.5v84h-82
q-80 0 -80 -64q0 -58 64 -58zM76 596l131 186h149l129 -186h-132l-72 105l-72 -105h-133z" />
    <glyph glyph-name="atilde" unicode="&#xe3;" horiz-adv-x="550" 
d="M191 -12q-73 0 -114 39.5t-41 110.5q0 88 52.5 128t166.5 40h90v5q0 56 -18.5 76t-70.5 20q-34 0 -72.5 -7t-79.5 -21l-27 113q46 16 97.5 24.5t100.5 8.5q113 0 163 -46.5t50 -153.5v-325h-127l-11 73q-52 -85 -159 -85zM247 99q28 0 54.5 10.5t43.5 27.5v84h-82
q-80 0 -80 -64q0 -58 64 -58zM88 596q0 98 25.5 139.5t87.5 41.5q34 0 57 -12t48 -41l10 -11q15 -18 22.5 -24t15.5 -6q13 0 17.5 18.5t4.5 70.5h97q0 -97 -25.5 -139t-86.5 -42q-35 0 -58 12t-49 41l-10 12q-15 17 -22 23t-15 6q-13 0 -17.5 -18.5t-4.5 -70.5h-97z" />
    <glyph glyph-name="adieresis" unicode="&#xe4;" horiz-adv-x="550" 
d="M191 -12q-73 0 -114 39.5t-41 110.5q0 88 52.5 128t166.5 40h90v5q0 56 -18.5 76t-70.5 20q-34 0 -72.5 -7t-79.5 -21l-27 113q46 16 97.5 24.5t100.5 8.5q113 0 163 -46.5t50 -153.5v-325h-127l-11 73q-52 -85 -159 -85zM247 99q28 0 54.5 10.5t43.5 27.5v84h-82
q-80 0 -80 -64q0 -58 64 -58zM108 607v133h134v-133h-134zM319 607v133h135v-133h-135z" />
    <glyph glyph-name="aring" unicode="&#xe5;" horiz-adv-x="550" 
d="M191 -12q-73 0 -114 39.5t-41 110.5q0 88 52.5 128t166.5 40h90v5q0 56 -18.5 76t-70.5 20q-34 0 -72.5 -7t-79.5 -21l-27 113q46 16 97.5 24.5t100.5 8.5q113 0 163 -46.5t50 -153.5v-325h-127l-11 73q-52 -85 -159 -85zM247 99q28 0 54.5 10.5t43.5 27.5v84h-82
q-80 0 -80 -64q0 -58 64 -58zM281 593q-56 0 -91.5 33.5t-35.5 91.5t35.5 91.5t91.5 33.5t91.5 -34t35.5 -91q0 -58 -35.5 -91.5t-91.5 -33.5zM281 663q24 0 38 14.5t14 40.5t-14.5 40.5t-37.5 14.5q-24 0 -38 -14.5t-14 -40.5t14 -40.5t38 -14.5z" />
    <glyph glyph-name="ae" unicode="&#xe6;" horiz-adv-x="848" 
d="M202 -12q-79 0 -122.5 39.5t-43.5 110.5q0 87 52.5 127t166.5 40h92q-1 61 -20 81.5t-71 20.5q-69 0 -152 -28l-27 113q46 17 97.5 25.5t100.5 8.5q110 0 154 -55q53 56 152 56q115 0 170.5 -67.5t55.5 -204.5v-43h-318q5 -58 34 -82.5t88 -24.5q73 0 142 31l33 -107
q-77 -43 -187 -43q-146 0 -207 89q-70 -87 -190 -87zM580 420q-46 0 -67 -27t-25 -89h176q-1 62 -21 89t-63 27zM248 99q62 0 113 46q-9 34 -13 75h-85q-80 0 -80 -63q0 -58 65 -58z" />
    <glyph glyph-name="ccedilla" unicode="&#xe7;" horiz-adv-x="469" 
d="M293 -14q-250 0 -250 265q0 133 66.5 204.5t188.5 71.5q81 0 142 -29l-29 -110q-27 10 -48.5 14.5t-43.5 4.5q-63 0 -92 -37.5t-29 -119.5q0 -77 28 -110.5t92 -33.5q45 0 96 18l27 -109q-58 -29 -148 -29zM257 -268q-53 0 -95 12v84q23 -4 41 -6t35 -2q33 0 47 7.5
t14 23.5q0 17 -19.5 25.5t-69.5 9.5l20 125l83 -1l-10 -58q114 -16 114 -107q0 -113 -160 -113z" />
    <glyph glyph-name="egrave" unicode="&#xe8;" horiz-adv-x="551" 
d="M301 -14q-258 0 -258 267q0 132 62.5 203t178.5 71q226 0 226 -272v-45h-319q6 -57 35 -81t89 -24q71 0 140 31l34 -107q-78 -43 -188 -43zM282 420q-45 0 -67 -27t-25 -91h177q-1 64 -20.5 91t-64.5 27zM229 596l-145 186h155l125 -186h-135z" />
    <glyph glyph-name="eacute" unicode="&#xe9;" horiz-adv-x="551" 
d="M301 -14q-258 0 -258 267q0 132 62.5 203t178.5 71q226 0 226 -272v-45h-319q6 -57 35 -81t89 -24q71 0 140 31l34 -107q-78 -43 -188 -43zM282 420q-45 0 -67 -27t-25 -91h177q-1 64 -20.5 91t-64.5 27zM203 596l125 186h155l-144 -186h-136z" />
    <glyph glyph-name="ecircumflex" unicode="&#xea;" horiz-adv-x="551" 
d="M301 -14q-258 0 -258 267q0 132 62.5 203t178.5 71q226 0 226 -272v-45h-319q6 -57 35 -81t89 -24q71 0 140 31l34 -107q-78 -43 -188 -43zM282 420q-45 0 -67 -27t-25 -91h177q-1 64 -20.5 91t-64.5 27zM79 596l131 186h149l129 -186h-132l-72 105l-72 -105h-133z" />
    <glyph glyph-name="edieresis" unicode="&#xeb;" horiz-adv-x="551" 
d="M301 -14q-258 0 -258 267q0 132 62.5 203t178.5 71q226 0 226 -272v-45h-319q6 -57 35 -81t89 -24q71 0 140 31l34 -107q-78 -43 -188 -43zM282 420q-45 0 -67 -27t-25 -91h177q-1 64 -20.5 91t-64.5 27zM111 607v133h134v-133h-134zM322 607v133h135v-133h-135z" />
    <glyph glyph-name="igrave" unicode="&#xec;" horiz-adv-x="310" 
d="M94 0v404h-72v109h222v-513h-150zM96 596l-145 186h155l125 -186h-135z" />
    <glyph glyph-name="iacute" unicode="&#xed;" horiz-adv-x="310" 
d="M94 0v404h-72v109h222v-513h-150zM70 596l125 186h155l-144 -186h-136z" />
    <glyph glyph-name="icircumflex" unicode="&#xee;" horiz-adv-x="310" 
d="M94 0v404h-72v109h222v-513h-150zM-54 596l131 186h149l129 -186h-132l-72 105l-72 -105h-133z" />
    <glyph glyph-name="idieresis" unicode="&#xef;" horiz-adv-x="310" 
d="M94 0v404h-72v109h222v-513h-150zM-22 607v133h134v-133h-134zM189 607v133h135v-133h-135z" />
    <glyph glyph-name="eth" unicode="&#xf0;" horiz-adv-x="576" 
d="M281 -14q-114 0 -176 63t-62 179q0 103 51 161t141 58q84 0 133 -59q-9 46 -30.5 82.5t-59.5 67.5l-111 -64l-38 68l78 45q-37 20 -86 41l47 98q89 -31 156 -72l105 60l39 -67l-76 -44q140 -123 140 -335q0 -137 -64.5 -209.5t-186.5 -72.5zM193 223q0 -63 22.5 -92.5
t69.5 -29.5q49 0 71.5 38t22.5 118q0 27 -2 49q-44 40 -97 40q-87 0 -87 -123z" />
    <glyph glyph-name="ntilde" unicode="&#xf1;" horiz-adv-x="588" 
d="M67 0v513h127l11 -83q51 95 162 95q77 0 117.5 -45t40.5 -133v-347h-151v336q0 68 -66 68q-49 0 -90 -36v-368h-151zM103 596q0 98 25.5 139.5t87.5 41.5q34 0 57 -12t48 -41l10 -11q15 -18 22.5 -24t15.5 -6q13 0 17.5 18.5t4.5 70.5h97q0 -97 -25.5 -139t-86.5 -42
q-35 0 -58 12t-49 41l-10 12q-15 17 -22 23t-15 6q-13 0 -17.5 -18.5t-4.5 -70.5h-97z" />
    <glyph glyph-name="ograve" unicode="&#xf2;" horiz-adv-x="576" 
d="M288 -14q-118 0 -181.5 70t-63.5 201t63 200.5t182 69.5t181.5 -69.5t62.5 -201.5q0 -130 -63 -200t-181 -70zM288 101q48 0 69 36.5t21 119.5t-21 119t-69 36q-49 0 -70 -36.5t-21 -119.5q0 -82 21 -118.5t70 -36.5zM233 596l-145 186h155l125 -186h-135z" />
    <glyph glyph-name="oacute" unicode="&#xf3;" horiz-adv-x="576" 
d="M288 -14q-118 0 -181.5 70t-63.5 201t63 200.5t182 69.5t181.5 -69.5t62.5 -201.5q0 -130 -63 -200t-181 -70zM288 101q48 0 69 36.5t21 119.5t-21 119t-69 36q-49 0 -70 -36.5t-21 -119.5q0 -82 21 -118.5t70 -36.5zM207 596l125 186h155l-144 -186h-136z" />
    <glyph glyph-name="ocircumflex" unicode="&#xf4;" horiz-adv-x="576" 
d="M288 -14q-118 0 -181.5 70t-63.5 201t63 200.5t182 69.5t181.5 -69.5t62.5 -201.5q0 -130 -63 -200t-181 -70zM288 101q48 0 69 36.5t21 119.5t-21 119t-69 36q-49 0 -70 -36.5t-21 -119.5q0 -82 21 -118.5t70 -36.5zM83 596l131 186h149l129 -186h-132l-72 105l-72 -105
h-133z" />
    <glyph glyph-name="otilde" unicode="&#xf5;" horiz-adv-x="576" 
d="M288 -14q-118 0 -181.5 70t-63.5 201t63 200.5t182 69.5t181.5 -69.5t62.5 -201.5q0 -130 -63 -200t-181 -70zM288 101q48 0 69 36.5t21 119.5t-21 119t-69 36q-49 0 -70 -36.5t-21 -119.5q0 -82 21 -118.5t70 -36.5zM95 596q0 98 25.5 139.5t87.5 41.5q34 0 57 -12
t48 -41l10 -11q15 -18 22.5 -24t15.5 -6q13 0 17.5 18.5t4.5 70.5h97q0 -97 -25.5 -139t-86.5 -42q-35 0 -58 12t-49 41l-10 12q-15 17 -22 23t-15 6q-13 0 -17.5 -18.5t-4.5 -70.5h-97z" />
    <glyph glyph-name="odieresis" unicode="&#xf6;" horiz-adv-x="576" 
d="M288 -14q-118 0 -181.5 70t-63.5 201t63 200.5t182 69.5t181.5 -69.5t62.5 -201.5q0 -130 -63 -200t-181 -70zM288 101q48 0 69 36.5t21 119.5t-21 119t-69 36q-49 0 -70 -36.5t-21 -119.5q0 -82 21 -118.5t70 -36.5zM115 607v133h134v-133h-134zM326 607v133h135v-133
h-135z" />
    <glyph glyph-name="divide" unicode="&#xf7;" 
d="M222 467v118h136v-118h-136zM70 273v121h440v-121h-440zM222 82v118h136v-118h-136z" />
    <glyph glyph-name="oslash" unicode="&#xf8;" horiz-adv-x="576" 
d="M125 -42l-62 42l41 58q-61 69 -61 199q0 131 63 200.5t182 69.5q73 0 125 -26l38 54l62 -42l-41 -58q60 -70 60 -199q0 -130 -63 -200t-181 -70q-73 0 -125 26zM190 256q0 -51 6 -83l152 226q-21 17 -60 17q-52 0 -75 -37t-23 -123zM288 96q53 0 75.5 38t22.5 123
q0 53 -6 84l-152 -228q23 -17 60 -17z" />
    <glyph glyph-name="ugrave" unicode="&#xf9;" horiz-adv-x="584" 
d="M219 -12q-155 0 -155 186v339h151v-328q0 -41 13.5 -58.5t47.5 -17.5q51 0 90 36v368h151v-513h-127l-10 77q-57 -89 -161 -89zM236 596l-145 186h155l125 -186h-135z" />
    <glyph glyph-name="uacute" unicode="&#xfa;" horiz-adv-x="584" 
d="M219 -12q-155 0 -155 186v339h151v-328q0 -41 13.5 -58.5t47.5 -17.5q51 0 90 36v368h151v-513h-127l-10 77q-57 -89 -161 -89zM210 596l125 186h155l-144 -186h-136z" />
    <glyph glyph-name="ucircumflex" unicode="&#xfb;" horiz-adv-x="584" 
d="M219 -12q-155 0 -155 186v339h151v-328q0 -41 13.5 -58.5t47.5 -17.5q51 0 90 36v368h151v-513h-127l-10 77q-57 -89 -161 -89zM86 596l131 186h149l129 -186h-132l-72 105l-72 -105h-133z" />
    <glyph glyph-name="udieresis" unicode="&#xfc;" horiz-adv-x="584" 
d="M219 -12q-155 0 -155 186v339h151v-328q0 -41 13.5 -58.5t47.5 -17.5q51 0 90 36v368h151v-513h-127l-10 77q-57 -89 -161 -89zM118 607v133h134v-133h-134zM329 607v133h135v-133h-135z" />
    <glyph glyph-name="yacute" unicode="&#xfd;" horiz-adv-x="518" 
d="M173 2l-166 511h159l97 -362l100 362h152l-182 -554q-28 -85 -80.5 -124.5t-138.5 -39.5q-24 0 -47 3t-44 10v108q35 -7 66 -7q48 0 77 21.5t47 71.5h-40zM180 596l125 186h155l-144 -186h-136z" />
    <glyph glyph-name="thorn" unicode="&#xfe;" horiz-adv-x="593" 
d="M67 -192v904h151v-256q54 69 151 69q88 0 134.5 -69t46.5 -200t-46.5 -200t-134.5 -69q-95 0 -151 68v-247h-151zM311 109q45 0 65 34t20 113t-20 113.5t-65 34.5q-52 0 -93 -35v-226q42 -34 93 -34z" />
    <glyph glyph-name="ydieresis" unicode="&#xff;" horiz-adv-x="518" 
d="M173 2l-166 511h159l97 -362l100 362h152l-182 -554q-28 -85 -80.5 -124.5t-138.5 -39.5q-24 0 -47 3t-44 10v108q35 -7 66 -7q48 0 77 21.5t47 71.5h-40zM88 607v133h134v-133h-134zM299 607v133h135v-133h-135z" />
    <glyph glyph-name="Abreve" unicode="&#x102;" horiz-adv-x="646" 
d="M17 0l204 674h205l203 -674h-157l-38 139h-227l-38 -139h-152zM239 254h164l-81 302zM323 737q-93 0 -138 47.5t-45 131.5h119q0 -86 64 -86q33 0 49 22.5t16 63.5h118q0 -84 -45 -131.5t-138 -47.5z" />
    <glyph glyph-name="abreve" unicode="&#x103;" horiz-adv-x="550" 
d="M191 -12q-73 0 -114 39.5t-41 110.5q0 88 52.5 128t166.5 40h90v5q0 56 -18.5 76t-70.5 20q-34 0 -72.5 -7t-79.5 -21l-27 113q46 16 97.5 24.5t100.5 8.5q113 0 163 -46.5t50 -153.5v-325h-127l-11 73q-52 -85 -159 -85zM247 99q28 0 54.5 10.5t43.5 27.5v84h-82
q-80 0 -80 -64q0 -58 64 -58zM280 591q-182 0 -182 181h119q0 -47 15 -67.5t48 -20.5t48 21t15 67h119q0 -181 -182 -181z" />
    <glyph glyph-name="Aogonek" unicode="&#x104;" horiz-adv-x="646" 
d="M17 0l204 674h205l203 -674h-157l-38 139h-227l-38 -139h-152zM239 254h164l-81 302zM558 -230q-68 0 -108 30t-40 85q0 46 23.5 78.5t60.5 51.5l135 -15q-43 -16 -68.5 -37.5t-25.5 -48.5q0 -43 61 -43q19 0 44 6v-95q-19 -6 -38 -9t-44 -3z" />
    <glyph glyph-name="aogonek" unicode="&#x105;" horiz-adv-x="550" 
d="M191 -12q-73 0 -114 39.5t-41 110.5q0 88 52.5 128t166.5 40h90v5q0 56 -18.5 76t-70.5 20q-34 0 -72.5 -7t-79.5 -21l-27 113q46 16 97.5 24.5t100.5 8.5q113 0 163 -46.5t50 -153.5v-325h-127l-11 73q-52 -85 -159 -85zM247 99q28 0 54.5 10.5t43.5 27.5v84h-82
q-80 0 -80 -64q0 -58 64 -58zM416 -230q-66 0 -104 29.5t-38 81.5q0 49 32.5 83.5t79.5 49.5l102 -14q-42 -16 -67.5 -37t-25.5 -49q0 -23 13.5 -33t46.5 -10q21 0 42 6v-95q-17 -6 -36 -9t-45 -3z" />
    <glyph glyph-name="Cacute" unicode="&#x106;" horiz-adv-x="562" 
d="M353 -14q-154 0 -229 84.5t-75 259.5q0 177 78 267.5t230 90.5q47 0 91.5 -8t78.5 -24l-31 -116q-64 21 -120 21q-87 0 -126 -55t-39 -178q0 -117 37.5 -166t127.5 -49q33 0 65 5.5t61 16.5l29 -116q-31 -16 -78 -24.5t-100 -8.5zM244 744l140 172h175l-170 -172h-145z
" />
    <glyph glyph-name="cacute" unicode="&#x107;" horiz-adv-x="469" 
d="M293 -14q-250 0 -250 265q0 133 66.5 204.5t188.5 71.5q81 0 142 -29l-29 -110q-27 10 -48.5 14.5t-43.5 4.5q-63 0 -92 -37.5t-29 -119.5q0 -77 28 -110.5t92 -33.5q45 0 96 18l27 -109q-58 -29 -148 -29zM187 596l125 186h155l-144 -186h-136z" />
    <glyph glyph-name="Eogonek" unicode="&#x118;" horiz-adv-x="567" 
d="M76 0v674h434v-123h-283v-148h237v-123h-237v-157h287v-123q-94 -33 -94 -88q0 -41 61 -41q11 0 20.5 1.5t22.5 4.5v-95q-19 -7 -38.5 -9.5t-43.5 -2.5q-69 0 -108.5 30.5t-39.5 84.5q0 39 22 68.5t62 46.5h-302z" />
    <glyph glyph-name="eogonek" unicode="&#x119;" horiz-adv-x="551" 
d="M411 -230q-67 0 -104 29t-37 81q0 63 58 107q-13 -1 -27 -1q-258 0 -258 267q0 132 62.5 203t178.5 71q226 0 226 -272v-45h-319q6 -57 35 -81t89 -24q67 0 140 30l34 -104q-47 -21 -73 -51t-26 -62q0 -47 59 -47q20 0 42 6v-95q-20 -7 -38.5 -9.5t-41.5 -2.5zM283 420
q-46 0 -68 -27t-25 -91h177q-1 63 -20.5 90.5t-63.5 27.5z" />
    <glyph glyph-name="dotlessi" unicode="&#x131;" horiz-adv-x="310" 
d="M94 0v404h-72v109h222v-513h-150z" />
    <glyph glyph-name="IJ" unicode="&#x132;" horiz-adv-x="783" 
d="M76 0v674h156v-674h-156zM490 -14q-84 0 -147 30l34 118q26 -10 48 -15t41 -5q50 0 71.5 25.5t21.5 86.5v322h-171v126h327v-464q0 -115 -54.5 -169.5t-170.5 -54.5z" />
    <glyph glyph-name="ij" unicode="&#x133;" horiz-adv-x="620" 
d="M88 601v137h153v-137h-153zM94 0v404h-72v109h222v-513h-150zM398 601v137h153v-137h-153zM392 -205q-24 0 -41 3t-34 7v109q20 -4 39 -4q26 0 37 12.5t11 43.5v438h-72v109h222v-520q0 -66 -14 -110t-49.5 -66t-98.5 -22z" />
    <glyph glyph-name="Lslash" unicode="&#x141;" horiz-adv-x="549" 
d="M99 0v219l-71 -39v111l71 39v344h152v-261l153 84v-112l-153 -83v-176h259v-126h-411z" />
    <glyph glyph-name="lslash" unicode="&#x142;" horiz-adv-x="366" 
d="M18 228v111l70 37v336h147v-258l98 52v-111l-98 -52v-190q0 -26 10.5 -37t36.5 -11q18 0 38 4v-109q-39 -9 -78 -9q-85 0 -119.5 38.5t-34.5 135.5v100z" />
    <glyph glyph-name="Nacute" unicode="&#x143;" horiz-adv-x="704" 
d="M76 0v674h166l248 -472v472h138v-674h-167l-247 475v-475h-138zM250 744l140 172h175l-170 -172h-145z" />
    <glyph glyph-name="nacute" unicode="&#x144;" horiz-adv-x="588" 
d="M67 0v513h127l11 -83q51 95 162 95q77 0 117.5 -45t40.5 -133v-347h-151v336q0 68 -66 68q-49 0 -90 -36v-368h-151zM215 596l125 186h155l-144 -186h-136z" />
    <glyph glyph-name="OE" unicode="&#x152;" horiz-adv-x="960" 
d="M319 -14q-131 0 -201 90t-70 260q0 169 68.5 260.5t192.5 91.5q125 0 171 -77v63h423v-123h-283v-148h237v-123h-237v-157h286v-123h-426v68q-19 -39 -60.5 -60.5t-100.5 -21.5zM343 113q70 0 101 52.5t31 172.5q0 119 -31 171t-101 52t-101.5 -52.5t-31.5 -172.5
q0 -118 31.5 -170.5t101.5 -52.5z" />
    <glyph glyph-name="oe" unicode="&#x153;" horiz-adv-x="888" 
d="M286 -14q-118 0 -180.5 70t-62.5 201q0 132 62 201t180 69q117 0 166 -78q49 78 171 78q225 0 225 -272v-45h-319q6 -57 35.5 -81t88.5 -24q72 0 141 31l33 -107q-77 -43 -188 -43q-134 0 -185 77q-46 -77 -167 -77zM620 420q-46 0 -68 -27t-25 -91h177q-1 64 -20.5 91
t-63.5 27zM288 101q48 0 69 36.5t21 119.5t-21 119t-69 36q-49 0 -70 -36.5t-21 -119.5q0 -82 21 -118.5t70 -36.5z" />
    <glyph glyph-name="Sacute" unicode="&#x15a;" horiz-adv-x="565" 
d="M260 -14q-121 0 -216 43l33 121q38 -17 84 -27t89 -10q62 0 90.5 19.5t28.5 61.5q0 31 -16 48.5t-54 25.5l-76 16q-85 19 -125 66t-40 129q0 100 64.5 154.5t179.5 54.5q110 0 203 -38l-31 -119q-34 15 -75 22.5t-84 7.5q-56 0 -82.5 -17.5t-26.5 -57.5q0 -30 15.5 -46
t55.5 -25l64 -14q95 -22 138 -70t43 -133q0 -212 -262 -212zM193 744l140 172h175l-170 -172h-145z" />
    <glyph glyph-name="sacute" unicode="&#x15b;" horiz-adv-x="466" 
d="M214 -14q-50 0 -98 10t-83 29l30 113q31 -16 73 -26.5t81 -10.5q41 0 59.5 11t18.5 36q0 20 -11.5 29.5t-41.5 16.5l-60 13q-71 15 -104.5 53t-33.5 103q0 76 54 120t148 44q54 0 91.5 -7t80.5 -26l-25 -108q-33 14 -64.5 19.5t-72.5 5.5q-79 0 -79 -44q0 -19 12 -29
t46 -18l43 -10q60 -13 93.5 -32.5t47 -50.5t13.5 -80q0 -161 -218 -161zM163 596l125 186h155l-144 -186h-136z" />
    <glyph glyph-name="Scaron" unicode="&#x160;" horiz-adv-x="565" 
d="M260 -14q-121 0 -216 43l33 121q38 -17 84 -27t89 -10q62 0 90.5 19.5t28.5 61.5q0 31 -16 48.5t-54 25.5l-76 16q-85 19 -125 66t-40 129q0 100 64.5 154.5t179.5 54.5q110 0 203 -38l-31 -119q-34 15 -75 22.5t-84 7.5q-56 0 -82.5 -17.5t-26.5 -57.5q0 -30 15.5 -46
t55.5 -25l64 -14q95 -22 138 -70t43 -133q0 -212 -262 -212zM214 744l-127 172h141l66 -98l65 98h141l-127 -172h-159z" />
    <glyph glyph-name="scaron" unicode="&#x161;" horiz-adv-x="466" 
d="M214 -14q-50 0 -98 10t-83 29l30 113q31 -16 73 -26.5t81 -10.5q41 0 59.5 11t18.5 36q0 20 -11.5 29.5t-41.5 16.5l-60 13q-71 15 -104.5 53t-33.5 103q0 76 54 120t148 44q54 0 91.5 -7t80.5 -26l-25 -108q-33 14 -64.5 19.5t-72.5 5.5q-79 0 -79 -44q0 -19 12 -29
t46 -18l43 -10q60 -13 93.5 -32.5t47 -50.5t13.5 -80q0 -161 -218 -161zM169 596l-130 186h134l72 -104l72 104h131l-129 -186h-150z" />
    <glyph glyph-name="Wcircumflex" unicode="&#x174;" horiz-adv-x="880" 
d="M153 0l-137 674h146l92 -524l104 512h168l106 -518l94 530h138l-137 -674h-192l-95 484l-95 -484h-192zM235 744l127 172h159l127 -172h-141l-65 97l-66 -97h-141z" />
    <glyph glyph-name="wcircumflex" unicode="&#x175;" horiz-adv-x="788" 
d="M135 0l-124 513h149l68 -398l87 391h162l88 -397l68 404h144l-123 -513h-175l-85 375l-85 -375h-174zM191 596l131 186h149l129 -186h-132l-72 105l-72 -105h-133z" />
    <glyph glyph-name="Ycircumflex" unicode="&#x176;" horiz-adv-x="604" 
d="M225 0v225l-220 449h161l140 -294l143 294h150l-218 -433v-241h-156zM101 744l127 172h159l127 -172h-141l-65 97l-66 -97h-141z" />
    <glyph glyph-name="ycircumflex" unicode="&#x177;" horiz-adv-x="518" 
d="M173 2l-166 511h159l97 -362l100 362h152l-182 -554q-28 -85 -80.5 -124.5t-138.5 -39.5q-24 0 -47 3t-44 10v108q35 -7 66 -7q48 0 77 21.5t47 71.5h-40zM56 596l131 186h149l129 -186h-132l-72 105l-72 -105h-133z" />
    <glyph glyph-name="Ydieresis" unicode="&#x178;" horiz-adv-x="604" 
d="M225 0v225l-220 449h161l140 -294l143 294h150l-218 -433v-241h-156zM135 746v133h134v-133h-134zM346 746v133h135v-133h-135z" />
    <glyph glyph-name="Zacute" unicode="&#x179;" horiz-adv-x="569" 
d="M46 0v106l294 445h-289v123h470v-106l-293 -445h299v-123h-481zM189 744l140 172h175l-170 -172h-145z" />
    <glyph glyph-name="zacute" unicode="&#x17a;" horiz-adv-x="488" 
d="M47 0v98l223 303h-219v112h385v-98l-223 -303h228v-112h-394zM161 596l125 186h155l-144 -186h-136z" />
    <glyph glyph-name="Zdotaccent" unicode="&#x17b;" horiz-adv-x="569" 
d="M46 0v106l294 445h-289v123h470v-106l-293 -445h299v-123h-481zM213 746v137h154v-137h-154z" />
    <glyph glyph-name="zdotaccent" unicode="&#x17c;" horiz-adv-x="488" 
d="M47 0v98l223 303h-219v112h385v-98l-223 -303h228v-112h-394zM165 601v137h154v-137h-154z" />
    <glyph glyph-name="Zcaron" unicode="&#x17d;" horiz-adv-x="569" 
d="M46 0v106l294 445h-289v123h470v-106l-293 -445h299v-123h-481zM210 744l-127 172h141l66 -98l65 98h141l-127 -172h-159z" />
    <glyph glyph-name="zcaron" unicode="&#x17e;" horiz-adv-x="488" 
d="M47 0v98l223 303h-219v112h385v-98l-223 -303h228v-112h-394zM167 596l-130 186h134l72 -104l72 104h131l-129 -186h-150z" />
    <glyph glyph-name="uni0218" unicode="&#x218;" horiz-adv-x="565" 
d="M260 -14q-121 0 -216 43l33 121q38 -17 84 -27t89 -10q62 0 90.5 19.5t28.5 61.5q0 31 -16 48.5t-54 25.5l-76 16q-85 19 -125 66t-40 129q0 100 64.5 154.5t179.5 54.5q110 0 203 -38l-31 -119q-34 15 -75 22.5t-84 7.5q-56 0 -82.5 -17.5t-26.5 -57.5q0 -30 15.5 -46
t55.5 -25l64 -14q95 -22 138 -70t43 -133q0 -212 -262 -212zM187 -274l29 189h132l-52 -189h-109z" />
    <glyph glyph-name="uni0219" unicode="&#x219;" horiz-adv-x="466" 
d="M214 -14q-50 0 -98 10t-83 29l30 113q31 -16 73 -26.5t81 -10.5q41 0 59.5 11t18.5 36q0 20 -11.5 29.5t-41.5 16.5l-60 13q-71 15 -104.5 53t-33.5 103q0 76 54 120t148 44q54 0 91.5 -7t80.5 -26l-25 -108q-33 14 -64.5 19.5t-72.5 5.5q-79 0 -79 -44q0 -19 12 -29
t46 -18l43 -10q60 -13 93.5 -32.5t47 -50.5t13.5 -80q0 -161 -218 -161zM140 -274l29 189h132l-52 -189h-109z" />
    <glyph glyph-name="uni021A" unicode="&#x21a;" horiz-adv-x="552" 
d="M198 0v549h-176v125h508v-125h-176v-549h-156zM180 -274l29 189h132l-52 -189h-109z" />
    <glyph glyph-name="uni021B" unicode="&#x21b;" horiz-adv-x="422" 
d="M293 -9q-72 0 -115 19t-61.5 61.5t-18.5 114.5v218h-86v104l54 3q23 2 33 9.5t11 26.5l9 116h126v-150h149v-109h-149v-230q0 -40 16 -54.5t62 -14.5q14 0 29.5 1.5t36.5 4.5v-109q-21 -6 -44 -8.5t-52 -2.5zM148 -274l29 189h132l-52 -189h-109z" />
    <glyph glyph-name="uni0237" unicode="&#x237;" horiz-adv-x="310" 
d="M82 -205q-24 0 -41 3t-34 7v109q20 -4 39 -4q26 0 37 12.5t11 43.5v438h-72v109h222v-520q0 -66 -14 -110t-49.5 -66t-98.5 -22z" />
    <glyph glyph-name="circumflex" unicode="&#x2c6;" horiz-adv-x="469" 
d="M30 596l131 186h149l129 -186h-132l-72 105l-72 -105h-133z" />
    <glyph glyph-name="caron" unicode="&#x2c7;" horiz-adv-x="469" 
d="M160 596l-130 186h134l72 -104l72 104h131l-129 -186h-150z" />
    <glyph glyph-name="breve" unicode="&#x2d8;" horiz-adv-x="424" 
d="M212 591q-182 0 -182 181h119q0 -47 15 -67.5t48 -20.5t48 21t15 67h119q0 -181 -182 -181z" />
    <glyph glyph-name="dotaccent" unicode="&#x2d9;" horiz-adv-x="213" 
d="M30 601v137h154v-137h-154z" />
    <glyph glyph-name="ring" unicode="&#x2da;" horiz-adv-x="315" 
d="M157 593q-56 0 -91.5 33.5t-35.5 91.5t35.5 91.5t91.5 33.5t91.5 -34t35.5 -91q0 -58 -35.5 -91.5t-91.5 -33.5zM157 663q24 0 38 14.5t14 40.5t-14.5 40.5t-37.5 14.5q-24 0 -38 -14.5t-14 -40.5t14 -40.5t38 -14.5z" />
    <glyph glyph-name="ogonek" unicode="&#x2db;" horiz-adv-x="282" 
d="M171 -230q-66 0 -104 29.5t-38 81.5q0 49 32.5 83.5t79.5 49.5l102 -14q-42 -16 -67.5 -37t-25.5 -49q0 -23 13.5 -33t46.5 -10q21 0 42 6v-95q-17 -6 -36 -9t-45 -3z" />
    <glyph glyph-name="tilde" unicode="&#x2dc;" horiz-adv-x="448" 
d="M31 596q0 98 25.5 139.5t87.5 41.5q34 0 57 -12t48 -41l10 -11q15 -18 22.5 -24t15.5 -6q13 0 17.5 18.5t4.5 70.5h97q0 -97 -25.5 -139t-86.5 -42q-35 0 -58 12t-49 41l-10 12q-15 17 -22 23t-15 6q-13 0 -17.5 -18.5t-4.5 -70.5h-97z" />
    <glyph glyph-name="gravecomb" unicode="&#x300;" horiz-adv-x="0" 
d="M-55 596l-145 186h155l125 -186h-135z" />
    <glyph glyph-name="acutecomb" unicode="&#x301;" horiz-adv-x="0" 
d="M-81 596l125 186h155l-144 -186h-136z" />
    <glyph glyph-name="uni0302" unicode="&#x302;" horiz-adv-x="0" 
d="M-205 596l131 186h149l129 -186h-132l-72 105l-72 -105h-133z" />
    <glyph glyph-name="tildecomb" unicode="&#x303;" horiz-adv-x="0" 
d="M-193 596q0 98 25.5 139.5t87.5 41.5q34 0 57 -12t48 -41l10 -11q15 -18 22.5 -24t15.5 -6q13 0 17.5 18.5t4.5 70.5h97q0 -97 -25.5 -139t-86.5 -42q-35 0 -58 12t-49 41l-10 12q-15 17 -22 23t-15 6q-13 0 -17.5 -18.5t-4.5 -70.5h-97z" />
    <glyph glyph-name="uni0306" unicode="&#x306;" horiz-adv-x="0" 
d="M-1 591q-182 0 -182 181h119q0 -47 15 -67.5t48 -20.5t48 21t15 67h119q0 -181 -182 -181z" />
    <glyph glyph-name="uni0307" unicode="&#x307;" horiz-adv-x="0" 
d="M-77 601v137h154v-137h-154z" />
    <glyph glyph-name="uni0308" unicode="&#x308;" horiz-adv-x="0" 
d="M-173 607v133h134v-133h-134zM38 607v133h135v-133h-135z" />
    <glyph glyph-name="uni030A" unicode="&#x30a;" horiz-adv-x="0" 
d="M0 593q-56 0 -91.5 33.5t-35.5 91.5t35.5 91.5t91.5 33.5t91.5 -34t35.5 -91q0 -58 -35.5 -91.5t-91.5 -33.5zM0 663q24 0 38 14.5t14 40.5t-14.5 40.5t-37.5 14.5q-24 0 -38 -14.5t-14 -40.5t14 -40.5t38 -14.5z" />
    <glyph glyph-name="uni030C" unicode="&#x30c;" horiz-adv-x="0" 
d="M-75 596l-130 186h134l72 -104l72 104h131l-129 -186h-150z" />
    <glyph glyph-name="uni0326" unicode="&#x326;" horiz-adv-x="0" 
d="M-96 -274l29 189h132l-52 -189h-109z" />
    <glyph glyph-name="uni0327" unicode="&#x327;" horiz-adv-x="0" 
d="M-25 -268q-53 0 -95 12v84q23 -4 41 -6t35 -2q33 0 47 7.5t14 23.5q0 17 -19.5 25.5t-69.5 9.5l20 125l83 -1l-10 -58q114 -16 114 -107q0 -113 -160 -113z" />
    <glyph glyph-name="uni0328" unicode="&#x328;" horiz-adv-x="0" 
d="M-71 -230q-66 0 -104 29.5t-38 81.5q0 49 32.5 83.5t79.5 49.5l102 -14q-42 -16 -67.5 -37t-25.5 -49q0 -23 13.5 -33t46.5 -10q21 0 42 6v-95q-17 -6 -36 -9t-45 -3z" />
    <glyph glyph-name="Wgrave" unicode="&#x1e80;" horiz-adv-x="880" 
d="M153 0l-137 674h146l92 -524l104 512h168l106 -518l94 530h138l-137 -674h-192l-95 484l-95 -484h-192zM390 744l-169 172h174l140 -172h-145z" />
    <glyph glyph-name="wgrave" unicode="&#x1e81;" horiz-adv-x="788" 
d="M135 0l-124 513h149l68 -398l87 391h162l88 -397l68 404h144l-123 -513h-175l-85 375l-85 -375h-174zM341 596l-145 186h155l125 -186h-135z" />
    <glyph glyph-name="Wacute" unicode="&#x1e82;" horiz-adv-x="880" 
d="M153 0l-137 674h146l92 -524l104 512h168l106 -518l94 530h138l-137 -674h-192l-95 484l-95 -484h-192zM341 744l140 172h175l-170 -172h-145z" />
    <glyph glyph-name="wacute" unicode="&#x1e83;" horiz-adv-x="788" 
d="M135 0l-124 513h149l68 -398l87 391h162l88 -397l68 404h144l-123 -513h-175l-85 375l-85 -375h-174zM315 596l125 186h155l-144 -186h-136z" />
    <glyph glyph-name="Wdieresis" unicode="&#x1e84;" horiz-adv-x="880" 
d="M153 0l-137 674h146l92 -524l104 512h168l106 -518l94 530h138l-137 -674h-192l-95 484l-95 -484h-192zM269 746v133h134v-133h-134zM480 746v133h135v-133h-135z" />
    <glyph glyph-name="wdieresis" unicode="&#x1e85;" horiz-adv-x="788" 
d="M135 0l-124 513h149l68 -398l87 391h162l88 -397l68 404h144l-123 -513h-175l-85 375l-85 -375h-174zM223 607v133h134v-133h-134zM434 607v133h135v-133h-135z" />
    <glyph glyph-name="uni1E9E" unicode="&#x1e9e;" horiz-adv-x="693" 
d="M414 -11q-28 0 -56 3.5t-53 9.5l17 122q19 -5 36.5 -7.5t33.5 -2.5q56 0 82.5 22t26.5 69t-25.5 68t-83.5 21h-48v93l113 167q-41 9 -85 9q-77 0 -114.5 -34.5t-37.5 -108.5v-420h-155v417q0 134 75.5 202.5t222.5 68.5q67 0 133 -11.5t118 -33.5v-92l-118 -165
q77 -11 119.5 -60.5t42.5 -131.5q0 -97 -64 -151t-180 -54z" />
    <glyph glyph-name="Ygrave" unicode="&#x1ef2;" horiz-adv-x="604" 
d="M225 0v225l-220 449h161l140 -294l143 294h150l-218 -433v-241h-156zM256 744l-169 172h174l140 -172h-145z" />
    <glyph glyph-name="ygrave" unicode="&#x1ef3;" horiz-adv-x="518" 
d="M173 2l-166 511h159l97 -362l100 362h152l-182 -554q-28 -85 -80.5 -124.5t-138.5 -39.5q-24 0 -47 3t-44 10v108q35 -7 66 -7q48 0 77 21.5t47 71.5h-40zM206 596l-145 186h155l125 -186h-135z" />
    <glyph glyph-name="uni2000" unicode="&#x2000;" horiz-adv-x="500" 
 />
    <glyph glyph-name="uni2001" unicode="&#x2001;" horiz-adv-x="1000" 
 />
    <glyph glyph-name="uni2002" unicode="&#x2002;" horiz-adv-x="500" 
 />
    <glyph glyph-name="uni2003" unicode="&#x2003;" horiz-adv-x="1000" 
 />
    <glyph glyph-name="uni2004" unicode="&#x2004;" horiz-adv-x="333" 
 />
    <glyph glyph-name="uni2005" unicode="&#x2005;" horiz-adv-x="250" 
 />
    <glyph glyph-name="uni2006" unicode="&#x2006;" horiz-adv-x="167" 
 />
    <glyph glyph-name="uni2007" unicode="&#x2007;" 
 />
    <glyph glyph-name="uni2008" unicode="&#x2008;" horiz-adv-x="280" 
 />
    <glyph glyph-name="uni2009" unicode="&#x2009;" horiz-adv-x="200" 
 />
    <glyph glyph-name="uni200A" unicode="&#x200a;" horiz-adv-x="62" 
 />
    <glyph glyph-name="uni200B" unicode="&#x200b;" horiz-adv-x="0" 
 />
    <glyph glyph-name="uni2010" unicode="&#x2010;" horiz-adv-x="404" 
d="M48 211v136h308v-136h-308z" />
    <glyph glyph-name="uni2011" unicode="&#x2011;" horiz-adv-x="404" 
d="M48 211v136h308v-136h-308z" />
    <glyph glyph-name="endash" unicode="&#x2013;" horiz-adv-x="450" 
d="M0 216v127h450v-127h-450z" />
    <glyph glyph-name="emdash" unicode="&#x2014;" horiz-adv-x="900" 
d="M0 216v127h900v-127h-900z" />
    <glyph glyph-name="quoteleft" unicode="&#x2018;" horiz-adv-x="281" 
d="M39 394l72 280h120l-33 -280h-159z" />
    <glyph glyph-name="quoteright" unicode="&#x2019;" horiz-adv-x="281" 
d="M50 394l32 280h159l-75 -280h-116z" />
    <glyph glyph-name="quotesinglbase" unicode="&#x201a;" horiz-adv-x="281" 
d="M50 -120l32 280h159l-75 -280h-116z" />
    <glyph glyph-name="quotedblleft" unicode="&#x201c;" horiz-adv-x="503" 
d="M39 394l72 280h120l-33 -280h-159zM261 394l72 280h120l-33 -280h-159z" />
    <glyph glyph-name="quotedblright" unicode="&#x201d;" horiz-adv-x="503" 
d="M50 394l32 280h159l-75 -280h-116zM272 394l32 280h159l-75 -280h-116z" />
    <glyph glyph-name="quotedblbase" unicode="&#x201e;" horiz-adv-x="503" 
d="M50 -120l32 280h159l-75 -280h-116zM272 -120l32 280h159l-75 -280h-116z" />
    <glyph glyph-name="dagger" unicode="&#x2020;" horiz-adv-x="479" 
d="M183 120v347h-137v101h137v144h114v-144h136v-101h-136v-347h-114z" />
    <glyph glyph-name="daggerdbl" unicode="&#x2021;" horiz-adv-x="479" 
d="M183 120v137h-137v98h137v122h-137v98h137v137h114v-137h136v-98h-136v-122h136v-98h-136v-137h-114z" />
    <glyph glyph-name="bullet" unicode="&#x2022;" horiz-adv-x="538" 
d="M130 126v288h278v-288h-278z" />
    <glyph glyph-name="ellipsis" unicode="&#x2026;" horiz-adv-x="850" 
d="M62 0v160h161v-160h-161zM345 0v160h161v-160h-161zM628 0v160h161v-160h-161z" />
    <glyph glyph-name="perthousand" unicode="&#x2030;" horiz-adv-x="1294" 
d="M190 0l395 674h134l-394 -674h-135zM870 183q0 -192 -165 -192q-82 0 -124 49.5t-42 144.5q0 192 166 192q82 0 123.5 -49.5t41.5 -144.5zM654 183q0 -58 11.5 -81.5t39.5 -23.5q29 0 40 23.5t11 83.5q0 59 -11 82.5t-40 23.5q-28 0 -39.5 -24t-11.5 -84zM1255 183
q0 -192 -165 -192q-82 0 -124 49.5t-42 144.5q0 192 166 192q82 0 123.5 -49.5t41.5 -144.5zM1039 183q0 -58 11.5 -81.5t39.5 -23.5q29 0 40 23.5t11 83.5q0 59 -11 82.5t-40 23.5q-28 0 -39.5 -24t-11.5 -84zM370 489q0 -192 -165 -192q-82 0 -124 49.5t-42 144.5
q0 192 166 192q82 0 123.5 -49.5t41.5 -144.5zM154 489q0 -58 11.5 -81.5t39.5 -23.5q29 0 40 23.5t11 83.5q0 59 -11 82.5t-40 23.5q-28 0 -39.5 -24t-11.5 -84z" />
    <glyph glyph-name="guilsinglleft" unicode="&#x2039;" horiz-adv-x="449" 
d="M220 47l-173 213l173 213h182l-174 -213l174 -213h-182z" />
    <glyph glyph-name="guilsinglright" unicode="&#x203a;" horiz-adv-x="449" 
d="M229 47h-182l175 213l-175 213h182l173 -213z" />
    <glyph glyph-name="fraction" unicode="&#x2044;" horiz-adv-x="209" 
d="M-160 0l395 674h134l-394 -674h-135z" />
    <glyph glyph-name="uni2070" unicode="&#x2070;" horiz-adv-x="410" 
d="M370 583q0 -192 -165 -192q-82 0 -124 49.5t-42 144.5q0 192 166 192q82 0 123.5 -49.5t41.5 -144.5zM154 583q0 -58 11.5 -81.5t39.5 -23.5q29 0 40 23.5t11 83.5q0 59 -11 82.5t-40 23.5q-28 0 -39.5 -24t-11.5 -84z" />
    <glyph glyph-name="uni2074" unicode="&#x2074;" horiz-adv-x="412" 
d="M226 400v72h-189v73l169 223h118v-221h49v-75h-49v-72h-98zM137 547h94v129z" />
    <glyph glyph-name="uni2075" unicode="&#x2075;" horiz-adv-x="381" 
d="M184 391q-38 0 -74.5 7.5t-63.5 20.5l23 79q55 -20 108 -20q59 0 59 38q0 40 -53 40q-15 0 -32 -3.5t-33 -11.5l-57 32v195h259v-86h-166v-65q26 14 63 14q61 0 93 -32.5t32 -86.5q0 -121 -158 -121z" />
    <glyph glyph-name="uni2076" unicode="&#x2076;" horiz-adv-x="397" 
d="M205 391q-166 0 -166 185q0 201 192 201q61 0 110 -21l-19 -80q-22 8 -41.5 11.5t-39.5 3.5q-48 0 -69 -21.5t-23 -72.5q26 33 85 33q60 0 93.5 -30.5t33.5 -84.5q0 -58 -41 -91t-115 -33zM205 558q-34 0 -56 -21q2 -69 56 -69q51 0 51 45q0 21 -13.5 33t-37.5 12z" />
    <glyph glyph-name="uni2077" unicode="&#x2077;" horiz-adv-x="352" 
d="M28 680v88h291v-78l-119 -290h-117l119 280h-174z" />
    <glyph glyph-name="uni2078" unicode="&#x2078;" horiz-adv-x="406" 
d="M203 391q-79 0 -120.5 28t-41.5 80q0 33 19 56.5t51 31.5q-27 10 -44 33t-17 54q0 47 42 75t111 28q68 0 110.5 -28t42.5 -75q0 -31 -17 -54t-44 -33q32 -8 50.5 -31.5t18.5 -56.5q0 -52 -41 -80t-120 -28zM203 622q50 0 50 41t-50 41q-51 0 -51 -41t51 -41zM203 466
q25 0 39 11t14 31t-14 31t-39 11q-53 0 -53 -42t53 -42z" />
    <glyph glyph-name="uni2079" unicode="&#x2079;" horiz-adv-x="397" 
d="M192 777q166 0 166 -185q0 -201 -192 -201q-29 0 -57.5 5.5t-53.5 15.5l20 81q23 -8 42 -11.5t39 -3.5q48 0 69 21t23 72q-26 -33 -85 -33q-60 0 -93.5 30.5t-33.5 84.5q0 59 41.5 91.5t114.5 32.5zM141 655q0 -44 51 -44q34 0 56 20q-1 69 -56 69q-51 0 -51 -45z" />
    <glyph glyph-name="uni2080" unicode="&#x2080;" horiz-adv-x="410" 
d="M370 83q0 -192 -165 -192q-82 0 -124 49.5t-42 144.5q0 192 166 192q82 0 123.5 -49.5t41.5 -144.5zM154 83q0 -58 11.5 -81.5t39.5 -23.5q29 0 40 23.5t11 83.5q0 59 -11 82.5t-40 23.5q-28 0 -39.5 -24t-11.5 -84z" />
    <glyph glyph-name="uni2081" unicode="&#x2081;" horiz-adv-x="292" 
d="M119 -100v243h-88v84l75 3q14 1 19.5 6t6.5 15l5 24h91v-375h-109z" />
    <glyph glyph-name="uni2082" unicode="&#x2082;" horiz-adv-x="369" 
d="M42 -100v75l116 89q29 23 40.5 39.5t11.5 35.5q0 47 -58 47q-19 0 -39 -5t-41 -16l-33 80q55 32 125 32q73 0 114 -34.5t41 -96.5q0 -41 -20 -72t-68 -64l-37 -25h134v-85h-286z" />
    <glyph glyph-name="uni2083" unicode="&#x2083;" horiz-adv-x="373" 
d="M165 -109q-78 0 -135 26l22 80q29 -10 53.5 -14t49.5 -4q32 0 45.5 7.5t13.5 26.5q0 33 -47 33h-61v80h64q40 0 40 30q0 18 -13.5 26t-44.5 8q-42 0 -88 -17l-27 79q59 25 129 25q71 0 111 -27t40 -75q0 -34 -18.5 -56t-50.5 -29q37 -9 57 -32.5t20 -58.5
q0 -51 -42 -79.5t-118 -28.5z" />
    <glyph glyph-name="uni2084" unicode="&#x2084;" horiz-adv-x="412" 
d="M226 -100v72h-189v73l169 223h118v-221h49v-75h-49v-72h-98zM137 47h94v129z" />
    <glyph glyph-name="uni2085" unicode="&#x2085;" horiz-adv-x="381" 
d="M184 -109q-38 0 -74.5 7.5t-63.5 20.5l23 79q55 -20 108 -20q59 0 59 38q0 40 -53 40q-15 0 -32 -3.5t-33 -11.5l-57 32v195h259v-86h-166v-65q26 14 63 14q61 0 93 -32.5t32 -86.5q0 -121 -158 -121z" />
    <glyph glyph-name="uni2086" unicode="&#x2086;" horiz-adv-x="397" 
d="M205 -109q-166 0 -166 185q0 201 192 201q61 0 110 -21l-19 -80q-22 8 -41.5 11.5t-39.5 3.5q-48 0 -69 -21.5t-23 -72.5q26 33 85 33q60 0 93.5 -30.5t33.5 -84.5q0 -58 -41 -91t-115 -33zM205 58q-34 0 -56 -21q2 -69 56 -69q51 0 51 45q0 21 -13.5 33t-37.5 12z" />
    <glyph glyph-name="uni2087" unicode="&#x2087;" horiz-adv-x="352" 
d="M28 180v88h291v-78l-119 -290h-117l119 280h-174z" />
    <glyph glyph-name="uni2088" unicode="&#x2088;" horiz-adv-x="406" 
d="M203 -109q-79 0 -120.5 28t-41.5 80q0 33 19 56.5t51 31.5q-27 10 -44 33t-17 54q0 47 42 75t111 28q68 0 110.5 -28t42.5 -75q0 -31 -17 -54t-44 -33q32 -8 50.5 -31.5t18.5 -56.5q0 -52 -41 -80t-120 -28zM203 122q50 0 50 41t-50 41q-51 0 -51 -41t51 -41zM203 -34
q25 0 39 11t14 31t-14 31t-39 11q-53 0 -53 -42t53 -42z" />
    <glyph glyph-name="uni2089" unicode="&#x2089;" horiz-adv-x="397" 
d="M192 277q166 0 166 -185q0 -201 -192 -201q-29 0 -57.5 5.5t-53.5 15.5l20 81q23 -8 42 -11.5t39 -3.5q48 0 69 21t23 72q-26 -33 -85 -33q-60 0 -93.5 30.5t-33.5 84.5q0 59 41.5 91.5t114.5 32.5zM141 155q0 -44 51 -44q34 0 56 20q-1 69 -56 69q-51 0 -51 -45z" />
    <glyph glyph-name="Euro" unicode="&#x20ac;" 
d="M32 218v80h63q-1 16 -1 33q0 20 1 38h-63v80h73q23 117 96 178t191 61q46 0 89.5 -8t79.5 -24l-32 -117q-68 22 -117 22q-120 0 -154 -112h217l-22 -80h-209q-1 -19 -1 -40q0 -16 1 -31h195l-22 -80h-162q16 -56 54 -80.5t103 -24.5q64 0 125 22l31 -116
q-32 -16 -80 -24.5t-101 -8.5q-241 0 -284 232h-71z" />
    <glyph glyph-name="uni20BD" unicode="&#x20bd;" 
d="M93 0v95h-72v90h72v71h-72v108h72v310h238q233 0 233 -210q0 -208 -233 -208h-96v-71h170v-90h-170v-95h-142zM311 559h-76v-195h76q56 0 80.5 23.5t24.5 75.5q0 51 -24.5 73.5t-80.5 22.5z" />
    <glyph glyph-name="trademark" unicode="&#x2122;" horiz-adv-x="772" 
d="M346 359v315h103l69 -182l69 182h103v-315h-79v212l-60 -160h-66l-59 157v-209h-80zM131 359v243h-83v72h250v-72h-83v-243h-84z" />
    <glyph glyph-name="arrowleft" unicode="&#x2190;" horiz-adv-x="740" 
d="M285 85l-252 252l252 252l74 -75l-114 -117h462v-120h-462l114 -117z" />
    <glyph glyph-name="arrowup" unicode="&#x2191;" horiz-adv-x="740" 
d="M308 0v468l-115 -120l-75 74l252 252l252 -252l-75 -74l-115 120v-468h-124z" />
    <glyph glyph-name="arrowright" unicode="&#x2192;" horiz-adv-x="740" 
d="M455 85l-74 75l114 117h-462v120h462l-114 117l74 75l252 -252z" />
    <glyph glyph-name="arrowdown" unicode="&#x2193;" horiz-adv-x="740" 
d="M370 0l-252 252l75 74l115 -120v468h124v-468l115 120l75 -74z" />
    <glyph glyph-name="minus" unicode="&#x2212;" 
d="M70 273v120h440v-120h-440z" />
    <glyph glyph-name="uniFEFF" unicode="&#xfeff;" horiz-adv-x="0" 
 />
    <glyph glyph-name="zero.pnum" horiz-adv-x="634" 
d="M582 337q0 -351 -265 -351t-265 351t265 351t265 -351zM208 337q0 -122 25.5 -174.5t83.5 -52.5q59 0 84 52.5t25 174.5t-25 174.5t-84 52.5q-58 0 -83.5 -52.5t-25.5 -174.5z" />
    <glyph glyph-name="one.pnum" horiz-adv-x="428" 
d="M185 0v505h-151v111l124 6q22 1 30.5 8.5t12.5 26.5l5 32h132v-689h-153z" />
    <glyph glyph-name="two.pnum" horiz-adv-x="590" 
d="M55 0v116l210 192q52 47 72.5 81.5t20.5 71.5q0 48 -30.5 73.5t-86.5 25.5q-67 0 -146 -35l-45 113q97 50 208 50q119 0 185.5 -57.5t66.5 -161.5q0 -69 -35.5 -129t-117.5 -127l-106 -88h275v-125h-471z" />
    <glyph glyph-name="three.pnum" horiz-adv-x="568" 
d="M41 639q50 26 102 37.5t110 11.5q117 0 181.5 -49t64.5 -138q0 -60 -31.5 -99.5t-88.5 -53.5q63 -13 99 -56.5t36 -108.5q0 -94 -69 -145.5t-195 -51.5q-118 0 -224 53l41 115q41 -19 85 -30t87 -11q122 0 122 91q0 39 -26.5 58t-82.5 19h-86v122h82q53 0 76.5 18
t23.5 58q0 42 -26.5 62t-83.5 20q-75 0 -155 -34z" />
    <glyph glyph-name="four.pnum" horiz-adv-x="637" 
d="M374 0v132h-326v106l303 436h156v-422h82v-120h-82v-132h-133zM192 252h182v263z" />
    <glyph glyph-name="five.pnum" horiz-adv-x="596" 
d="M280 -14q-131 0 -224 54l41 115q44 -21 86.5 -31.5t85.5 -10.5q65 0 95 22.5t30 70.5q0 47 -29 72t-83 25q-65 0 -120 -37l-84 49v359h426v-127h-295v-175q46 44 130 44q96 0 150.5 -56.5t54.5 -156.5q0 -217 -264 -217z" />
    <glyph glyph-name="six.pnum" horiz-adv-x="618" 
d="M323 -14q-269 0 -269 336q0 182 77 274t228 92q50 0 97.5 -10t86.5 -30l-35 -113q-67 29 -136 29q-87 0 -125.5 -50t-40.5 -169q49 68 153 68q97 0 153 -54.5t56 -149.5q0 -104 -65 -163.5t-180 -59.5zM322 303q-63 0 -116 -47q6 -154 115 -154q47 0 73 26t26 75
q0 100 -98 100z" />
    <glyph glyph-name="seven.pnum" horiz-adv-x="557" 
d="M33 547v127h484v-114l-242 -560h-165l242 547h-319z" />
    <glyph glyph-name="eight.pnum" horiz-adv-x="616" 
d="M308 -14q-124 0 -190.5 49t-66.5 142q0 65 34 108.5t96 59.5q-52 16 -82 56t-30 97q0 88 64.5 139t174.5 51t174.5 -51t64.5 -139q0 -57 -30 -97t-82 -56q62 -16 96 -59.5t34 -108.5q0 -93 -66 -142t-191 -49zM308 399q45 0 69.5 22.5t24.5 65.5q0 87 -94 87t-94 -87
q0 -43 24.5 -65.5t69.5 -22.5zM308 100q106 0 106 92q0 93 -106 93t-106 -93q0 -92 106 -92z" />
    <glyph glyph-name="nine.pnum" horiz-adv-x="618" 
d="M295 688q269 0 269 -336q0 -181 -77 -273.5t-227 -92.5q-102 0 -184 40l35 113q67 -29 136 -29q86 0 124.5 50t40.5 169q-49 -69 -153 -69q-97 0 -153 55t-56 149q0 105 65.5 164.5t179.5 59.5zM198 470q0 -48 25.5 -74t72.5 -26q63 0 116 48q-6 154 -115 154
q-47 0 -73 -26t-26 -76z" />
    <glyph glyph-name="zero.dnom" horiz-adv-x="410" 
d="M370 183q0 -192 -165 -192q-82 0 -124 49.5t-42 144.5q0 192 166 192q82 0 123.5 -49.5t41.5 -144.5zM154 183q0 -58 11.5 -81.5t39.5 -23.5q29 0 40 23.5t11 83.5q0 59 -11 82.5t-40 23.5q-28 0 -39.5 -24t-11.5 -84z" />
    <glyph glyph-name="one.dnom" horiz-adv-x="292" 
d="M119 0v243h-88v84l75 3q14 1 19.5 6t6.5 15l5 24h91v-375h-109z" />
    <glyph glyph-name="two.dnom" horiz-adv-x="369" 
d="M42 0v75l116 89q29 23 40.5 39.5t11.5 35.5q0 47 -58 47q-19 0 -39 -5t-41 -16l-33 80q55 32 125 32q73 0 114 -34.5t41 -96.5q0 -41 -20 -72t-68 -64l-37 -25h134v-85h-286z" />
    <glyph glyph-name="three.dnom" horiz-adv-x="373" 
d="M165 -9q-78 0 -135 26l22 80q29 -10 53.5 -14t49.5 -4q32 0 45.5 7.5t13.5 26.5q0 33 -47 33h-61v80h64q40 0 40 30q0 18 -13.5 26t-44.5 8q-42 0 -88 -17l-27 79q59 25 129 25q71 0 111 -27t40 -75q0 -34 -18.5 -56t-50.5 -29q37 -9 57 -32.5t20 -58.5q0 -51 -42 -79.5
t-118 -28.5z" />
    <glyph glyph-name="four.dnom" horiz-adv-x="412" 
d="M226 0v72h-189v73l169 223h118v-221h49v-75h-49v-72h-98zM137 147h94v129z" />
    <glyph glyph-name="five.dnom" horiz-adv-x="381" 
d="M184 -9q-38 0 -74.5 7.5t-63.5 20.5l23 79q55 -20 108 -20q59 0 59 38q0 40 -53 40q-15 0 -32 -3.5t-33 -11.5l-57 32v195h259v-86h-166v-65q26 14 63 14q61 0 93 -32.5t32 -86.5q0 -121 -158 -121z" />
    <glyph glyph-name="six.dnom" horiz-adv-x="397" 
d="M205 -9q-166 0 -166 185q0 201 192 201q61 0 110 -21l-19 -80q-22 8 -41.5 11.5t-39.5 3.5q-48 0 -69 -21.5t-23 -72.5q26 33 85 33q60 0 93.5 -30.5t33.5 -84.5q0 -58 -41 -91t-115 -33zM205 158q-34 0 -56 -21q2 -69 56 -69q51 0 51 45q0 21 -13.5 33t-37.5 12z" />
    <glyph glyph-name="seven.dnom" horiz-adv-x="352" 
d="M28 280v88h291v-78l-119 -290h-117l119 280h-174z" />
    <glyph glyph-name="eight.dnom" horiz-adv-x="406" 
d="M203 -9q-79 0 -120.5 28t-41.5 80q0 33 19 56.5t51 31.5q-27 10 -44 33t-17 54q0 47 42 75t111 28q68 0 110.5 -28t42.5 -75q0 -31 -17 -54t-44 -33q32 -8 50.5 -31.5t18.5 -56.5q0 -52 -41 -80t-120 -28zM203 222q50 0 50 41t-50 41q-51 0 -51 -41t51 -41zM203 66
q25 0 39 11t14 31t-14 31t-39 11q-53 0 -53 -42t53 -42z" />
    <glyph glyph-name="nine.dnom" horiz-adv-x="397" 
d="M192 377q166 0 166 -185q0 -201 -192 -201q-29 0 -57.5 5.5t-53.5 15.5l20 81q23 -8 42 -11.5t39 -3.5q48 0 69 21t23 72q-26 -33 -85 -33q-60 0 -93.5 30.5t-33.5 84.5q0 59 41.5 91.5t114.5 32.5zM141 255q0 -44 51 -44q34 0 56 20q-1 69 -56 69q-51 0 -51 -45z" />
    <glyph glyph-name="zero.numr" horiz-adv-x="410" 
d="M370 489q0 -192 -165 -192q-82 0 -124 49.5t-42 144.5q0 192 166 192q82 0 123.5 -49.5t41.5 -144.5zM154 489q0 -58 11.5 -81.5t39.5 -23.5q29 0 40 23.5t11 83.5q0 59 -11 82.5t-40 23.5q-28 0 -39.5 -24t-11.5 -84z" />
    <glyph glyph-name="one.numr" horiz-adv-x="292" 
d="M119 306v243h-88v84l75 3q14 1 19.5 6t6.5 15l5 24h91v-375h-109z" />
    <glyph glyph-name="two.numr" horiz-adv-x="369" 
d="M42 306v75l116 89q29 23 40.5 39.5t11.5 35.5q0 47 -58 47q-19 0 -39 -5t-41 -16l-33 80q55 32 125 32q73 0 114 -34.5t41 -96.5q0 -41 -20 -72t-68 -64l-37 -25h134v-85h-286z" />
    <glyph glyph-name="three.numr" horiz-adv-x="373" 
d="M165 297q-78 0 -135 26l22 80q29 -10 53.5 -14t49.5 -4q32 0 45.5 7.5t13.5 26.5q0 33 -47 33h-61v80h64q40 0 40 30q0 18 -13.5 26t-44.5 8q-42 0 -88 -17l-27 79q59 25 129 25q71 0 111 -27t40 -75q0 -34 -18.5 -56t-50.5 -29q37 -9 57 -32.5t20 -58.5q0 -51 -42 -79.5
t-118 -28.5z" />
    <glyph glyph-name="four.numr" horiz-adv-x="412" 
d="M226 306v72h-189v73l169 223h118v-221h49v-75h-49v-72h-98zM137 453h94v129z" />
    <glyph glyph-name="five.numr" horiz-adv-x="381" 
d="M184 297q-38 0 -74.5 7.5t-63.5 20.5l23 79q55 -20 108 -20q59 0 59 38q0 40 -53 40q-15 0 -32 -3.5t-33 -11.5l-57 32v195h259v-86h-166v-65q26 14 63 14q61 0 93 -32.5t32 -86.5q0 -121 -158 -121z" />
    <glyph glyph-name="six.numr" horiz-adv-x="397" 
d="M205 297q-166 0 -166 185q0 201 192 201q61 0 110 -21l-19 -80q-22 8 -41.5 11.5t-39.5 3.5q-48 0 -69 -21.5t-23 -72.5q26 33 85 33q60 0 93.5 -30.5t33.5 -84.5q0 -58 -41 -91t-115 -33zM205 464q-34 0 -56 -21q2 -69 56 -69q51 0 51 45q0 21 -13.5 33t-37.5 12z" />
    <glyph glyph-name="seven.numr" horiz-adv-x="352" 
d="M28 586v88h291v-78l-119 -290h-117l119 280h-174z" />
    <glyph glyph-name="eight.numr" horiz-adv-x="406" 
d="M203 297q-79 0 -120.5 28t-41.5 80q0 33 19 56.5t51 31.5q-27 10 -44 33t-17 54q0 47 42 75t111 28q68 0 110.5 -28t42.5 -75q0 -31 -17 -54t-44 -33q32 -8 50.5 -31.5t18.5 -56.5q0 -52 -41 -80t-120 -28zM203 528q50 0 50 41t-50 41q-51 0 -51 -41t51 -41zM203 372
q25 0 39 11t14 31t-14 31t-39 11q-53 0 -53 -42t53 -42z" />
    <glyph glyph-name="nine.numr" horiz-adv-x="397" 
d="M192 683q166 0 166 -185q0 -201 -192 -201q-29 0 -57.5 5.5t-53.5 15.5l20 81q23 -8 42 -11.5t39 -3.5q48 0 69 21t23 72q-26 -33 -85 -33q-60 0 -93.5 30.5t-33.5 84.5q0 59 41.5 91.5t114.5 32.5zM141 561q0 -44 51 -44q34 0 56 20q-1 69 -56 69q-51 0 -51 -45z" />
    <glyph glyph-name="hyphen.case" horiz-adv-x="404" 
d="M48 268v136h308v-136h-308z" />
    <glyph glyph-name="uni2010.case" horiz-adv-x="404" 
d="M48 268v136h308v-136h-308z" />
    <glyph glyph-name="uni2011.case" horiz-adv-x="404" 
d="M48 268v136h308v-136h-308z" />
    <glyph glyph-name="uni00AD.case" horiz-adv-x="404" 
d="M48 268v136h308v-136h-308z" />
    <glyph glyph-name="endash.case" horiz-adv-x="450" 
d="M0 273v127h450v-127h-450z" />
    <glyph glyph-name="emdash.case" horiz-adv-x="900" 
d="M0 273v127h900v-127h-900z" />
    <glyph glyph-name="parenleft.case" horiz-adv-x="393" 
d="M221 -117q-67 95 -102 210t-35 242q0 128 35 243t102 209h140q-61 -98 -93 -214t-32 -238t32 -238t93 -214h-140z" />
    <glyph glyph-name="parenright.case" horiz-adv-x="393" 
d="M172 -117h-140q62 98 93.5 214t31.5 238t-31.5 238t-93.5 214h140q68 -94 102.5 -209t34.5 -243q0 -127 -34.5 -242t-102.5 -210z" />
    <glyph glyph-name="slash.case" horiz-adv-x="475" 
d="M15 -117l295 904h150l-295 -904h-150z" />
    <glyph glyph-name="backslash.case" horiz-adv-x="475" 
d="M460 -117h-150l-295 904h150z" />
    <glyph glyph-name="bracketleft.case" horiz-adv-x="407" 
d="M85 -117v904h293v-110h-150v-684h150v-110h-293z" />
    <glyph glyph-name="bracketright.case" horiz-adv-x="407" 
d="M322 -117h-293v110h149v684h-149v110h293v-904z" />
    <glyph glyph-name="braceleft.case" horiz-adv-x="443" 
d="M295 -128q-90 0 -137.5 36.5t-47.5 106.5q0 26 8.5 53.5t32.5 70.5q19 35 26 53t7 34q0 55 -63 55h-78v111h77q64 0 64 55q0 16 -7 34.5t-26 52.5q-24 43 -32.5 70.5t-8.5 53.5q0 71 47.5 107t137.5 36q32 0 63.5 -3.5t55.5 -11.5v-108q-40 9 -78 9q-43 0 -61 -12.5
t-18 -41.5q0 -19 8 -39t26 -52q21 -35 28.5 -55.5t7.5 -43.5q0 -45 -29 -73.5t-78 -33.5q49 -4 78 -32.5t29 -73.5q0 -22 -7.5 -43t-28.5 -56q-18 -31 -26 -51.5t-8 -38.5q0 -29 18 -42t61 -13q38 0 78 9v-108q-23 -7 -55 -11t-64 -4z" />
    <glyph glyph-name="braceright.case" horiz-adv-x="443" 
d="M148 -128q-32 0 -64 4t-55 11v108q41 -9 78 -9q42 0 60.5 13t18.5 42q0 18 -8 38.5t-27 51.5q-20 35 -28 56t-8 43q0 45 29.5 73.5t78.5 33.5q-49 4 -78.5 32.5t-29.5 73.5q0 23 8 43.5t28 55.5q19 32 27 52t8 39q0 29 -18.5 41.5t-60.5 12.5q-37 0 -78 -9v108
q23 8 55 11.5t64 3.5q90 0 137.5 -36t47.5 -107q0 -26 -8.5 -53.5t-32.5 -70.5q-19 -34 -26 -52.5t-7 -34.5q0 -55 63 -55h77v-111h-77q-63 0 -63 -55q0 -16 7 -34t26 -53q24 -43 32.5 -70.5t8.5 -53.5q0 -70 -47.5 -106.5t-137.5 -36.5z" />
    <glyph glyph-name="bullet.case" horiz-adv-x="538" 
d="M130 191v288h278v-288h-278z" />
    <glyph glyph-name="guilsinglleft.case" horiz-adv-x="449" 
d="M220 107l-173 213l173 213h182l-174 -213l174 -213h-182z" />
    <glyph glyph-name="guilsinglright.case" horiz-adv-x="449" 
d="M229 107h-182l175 213l-175 213h182l173 -213z" />
    <glyph glyph-name="guillemotleft.case" horiz-adv-x="750" 
d="M220 107l-173 213l173 213h182l-174 -213l174 -213h-182zM521 107l-173 213l173 213h182l-174 -213l174 -213h-182z" />
    <glyph glyph-name="guillemotright.case" horiz-adv-x="750" 
d="M229 107h-182l175 213l-175 213h182l173 -213zM530 107h-182l175 213l-175 213h182l173 -213z" />
    <glyph glyph-name="at.case" horiz-adv-x="953" 
d="M483 -116q-208 0 -318.5 110t-110.5 317q0 141 50.5 239.5t146.5 150t232 51.5q132 0 225 -46t141.5 -133t48.5 -211t-53 -190.5t-152 -66.5q-109 0 -139 69q-46 -69 -135 -69q-64 0 -100.5 34t-36.5 95q0 132 177 132h78v4q0 44 -16 59.5t-60 15.5q-59 0 -119 -21
l-22 92q85 28 156 28q91 0 132 -38.5t41 -122.5v-124q0 -64 57 -64q44 0 66.5 42.5t22.5 124.5q0 144 -79 219.5t-231 75.5q-159 0 -243.5 -89.5t-84.5 -256.5q0 -164 83.5 -248t246.5 -84q125 0 228 48l34 -87q-52 -27 -120 -41.5t-146 -14.5zM458 195q46 0 79 35v65h-64
q-68 0 -68 -53q0 -47 53 -47z" />
    <glyph glyph-name="periodcentered.case" horiz-adv-x="280" 
d="M60 261v160h161v-160h-161z" />
    <glyph glyph-name="questiondown.case" horiz-adv-x="484" 
d="M188 524v150h161v-150h-161zM263 -15q-234 0 -234 179q0 56 22 94.5t75 76.5q32 23 48.5 39t22 32.5t5.5 41.5h133q0 -48 -7.5 -80t-27 -56t-55.5 -49q-41 -29 -55.5 -47.5t-14.5 -44.5q0 -60 97 -60q39 0 75 7.5t75 23.5l36 -118q-50 -21 -96 -30t-99 -9z" />
    <glyph glyph-name="exclamdown.case" horiz-adv-x="294" 
d="M66 524v150h161v-150h-161zM70 0l14 448h125l15 -448h-154z" />
    <glyph glyph-name="periodcentered.loclCAT" horiz-adv-x="105" 
d="M-39 303v140h136v-140h-136z" />
    <glyph glyph-name="periodcentered.loclCAT.cap" horiz-adv-x="0" 
d="M-177 305v140h136v-140h-136z" />
    <glyph glyph-name="uni0327.cap" horiz-adv-x="0" 
d="M-25 -268q-53 0 -95 12v84q23 -4 41 -6t35 -2q33 0 47 7.5t14 23.5q0 17 -19.5 25.5t-69.5 9.5l20 125l83 -1l-10 -58q114 -16 114 -107q0 -113 -160 -113z" />
    <glyph glyph-name="uni0326.cap" horiz-adv-x="0" 
d="M-96 -274l29 189h132l-52 -189h-109z" />
    <glyph glyph-name="commabelow" horiz-adv-x="221" 
d="M30 -274l29 189h132l-52 -189h-109z" />
    <glyph glyph-name="uni0328.cap" horiz-adv-x="0" 
d="M-71 -230q-68 0 -108 30t-40 85q0 46 23.5 78.5t60.5 51.5l135 -15q-43 -16 -68.5 -37.5t-25.5 -48.5q0 -43 61 -43q19 0 44 6v-95q-19 -6 -38 -9t-44 -3z" />
    <glyph glyph-name="uni0328.round" horiz-adv-x="0" 
d="M-77 -230q-67 0 -104 29t-37 81q0 57 52 103.5t157 67.5l10 -22q-46 -20 -72.5 -49t-26.5 -62q0 -47 59 -47q21 0 43 6v-95q-19 -6 -37.5 -9t-43.5 -3z" />
    <glyph glyph-name="acutecomb.cap" horiz-adv-x="0" 
d="M-101 744l140 172h175l-170 -172h-145z" />
    <glyph glyph-name="IJacute" horiz-adv-x="783" 
d="M76 0v674h156v-674h-156zM490 -14q-84 0 -147 30l34 118q26 -10 48 -15t41 -5q50 0 71.5 25.5t21.5 86.5v322h-171v126h327v-464q0 -115 -54.5 -169.5t-170.5 -54.5zM53 744l140 172h175l-170 -172h-145zM483 744l140 172h175l-170 -172h-145z" />
    <glyph glyph-name="ijacute" horiz-adv-x="620" 
d="M94 0v404h-72v109h222v-513h-150zM392 -205q-24 0 -41 3t-34 7v109q20 -4 39 -4q26 0 37 12.5t11 43.5v438h-72v109h222v-520q0 -66 -14 -110t-49.5 -66t-98.5 -22zM70 596l125 186h155l-144 -186h-136zM381 596l125 186h155l-144 -186h-136z" />
    <glyph glyph-name="gravecomb.cap" horiz-adv-x="0" 
d="M-52 744l-169 172h174l140 -172h-145z" />
    <glyph glyph-name="uni0302.cap" horiz-adv-x="0" 
d="M-207 744l127 172h159l127 -172h-141l-65 97l-66 -97h-141z" />
    <glyph glyph-name="tildecomb.cap" horiz-adv-x="0" 
d="M-192 744q0 98 28.5 138.5t86.5 40.5q35 0 58.5 -12t54.5 -43l9 -10q16 -15 23.5 -20t15.5 -5q14 0 20.5 16t6.5 67h97q0 -97 -28.5 -138t-86.5 -41q-34 0 -58 12t-54 43l-10 9q-16 17 -23.5 21.5t-15.5 4.5q-14 0 -20.5 -16t-6.5 -67h-97z" />
    <glyph glyph-name="uni030C.cap" horiz-adv-x="0" 
d="M-80 744l-127 172h141l66 -98l65 98h141l-127 -172h-159z" />
    <glyph glyph-name="uni0308.cap" horiz-adv-x="0" 
d="M-173 746v133h134v-133h-134zM38 746v133h135v-133h-135z" />
    <glyph glyph-name="uni0306.cap" horiz-adv-x="0" 
d="M0 737q-93 0 -138 47.5t-45 131.5h119q0 -86 64 -86q33 0 49 22.5t16 63.5h118q0 -84 -45 -131.5t-138 -47.5z" />
    <glyph glyph-name="uni030A.cap" horiz-adv-x="0" 
d="M0 731q-56 0 -91.5 34t-35.5 92t35.5 92t91.5 34t91.5 -34.5t35.5 -91.5q0 -58 -35.5 -92t-91.5 -34zM0 802q24 0 38.5 14.5t14.5 40.5t-15 40.5t-38 14.5t-38 -14.5t-15 -40.5t14.5 -40.5t38.5 -14.5z" />
    <glyph glyph-name="uni0307.cap" horiz-adv-x="0" 
d="M-77 746v137h154v-137h-154z" />
    <glyph glyph-name="cent.BRACKET.160" 
d="M343 27q-131 0 -198.5 64.5t-67.5 199.5q0 116 52 184.5t148 85.5v91h104v-88q58 -6 118 -27l-29 -112q-48 18 -89 21v-156h-104v135q-48 -33 -48 -134q0 -83 32.5 -113t108.5 -30q55 0 102 20l28 -111q-73 -30 -157 -30zM345 12h-32v1h32v-1z" />
    <glyph glyph-name="dollar.BRACKET.160" 
d="M241 -66v94q-55 3 -107.5 14t-89.5 27l27 117q40 -16 82.5 -25.5t87.5 -12.5v67h104v-61q50 12 50 54q0 24 -18 36t-66 20l-85 14q-91 14 -132 53.5t-41 111.5q0 161 188 183v100h104v-98q88 -6 157 -32l-29 -113q-63 21 -128 25v-65h-104v60q-55 -12 -55 -54
q0 -23 17.5 -34.5t64.5 -19.5l83 -14q98 -16 139 -55.5t41 -116.5q0 -158 -186 -179v-96h-104z" />
    <glyph glyph-name="g.salt" horiz-adv-x="551" 
d="M257 185q-30 0 -56 4q-41 -14 -41 -42q0 -14 9 -20t31 -6h137q95 0 141 -36.5t46 -111.5q0 -88 -66 -131t-203 -43q-245 0 -245 122q0 77 90 95q-62 24 -62 85q0 77 96 107q-88 42 -88 147q0 83 55 127.5t157 44.5q100 0 154 -42q39 38 102 38h16v-113h-16h-51
q7 -25 7 -53q0 -82 -55 -127t-158 -45zM257 275q73 0 73 81t-72 81q-73 0 -73 -81t72 -81zM147 -47q0 -31 26 -43.5t90 -12.5q65 0 93 13t28 44q0 49 -62 49h-145h-5q-25 -18 -25 -50z" />
    </font>
</defs>
</svg>
