<?xml version="1.0" standalone="no"?>
<!DOCTYPE svg PUBLIC "-//W3C//DTD SVG 1.1//EN" "http://www.w3.org/Graphics/SVG/1.1/DTD/svg11.dtd" >
<svg xmlns="http://www.w3.org/2000/svg" xmlns:xlink="http://www.w3.org/1999/xlink" version="1.1">
<metadata>
Created by FontForge 20170731 at Tue Mar 10 13:57:51 2020
 By Aleksey,,,
(c) 2020 Goldman Sachs. All rights reserved.
</metadata>
<defs>
<font id="GoldmanSans-Black" horiz-adv-x="580" >
  <font-face 
    font-family="Goldman Sans Black"
    font-weight="900"
    font-stretch="normal"
    units-per-em="1000"
    panose-1="2 11 9 3 2 2 3 2 2 4"
    ascent="712"
    descent="-288"
    x-height="514"
    cap-height="674"
    bbox="-258 -284 1300 988"
    underline-thickness="77"
    underline-position="-192"
    unicode-range="U+000D-FEFF"
  />
<missing-glyph horiz-adv-x="500" 
d="M47 0v674h406v-674h-406zM162 99h176v476h-176v-476z" />
    <glyph glyph-name="f_f" unicode="ff" horiz-adv-x="798" 
d="M93 0v384h-78v130h78v11q0 203 213 203q32 0 57 -2t40 -7v-124q-17 3 -30.5 4t-29.5 1q-45 0 -60.5 -15t-15.5 -59v-12h193v11q0 203 213 203q73 0 107 -9v-124q-17 3 -30 4t-30 1q-50 0 -68 -15t-18 -59v-12h146v-130h-139v-384h-181v384h-186v-384h-181z" />
    <glyph glyph-name="f_i" unicode="fi" horiz-adv-x="720" 
d="M474 592v154h184v-154h-184zM93 0v384h-78v130h78v11q0 203 213 203q32 0 57 -2t40 -7v-124q-17 3 -30.5 4t-29.5 1q-45 0 -60.5 -15t-15.5 -59v-12h128v-130h-121v-384h-181zM477 0v384h-43v130h229v-514h-186z" />
    <glyph glyph-name="f_j" unicode="fj" horiz-adv-x="720" 
d="M474 592v154h184v-154h-184zM93 0v384h-78v130h78v11q0 203 213 203q32 0 57 -2t40 -7v-124q-17 3 -30.5 4t-29.5 1q-45 0 -60.5 -15t-15.5 -59v-12h128v-130h-121v-384h-181zM483 -209q-31 0 -50 3.5t-38 8.5v132q19 -4 38 -4q22 0 33 11t11 38v404h-43v130h229v-493
q0 -72 -13 -123.5t-51.5 -79t-115.5 -27.5z" />
    <glyph glyph-name="f_f_i" unicode="ffi" horiz-adv-x="1087" 
d="M841 592v154h184v-154h-184zM93 0v384h-78v130h78v11q0 203 213 203q32 0 57 -2t40 -7v-124q-17 3 -30.5 4t-29.5 1q-45 0 -60.5 -15t-15.5 -59v-12h193v11q0 203 213 203q32 0 57 -2t40 -7v-124q-17 3 -30.5 4t-29.5 1q-45 0 -60.5 -15t-15.5 -59v-12h128v-130h-121
v-384h-181v384h-186v-384h-181zM844 0v384h-43v130h229v-514h-186z" />
    <glyph glyph-name="f_f_j" unicode="ffj" horiz-adv-x="1087" 
d="M841 592v154h184v-154h-184zM93 0v384h-78v130h78v11q0 203 213 203q32 0 57 -2t40 -7v-124q-17 3 -30.5 4t-29.5 1q-45 0 -60.5 -15t-15.5 -59v-12h193v11q0 203 213 203q32 0 57 -2t40 -7v-124q-17 3 -30.5 4t-29.5 1q-45 0 -60.5 -15t-15.5 -59v-12h128v-130h-121
v-384h-181v384h-186v-384h-181zM850 -209q-31 0 -50 3.5t-38 8.5v132q19 -4 38 -4q22 0 33 11t11 38v404h-43v130h229v-493q0 -72 -13 -123.5t-51.5 -79t-115.5 -27.5z" />
    <glyph glyph-name=".notdef" horiz-adv-x="500" 
d="M47 0v674h406v-674h-406zM162 99h176v476h-176v-476z" />
    <glyph glyph-name="uni0000" horiz-adv-x="0" 
 />
    <glyph glyph-name="uni0000" horiz-adv-x="0" 
 />
    <glyph glyph-name="uni000D" unicode="&#xd;" horiz-adv-x="190" 
 />
    <glyph glyph-name="space" unicode=" " horiz-adv-x="190" 
 />
    <glyph glyph-name="exclam" unicode="!" horiz-adv-x="308" 
d="M79 232l-16 442h182l-16 -442h-150zM61 0v161h186v-161h-186z" />
    <glyph glyph-name="quotedbl" unicode="&#x22;" horiz-adv-x="501" 
d="M58 375l-20 337h185l-20 -337h-145zM298 375l-20 337h185l-20 -337h-145z" />
    <glyph glyph-name="numbersign" unicode="#" 
d="M66 0l24 154h-76v108h92l23 150h-93v108h109l24 154h120l-24 -154h105l24 154h120l-24 -154h76v-108h-92l-23 -150h93v-108h-109l-24 -154h-120l24 154h-105l-24 -154h-120zM226 262h105l23 150h-105z" />
    <glyph glyph-name="dollar" unicode="$" 
d="M219 -67v97q-52 4 -101 13.5t-79 21.5l29 142q94 -36 200 -36q53 0 75.5 10t22.5 33q0 17 -13.5 26.5t-46.5 13.5l-81 11q-94 13 -138 54t-44 115q0 160 176 189v103h145v-99q80 -7 141 -29l-32 -136q-78 24 -161 24q-55 0 -79.5 -10t-24.5 -33q0 -15 12.5 -23t40.5 -12
l89 -12q98 -13 141.5 -55.5t43.5 -124.5q0 -158 -171 -184v-99h-145z" />
    <glyph glyph-name="percent" unicode="%" horiz-adv-x="942" 
d="M202 0l390 674h148l-390 -674h-148zM907 185q0 -95 -44 -144.5t-129 -49.5t-129 50t-44 146q0 95 44 144.5t129 49.5t129 -50t44 -146zM687 185q0 -58 10 -79t37 -21t37 22t10 80t-10 79t-37 21t-37 -21.5t-10 -80.5zM381 487q0 -95 -44 -144.5t-129 -49.5t-129 50
t-44 146q0 95 44 144.5t129 49.5t129 -50t44 -146zM161 487q0 -58 10 -79t37 -21t37 22t10 80t-10 79t-37 21t-37 -21.5t-10 -80.5z" />
    <glyph glyph-name="ampersand" unicode="&#x26;" horiz-adv-x="737" 
d="M316 -15q-139 0 -210 52t-71 154q0 60 30 105t96 82q-32 55 -32 116q0 92 63 143.5t175 51.5q46 0 96 -6.5t78 -17.5l-27 -132q-42 9 -70.5 13t-56.5 4q-101 0 -101 -68q0 -20 9.5 -39.5t35 -47.5t73.5 -74l104 -99q12 29 18 65t6 76h-89v116h227v-86q0 -160 -66 -263
l137 -130h-195l-38 35q-80 -50 -192 -50zM199 203q0 -84 132 -84q43 0 76 11l-164 153q-44 -27 -44 -80z" />
    <glyph glyph-name="quotesingle" unicode="'" horiz-adv-x="261" 
d="M58 375l-20 337h185l-20 -337h-145z" />
    <glyph glyph-name="parenleft" unicode="(" horiz-adv-x="409" 
d="M214 -162q-64 92 -99 210t-35 242t35 242t99 210h165q-55 -97 -85 -215t-30 -237q0 -118 30 -236.5t85 -215.5h-165z" />
    <glyph glyph-name="parenright" unicode=")" horiz-adv-x="409" 
d="M195 -162h-165q55 97 85 215.5t30 236.5q0 119 -30 237t-85 215h165q65 -92 99.5 -210t34.5 -242t-34.5 -242t-99.5 -210z" />
    <glyph glyph-name="asterisk" unicode="*" horiz-adv-x="516" 
d="M179 271l-104 75l101 116l-146 35l40 122l137 -60l-13 153h128l-13 -153l137 60l40 -122l-146 -35l101 -116l-104 -75l-79 132z" />
    <glyph glyph-name="plus" unicode="+" 
d="M222 98v168h-153v134h153v168h136v-168h153v-134h-153v-168h-136z" />
    <glyph glyph-name="comma" unicode="," horiz-adv-x="286" 
d="M16 -150l37 332h186l-63 -332h-160z" />
    <glyph glyph-name="hyphen" unicode="-" horiz-adv-x="405" 
d="M42 195v164h321v-164h-321z" />
    <glyph glyph-name="period" unicode="." horiz-adv-x="286" 
d="M50 0v182h186v-182h-186z" />
    <glyph glyph-name="slash" unicode="/" horiz-adv-x="505" 
d="M16 -162l295 904h178l-295 -904h-178z" />
    <glyph glyph-name="zero" unicode="0" 
d="M551 337q0 -179 -64 -265.5t-197 -86.5t-197 86.5t-64 265.5t64 265.5t197 86.5t197 -86.5t64 -265.5zM217 337q0 -79 7 -124.5t23 -65t43 -19.5q28 0 43.5 19.5t22.5 65t7 124.5t-7 124.5t-22.5 65t-43.5 19.5q-27 0 -43 -19.5t-23 -65t-7 -124.5z" />
    <glyph glyph-name="one" unicode="1" 
d="M68 0v144h146v334h-146v134l114 6q24 2 33.5 9t12.5 26l5 31h163v-540h136v-144h-464z" />
    <glyph glyph-name="two" unicode="2" 
d="M50 0v140l198 182q47 43 64 70t17 58q0 85 -105 85q-62 0 -134 -32l-53 138q101 48 211 48q122 0 192 -60.5t70 -165.5q0 -48 -15.5 -89t-51.5 -81.5t-97 -89.5l-68 -54h248v-149h-476z" />
    <glyph glyph-name="three" unicode="3" 
d="M46 644q94 45 211 45q122 0 188.5 -49.5t66.5 -138.5q0 -61 -31 -101t-88 -54q63 -15 97.5 -56.5t34.5 -103.5q0 -94 -73.5 -147.5t-202.5 -53.5t-218 49l43 139q77 -33 159 -33q108 0 108 68q0 31 -22 45t-70 14h-81v144h78q45 0 65 14.5t20 45.5q0 34 -22.5 49.5
t-71.5 15.5q-69 0 -145 -29z" />
    <glyph glyph-name="four" unicode="4" 
d="M327 0v127h-311v132l286 415h178v-406h72v-141h-72v-127h-153zM175 268h152v219z" />
    <glyph glyph-name="five" unicode="5" 
d="M261 -15q-132 0 -228 54l47 140q47 -22 86.5 -31t83.5 -9q57 0 82 17t25 55q0 78 -91 78q-59 0 -115 -35l-90 57v363h438v-152h-279v-137q43 34 114 34q95 0 149.5 -56.5t54.5 -155.5q0 -109 -70.5 -165.5t-206.5 -56.5z" />
    <glyph glyph-name="six" unicode="6" 
d="M303 -15q-137 0 -204.5 84t-67.5 256q0 364 310 364q103 0 189 -40l-38 -136q-72 29 -135 29q-76 0 -109.5 -42t-35.5 -140q42 59 141 59q95 0 147.5 -54.5t52.5 -152.5q0 -106 -66 -166.5t-184 -60.5zM212 251q0 -129 85 -129q80 0 80 84t-80 84q-48 0 -85 -31v-8z" />
    <glyph glyph-name="seven" unicode="7" 
d="M41 522v152h490v-137l-220 -537h-198l223 522h-295z" />
    <glyph glyph-name="eight" unicode="8" 
d="M290 -15q-125 0 -193.5 50t-68.5 141q0 65 33 109.5t93 61.5q-50 17 -79 56t-29 92q0 89 66 141.5t178 52.5q113 0 178.5 -52.5t65.5 -141.5q0 -53 -28.5 -92t-79.5 -56q60 -17 93 -61.5t33 -109.5q0 -91 -68 -141t-194 -50zM290 408q35 0 55 19.5t20 54.5q0 73 -75 73
q-36 0 -55.5 -19t-19.5 -54t20 -54.5t55 -19.5zM290 119q84 0 84 78q0 77 -84 77t-84 -77q0 -78 84 -78z" />
    <glyph glyph-name="nine" unicode="9" 
d="M277 689q137 0 204.5 -84t67.5 -256q0 -364 -310 -364q-103 0 -189 40l38 136q72 -29 135 -29q76 0 109.5 42t35.5 140q-42 -59 -141 -59q-94 0 -147 55t-53 152q0 107 66 167t184 60zM203 468q0 -84 80 -84q48 0 85 31v8q0 68 -20 98.5t-65 30.5q-80 0 -80 -84z" />
    <glyph glyph-name="colon" unicode=":" horiz-adv-x="286" 
d="M50 0v182h186v-182h-186zM50 332v182h186v-182h-186z" />
    <glyph glyph-name="semicolon" unicode=";" horiz-adv-x="286" 
d="M16 -150l37 332h186l-63 -332h-160zM50 332v182h186v-182h-186z" />
    <glyph glyph-name="less" unicode="&#x3c;" 
d="M511 596v-148l-288 -114l288 -113v-150l-441 178v167z" />
    <glyph glyph-name="equal" unicode="=" 
d="M69 387v140h442v-140h-442zM69 140v140h442v-140h-442z" />
    <glyph glyph-name="greater" unicode="&#x3e;" 
d="M69 71v148l288 114l-288 113v150l441 -178v-167z" />
    <glyph glyph-name="question" unicode="?" horiz-adv-x="495" 
d="M140 232q0 53 6.5 84.5t25 53.5t53.5 45q42 29 55 44t13 37q0 23 -18.5 32.5t-62.5 9.5q-38 0 -73.5 -6.5t-75.5 -21.5l-39 141q57 20 103 29t96 9q245 0 245 -182q0 -54 -21.5 -93t-71.5 -74q-32 -23 -48.5 -38t-21.5 -30t-5 -40h-160zM127 0v161h186v-161h-186z" />
    <glyph glyph-name="at" unicode="@" horiz-adv-x="953" 
d="M487 -227q-211 0 -323.5 110t-112.5 317q0 140 50.5 238.5t146.5 150.5t232 52q132 0 226 -47t144 -134.5t50 -210.5t-52 -189.5t-149 -66.5q-113 0 -148 70q-47 -70 -142 -70q-64 0 -99 34.5t-35 96.5q0 133 173 133h79q-1 38 -15.5 50.5t-56.5 12.5q-58 0 -115 -18
l-25 109q48 13 84.5 18.5t73.5 5.5q97 0 140 -39t43 -128v-109q0 -64 56 -64q79 0 79 155q0 140 -79.5 214.5t-229.5 74.5q-156 0 -239 -87.5t-83 -251.5q0 -160 83.5 -242.5t245.5 -82.5q133 0 229 48l38 -94q-98 -56 -269 -56zM463 97q36 0 64 24v57h-61q-48 0 -48 -41
q0 -40 45 -40z" />
    <glyph glyph-name="A" unicode="A" horiz-adv-x="654" 
d="M7 0l190 674h254l196 -674h-189l-31 124h-206l-31 -124h-183zM253 255h141l-70 284z" />
    <glyph glyph-name="B" unicode="B" horiz-adv-x="652" 
d="M70 0v674h290q108 0 165 -46.5t57 -135.5q0 -118 -103 -144q133 -29 133 -164q0 -184 -232 -184h-310zM332 543h-82v-141h82q75 0 75 73q0 36 -17.5 52t-57.5 16zM343 279h-93v-148h93q42 0 61 17.5t19 56.5t-18.5 56.5t-61.5 17.5z" />
    <glyph glyph-name="C" unicode="C" horiz-adv-x="567" 
d="M359 -15q-318 0 -318 347q0 174 82.5 265.5t239.5 91.5q46 0 90.5 -8t80.5 -23l-33 -140q-32 9 -61 14t-52 5q-76 0 -111.5 -50.5t-35.5 -157.5q0 -102 35 -147t114 -45q27 0 57.5 5t61.5 14l33 -139q-32 -15 -80.5 -23.5t-102.5 -8.5z" />
    <glyph glyph-name="D" unicode="D" horiz-adv-x="695" 
d="M70 0v674h245q339 0 339 -338q0 -166 -85.5 -251t-253.5 -85h-245zM313 526h-52v-378h52q78 0 110 43t32 146q0 104 -32 146.5t-110 42.5z" />
    <glyph glyph-name="E" unicode="E" horiz-adv-x="577" 
d="M70 0v674h452v-146h-267v-114h216v-146h-216v-122h271v-146h-456z" />
    <glyph glyph-name="F" unicode="F" horiz-adv-x="559" 
d="M70 0v674h450v-149h-261v-129h224v-149h-224v-247h-189z" />
    <glyph glyph-name="G" unicode="G" horiz-adv-x="672" 
d="M381 -15q-176 0 -258 82.5t-82 260.5q0 361 351 361q56 0 108.5 -10t89.5 -27l-33 -140q-35 12 -73.5 18.5t-78.5 6.5q-91 0 -130 -50.5t-39 -166.5q0 -69 14 -109.5t47.5 -58t89.5 -17.5q29 0 62 4v115h-101v143h264v-375q-44 -17 -106.5 -27t-124.5 -10z" />
    <glyph glyph-name="H" unicode="H" horiz-adv-x="715" 
d="M70 0v674h192v-257h191v257h192v-674h-192v267h-191v-267h-192z" />
    <glyph glyph-name="I" unicode="I" horiz-adv-x="332" 
d="M70 0v674h192v-674h-192z" />
    <glyph glyph-name="J" unicode="J" horiz-adv-x="493" 
d="M189 -15q-87 0 -154 31l36 139q25 -10 45 -14t37 -4q47 0 67 21.5t20 70.5v291h-166v154h358v-463q0 -115 -59 -170.5t-184 -55.5z" />
    <glyph glyph-name="K" unicode="K" horiz-adv-x="664" 
d="M70 0v674h190v-292l177 292h204l-210 -331l228 -343h-216l-183 295v-295h-190z" />
    <glyph glyph-name="L" unicode="L" horiz-adv-x="539" 
d="M70 0v674h192v-520h236v-154h-428z" />
    <glyph glyph-name="M" unicode="M" horiz-adv-x="881" 
d="M70 0v674h220l153 -383l154 383h214v-674h-166v433l-130 -325h-148l-130 318v-426h-167z" />
    <glyph glyph-name="N" unicode="N" horiz-adv-x="724" 
d="M70 0v674h200l217 -422v422h167v-674h-200l-217 422v-422h-167z" />
    <glyph glyph-name="O" unicode="O" horiz-adv-x="700" 
d="M350 -15q-151 0 -230 90t-79 262t79 262t230 90t230 -90t79 -262t-79 -262t-230 -90zM350 137q59 0 84 45.5t25 154.5t-25 154.5t-84 45.5t-84 -45.5t-25 -154.5t25 -154.5t84 -45.5z" />
    <glyph glyph-name="P" unicode="P" horiz-adv-x="631" 
d="M70 0v674h271q261 0 261 -234t-261 -234h-86v-206h-185zM319 535h-64v-190h64q50 0 73 23t23 72q0 50 -23 72.5t-73 22.5z" />
    <glyph glyph-name="Q" unicode="Q" horiz-adv-x="700" 
d="M346 -15q-148 0 -226.5 90.5t-78.5 261.5q0 172 79.5 262t230.5 90q150 0 229 -90t79 -262q0 -178 -95 -265l105 -52l-67 -125l-182 97q-33 -7 -74 -7zM350 137q59 0 84 45.5t25 154.5t-25 154.5t-84 45.5t-84 -45.5t-25 -154.5t25 -154.5t84 -45.5z" />
    <glyph glyph-name="R" unicode="R" horiz-adv-x="655" 
d="M70 0v674h265q128 0 194.5 -57t66.5 -165q0 -70 -32 -118.5t-89 -68.5l164 -265h-200l-137 237h-50v-237h-182zM318 538h-66v-172h66q89 0 89 86t-89 86z" />
    <glyph glyph-name="S" unicode="S" horiz-adv-x="569" 
d="M259 -15q-119 0 -218 39l35 146q39 -15 83.5 -23.5t83.5 -8.5q58 0 83.5 15t25.5 49q0 41 -46 50l-89 18q-166 34 -166 199q0 103 68 161.5t187 58.5t212 -36l-36 -143q-69 27 -162 27q-92 0 -92 -57q0 -42 53 -52l76 -15q92 -19 135.5 -68t43.5 -135q0 -114 -68 -169.5
t-209 -55.5z" />
    <glyph glyph-name="T" unicode="T" horiz-adv-x="566" 
d="M187 0v522h-165v152h522v-152h-165v-522h-192z" />
    <glyph glyph-name="U" unicode="U" horiz-adv-x="686" 
d="M343 -15q-149 0 -215.5 68.5t-66.5 223.5v397h193v-438q0 -96 90 -96q88 0 88 96v438h193v-397q0 -155 -66.5 -223.5t-215.5 -68.5z" />
    <glyph glyph-name="V" unicode="V" horiz-adv-x="649" 
d="M192 0l-188 674h201l125 -510l121 510h194l-188 -674h-265z" />
    <glyph glyph-name="W" unicode="W" horiz-adv-x="910" 
d="M142 0l-133 674h175l77 -476l102 468h190l103 -476l81 484h164l-133 -674h-222l-91 430l-91 -430h-222z" />
    <glyph glyph-name="X" unicode="X" horiz-adv-x="634" 
d="M3 0l199 345l-181 329h199l100 -187l105 187h199l-194 -338l201 -336h-208l-110 195l-110 -195h-200z" />
    <glyph glyph-name="Y" unicode="Y" horiz-adv-x="625" 
d="M219 0v220l-219 454h193l125 -267l126 267h181l-214 -434v-240h-192z" />
    <glyph glyph-name="Z" unicode="Z" horiz-adv-x="579" 
d="M43 0v133l270 395h-269v146h488v-133l-270 -395h277v-146h-496z" />
    <glyph glyph-name="bracketleft" unicode="[" horiz-adv-x="415" 
d="M72 -162v904h317v-130h-145v-644h145v-130h-317z" />
    <glyph glyph-name="backslash" unicode="\" horiz-adv-x="505" 
d="M489 -162h-178l-295 904h178z" />
    <glyph glyph-name="bracketright" unicode="]" horiz-adv-x="415" 
d="M343 -162h-317v130h145v644h-145v130h317v-904z" />
    <glyph glyph-name="asciicircum" unicode="^" 
d="M39 236l175 438h151l176 -438h-153l-99 266l-99 -266h-151z" />
    <glyph glyph-name="underscore" unicode="_" horiz-adv-x="456" 
d="M30 -169v142h396v-142h-396z" />
    <glyph glyph-name="grave" unicode="`" horiz-adv-x="368" 
d="M179 592l-149 189h181l127 -189h-159z" />
    <glyph glyph-name="a" unicode="a" horiz-adv-x="564" 
d="M188 -13q-76 0 -117.5 39.5t-41.5 112.5q0 92 54 132t178 40h79q-1 44 -19 61t-64 17q-33 0 -73 -6.5t-78 -18.5l-31 131q47 15 100.5 23.5t103.5 8.5q122 0 177.5 -49t55.5 -158v-320h-159l-11 71q-24 -40 -64.5 -62t-89.5 -22zM255 115q23 0 47 9.5t38 24.5v68h-70
q-66 0 -66 -55q0 -47 51 -47z" />
    <glyph glyph-name="b" unicode="b" horiz-adv-x="607" 
d="M393 -13q-107 0 -166 87l-10 -74h-160v712h186v-251q57 66 150 66q178 0 178 -270t-178 -270zM316 132q37 0 52 28t15 97t-15 97t-52 28q-41 0 -73 -29v-192q32 -29 73 -29z" />
    <glyph glyph-name="c" unicode="c" horiz-adv-x="473" 
d="M300 -15q-130 0 -197 67.5t-67 197.5q0 132 70 206t195 74q83 0 148 -28l-30 -130q-44 16 -84 16q-56 0 -82.5 -33t-26.5 -104q0 -68 24 -96t83 -28q43 0 88 15l30 -130q-65 -27 -151 -27z" />
    <glyph glyph-name="d" unicode="d" horiz-adv-x="607" 
d="M214 -13q-178 0 -178 270t178 270q93 0 150 -66v251h186v-712h-159l-11 74q-58 -87 -166 -87zM291 132q41 0 73 29v192q-32 29 -73 29q-37 0 -52 -28t-15 -97t15 -97t52 -28z" />
    <glyph glyph-name="e" unicode="e" horiz-adv-x="557" 
d="M307 -15q-271 0 -271 271q0 132 65 203t186 71q122 0 180 -66.5t58 -207.5v-48h-310q6 -45 31.5 -64.5t76.5 -19.5q37 0 71.5 7.5t70.5 22.5l38 -123q-80 -46 -196 -46zM286 410q-38 0 -54.5 -22.5t-19.5 -77.5h144q-1 56 -17 78t-53 22z" />
    <glyph glyph-name="f" unicode="f" horiz-adv-x="431" 
d="M93 0v384h-78v130h78v11q0 203 213 203q73 0 107 -9v-124q-17 3 -30 4t-30 1q-50 0 -68 -15t-18 -59v-12h146v-130h-139v-384h-181z" />
    <glyph glyph-name="g" unicode="g" horiz-adv-x="604" 
d="M259 -209q-49 0 -94.5 8t-100.5 26l33 138q44 -14 76.5 -20.5t64.5 -6.5q68 0 97 24t29 79v50q-27 -34 -62 -49.5t-82 -15.5q-94 0 -139 61t-45 189q0 125 46 189t134 64q106 0 165 -88l10 75h156v-474q0 -129 -69.5 -189t-218.5 -60zM290 165q40 0 74 29v159
q-34 29 -74 29q-35 0 -50.5 -25t-15.5 -83t15.5 -83.5t50.5 -25.5z" />
    <glyph glyph-name="h" unicode="h" horiz-adv-x="603" 
d="M57 0v712h186v-258q53 73 149 73q157 0 157 -186v-341h-186v326q0 56 -51 56q-37 0 -69 -29v-353h-186z" />
    <glyph glyph-name="i" unicode="i" horiz-adv-x="328" 
d="M82 592v154h184v-154h-184zM85 0v384h-65v130h251v-514h-186z" />
    <glyph glyph-name="j" unicode="j" horiz-adv-x="328" 
d="M82 592v154h184v-154h-184zM91 -209q-31 0 -50 3.5t-38 8.5v132q19 -4 38 -4q22 0 33 11t11 38v404h-65v130h251v-493q0 -72 -13 -123.5t-51.5 -79t-115.5 -27.5z" />
    <glyph glyph-name="k" unicode="k" horiz-adv-x="588" 
d="M57 0v712h183v-411l146 213h185l-162 -232l182 -282h-198l-153 247v-247h-183z" />
    <glyph glyph-name="l" unicode="l" horiz-adv-x="341" 
d="M231 -10q-66 0 -104.5 18.5t-55 61.5t-16.5 117v525h186v-538q0 -26 10 -36t35 -10q8 0 15.5 1t20.5 2v-132q-22 -4 -44 -6.5t-47 -2.5z" />
    <glyph glyph-name="m" unicode="m" horiz-adv-x="897" 
d="M57 0v514h157l10 -78q56 91 164 91q105 0 139 -88q53 88 158 88q158 0 158 -185v-342h-184v327q0 55 -50 55q-37 0 -67 -29v-11v-342h-184v327q0 55 -49 55q-36 0 -68 -29v-353h-184z" />
    <glyph glyph-name="n" unicode="n" horiz-adv-x="603" 
d="M57 0v514h159l10 -79q56 92 166 92q157 0 157 -186v-341h-186v326q0 56 -51 56q-37 0 -69 -29v-353h-186z" />
    <glyph glyph-name="o" unicode="o" horiz-adv-x="591" 
d="M295 -15q-125 0 -192 70.5t-67 202.5q0 131 67 201.5t193 70.5q125 0 192 -70.5t67 -202.5q0 -131 -67 -201.5t-193 -70.5zM295 121q40 0 56 31t16 106q0 74 -16 105t-55 31q-40 0 -56 -31t-16 -106q0 -74 16 -105t55 -31z" />
    <glyph glyph-name="p" unicode="p" horiz-adv-x="607" 
d="M57 -192v706h159l10 -76q58 89 167 89q178 0 178 -270t-178 -270q-93 0 -150 66v-245h-186zM316 132q37 0 52 28t15 97t-15 97t-52 28q-41 0 -73 -29v-192q32 -29 73 -29z" />
    <glyph glyph-name="q" unicode="q" horiz-adv-x="607" 
d="M364 -192v245q-57 -66 -150 -66q-178 0 -178 270t178 270q109 0 167 -89l10 76h159v-706h-186zM291 132q41 0 73 29v192q-32 29 -73 29q-37 0 -52 -28t-15 -97t15 -97t52 -28z" />
    <glyph glyph-name="r" unicode="r" horiz-adv-x="422" 
d="M57 0v514h159l13 -103q22 54 65.5 83t104.5 29h6v-169h-9q-52 0 -88 -11t-65 -35v-308h-186z" />
    <glyph glyph-name="s" unicode="s" horiz-adv-x="474" 
d="M214 -15q-50 0 -99 10t-84 27l35 133q29 -14 72.5 -24t79.5 -10t50.5 7t14.5 24q0 25 -38 32l-66 14q-71 16 -104.5 55t-33.5 108q0 80 56 124.5t156 44.5q53 0 91.5 -7t86.5 -26l-30 -127q-33 13 -64 18t-73 5q-66 0 -66 -30q0 -14 9 -21t35 -12l45 -10q61 -13 95 -32.5
t48.5 -51t14.5 -81.5q0 -87 -56.5 -128.5t-174.5 -41.5z" />
    <glyph glyph-name="t" unicode="t" horiz-adv-x="441" 
d="M308 -10q-81 0 -128.5 20t-68 65.5t-20.5 124.5v184h-85v125l55 4q23 2 32.5 9.5t10.5 25.5l10 111h158v-145h142v-130h-142v-192q0 -38 14.5 -51t58.5 -13q27 0 63 6v-132q-24 -7 -47.5 -9.5t-52.5 -2.5z" />
    <glyph glyph-name="u" unicode="u" horiz-adv-x="599" 
d="M212 -13q-158 0 -158 186v341h186v-323q0 -32 10 -45.5t35 -13.5q39 0 71 29v353h186v-514h-159l-10 75q-31 -46 -69.5 -67t-91.5 -21z" />
    <glyph glyph-name="v" unicode="v" horiz-adv-x="549" 
d="M154 0l-145 514h190l78 -366l80 366h183l-149 -514h-237z" />
    <glyph glyph-name="w" unicode="w" horiz-adv-x="818" 
d="M131 0l-122 514h173l58 -381l74 377h192l78 -386l53 390h172l-122 -514h-206l-74 353l-70 -353h-206z" />
    <glyph glyph-name="x" unicode="x" horiz-adv-x="544" 
d="M1 0l162 262l-161 252h190l81 -131l81 131h180l-159 -249l168 -265h-193l-84 134l-81 -134h-184z" />
    <glyph glyph-name="y" unicode="y" horiz-adv-x="550" 
d="M152 11l-144 503h191l80 -366l89 366h180l-160 -539q-28 -94 -87.5 -139t-157.5 -45q-28 0 -54 3.5t-50 10.5v132q41 -7 72 -7q50 0 81.5 19t47.5 62h-88z" />
    <glyph glyph-name="z" unicode="z" horiz-adv-x="495" 
d="M40 0v125l209 253h-204v136h405v-125l-209 -253h214v-136h-415z" />
    <glyph glyph-name="braceleft" unicode="{" horiz-adv-x="446" 
d="M296 -173q-94 0 -146 39.5t-52 112.5q0 26 9 51.5t31 65.5q17 30 24 48t7 33q0 49 -56 49h-77v131h76q57 0 57 49q0 15 -7 33t-24 48q-22 40 -31 66t-9 51q0 73 52 112.5t146 39.5q32 0 65 -4.5t59 -12.5v-127q-37 10 -77 10q-39 0 -55.5 -11t-16.5 -37q0 -17 8 -35
t24 -44q21 -33 28.5 -52.5t7.5 -40.5q0 -47 -30.5 -76.5t-84.5 -34.5q54 -4 84.5 -33.5t30.5 -76.5q0 -21 -7.5 -40.5t-28.5 -52.5q-16 -26 -24 -44t-8 -35q0 -26 16.5 -37t55.5 -11q40 0 77 10v-127q-26 -8 -59 -12.5t-65 -4.5z" />
    <glyph glyph-name="bar" unicode="|" horiz-adv-x="316" 
d="M72 -192v934h172v-934h-172z" />
    <glyph glyph-name="braceright" unicode="}" horiz-adv-x="446" 
d="M150 -173q-32 0 -65 4.5t-59 12.5v127q37 -10 77 -10q39 0 55.5 11t16.5 37q0 17 -7.5 35t-24.5 44q-21 33 -28.5 52.5t-7.5 40.5q0 47 30.5 76.5t84.5 34.5q-54 4 -84.5 33.5t-30.5 76.5q0 21 7.5 40.5t28.5 52.5q17 26 24.5 44t7.5 35q0 26 -16.5 37t-55.5 11
q-40 0 -77 -10v127q26 8 59 12.5t65 4.5q95 0 146.5 -39.5t51.5 -112.5q0 -25 -8.5 -51t-31.5 -66q-17 -30 -24 -48t-7 -33q0 -49 57 -49h76v-131h-77q-56 0 -56 -49q0 -15 7 -33t24 -48q23 -40 31.5 -65.5t8.5 -51.5q0 -73 -51.5 -112.5t-146.5 -39.5z" />
    <glyph glyph-name="asciitilde" unicode="~" 
d="M388 170q-50 0 -81 23.5t-60 84.5l-13 27q-15 31 -21 39t-15 8q-12 0 -18.5 -14t-9 -50.5t-2.5 -104.5h-129q0 167 35.5 239.5t117.5 72.5q50 0 81 -23.5t60 -84.5l13 -27q15 -31 21 -39t16 -8q12 0 18 14t8.5 51t2.5 104h129q0 -166 -35.5 -239t-117.5 -73z" />
    <glyph glyph-name="uni00A0" unicode="&#xa0;" horiz-adv-x="190" 
 />
    <glyph glyph-name="exclamdown" unicode="&#xa1;" horiz-adv-x="308" 
d="M61 353v161h186v-161h-186zM63 -160l16 442h150l16 -442h-182z" />
    <glyph glyph-name="cent" unicode="&#xa2;" 
d="M512 54q-51 -18 -109 -24v-97h-145v104q-184 42 -184 253q0 106 48 174.5t136 91.5v99h145v-90q52 -7 108 -25l-32 -130q-52 16 -94 16q-68 0 -97 -30.5t-29 -104.5q0 -67 28.5 -94.5t99.5 -27.5q27 0 49 3.5t44 11.5z" />
    <glyph glyph-name="sterling" unicode="&#xa3;" 
d="M72 0v128q42 14 65 49t23 85q0 12 -1 24h-110v110h82q-7 23 -12 47.5t-5 50.5q0 92 66.5 143.5t184.5 51.5q87 0 171 -38l-38 -132q-53 19 -109 19q-47 0 -77.5 -23.5t-30.5 -60.5q0 -17 2 -31t6 -27h182v-110h-148q2 -12 2 -24q0 -74 -49 -118h271v-144h-475z" />
    <glyph glyph-name="currency" unicode="&#xa4;" 
d="M122 60l-99 98l89 88q-15 37 -15 82t15 83l-89 88l99 98l90 -89q35 14 78 14t79 -14l89 89l99 -98l-89 -88q15 -38 15 -83t-15 -82l89 -88l-99 -98l-89 88q-36 -14 -79 -14t-80 14zM290 244q36 0 57 23t21 61t-21 61t-57 23t-57 -23t-21 -61t21 -61t57 -23z" />
    <glyph glyph-name="yen" unicode="&#xa5;" 
d="M39 105v80h160v60h-160v80h126l-165 349h181l112 -274l115 274h172l-168 -349h128v-80h-159v-60h159v-80h-159v-105h-182v105h-160z" />
    <glyph glyph-name="section" unicode="&#xa7;" horiz-adv-x="591" 
d="M287 -72q-39 0 -79.5 5.5t-77 14.5t-62.5 21l34 126q49 -16 90 -23.5t84 -7.5q91 0 91 38q0 17 -11.5 25t-41.5 12l-100 13q-77 10 -117.5 47.5t-40.5 100.5q0 39 17 71t47 51q-62 44 -62 132q0 86 62.5 130t183.5 44q39 0 79.5 -5t77.5 -14.5t62 -21.5l-34 -126
q-49 17 -89.5 24t-84.5 7q-91 0 -91 -38q0 -17 11.5 -25t41.5 -12l100 -13q77 -10 117.5 -47.5t40.5 -100.5q0 -39 -17 -71t-47 -51q62 -44 62 -132q0 -85 -62 -129.5t-184 -44.5zM368 270h2q19 20 19 48q0 26 -16.5 39.5t-53.5 17.5l-96 11h-2q-19 -20 -19 -48
q0 -25 16.5 -38.5t53.5 -18.5z" />
    <glyph glyph-name="dieresis" unicode="&#xa8;" horiz-adv-x="430" 
d="M30 606v145h152v-145h-152zM248 606v145h152v-145h-152z" />
    <glyph glyph-name="copyright" unicode="&#xa9;" horiz-adv-x="794" 
d="M397 -15q-105 0 -181.5 43t-118 122t-41.5 187t41.5 187t118 122t181.5 43t181.5 -43t118 -122t41.5 -187t-41.5 -187t-118 -122t-181.5 -43zM397 50q83 0 144 35.5t94.5 100t33.5 151.5q0 88 -33.5 152t-94.5 99.5t-144 35.5t-144 -35.5t-94.5 -99.5t-33.5 -152
q0 -87 33.5 -151.5t94.5 -100t144 -35.5zM418 139q-185 0 -185 196q0 95 49 148.5t136 53.5q29 0 58.5 -7t52.5 -18l-26 -86q-33 15 -72 15q-43 0 -62 -25t-19 -83q0 -52 18.5 -74.5t60.5 -22.5q22 0 38.5 3.5t35.5 11.5l26 -87q-50 -25 -111 -25z" />
    <glyph glyph-name="ordfeminine" unicode="&#xaa;" horiz-adv-x="440" 
d="M151 289q-52 0 -82 30t-30 82q0 66 41 95t132 29h49q-1 32 -14.5 44t-47.5 12q-44 0 -112 -17l-24 103q38 11 77.5 16.5t76.5 5.5q89 0 130 -36.5t41 -116.5v-238h-109l-10 53q-32 -62 -118 -62zM204 385q32 0 57 15v53h-44q-49 0 -49 -35q0 -33 36 -33z" />
    <glyph glyph-name="guillemotleft" unicode="&#xab;" horiz-adv-x="783" 
d="M205 47l-163 213l163 213h216l-166 -213l166 -213h-216zM526 47l-163 213l163 213h216l-166 -213l166 -213h-216z" />
    <glyph glyph-name="logicalnot" unicode="&#xac;" 
d="M366 170v166h-301v136h442v-302h-141z" />
    <glyph glyph-name="uni00AD" unicode="&#xad;" horiz-adv-x="405" 
d="M42 195v164h321v-164h-321z" />
    <glyph glyph-name="registered" unicode="&#xae;" horiz-adv-x="575" 
d="M287 194q-73 0 -127.5 30.5t-85 86t-30.5 129.5t30.5 129.5t85.5 86.5t128 31q74 0 128.5 -30.5t84.5 -86t30 -129.5t-30.5 -130t-85 -86.5t-128.5 -30.5zM287 241q88 0 139.5 54t51.5 145q0 92 -52 146t-138 54q-88 0 -139.5 -54t-51.5 -145t51.5 -145.5t138.5 -54.5z
M195 322v255h97q44 0 69 -22t25 -63q0 -54 -42 -72l57 -98h-70l-49 86h-25v-86h-62zM288 524h-31v-63h31q33 0 33 31q0 32 -33 32z" />
    <glyph glyph-name="degree" unicode="&#xb0;" horiz-adv-x="446" 
d="M223 350q-76 0 -123.5 46.5t-47.5 122.5t47.5 122.5t123.5 46.5q77 0 124 -46.5t47 -122.5t-47 -122.5t-124 -46.5zM223 449q30 0 48 19.5t18 50.5q0 32 -18.5 51t-47.5 19q-30 0 -48 -19t-18 -51q0 -31 18.5 -50.5t47.5 -19.5z" />
    <glyph glyph-name="uni00B2" unicode="&#xb2;" horiz-adv-x="373" 
d="M39 400v83l110 82q32 23 44 39.5t12 34.5q0 41 -55 41q-37 0 -77 -20l-37 89q59 32 126 32q77 0 120.5 -36t43.5 -99q0 -43 -20.5 -72.5t-70.5 -61.5l-32 -20h130v-92h-294z" />
    <glyph glyph-name="uni00B3" unicode="&#xb3;" horiz-adv-x="376" 
d="M166 391q-78 0 -138 23l22 86q58 -16 100 -16q32 0 44.5 7t12.5 24q0 29 -40 29h-67v86h67q37 0 37 26q0 33 -59 33q-38 0 -83 -13l-27 83q62 22 128 22q77 0 118 -26.5t41 -76.5q0 -34 -18 -56.5t-51 -30.5q77 -19 77 -92q0 -52 -42.5 -80t-121.5 -28z" />
    <glyph glyph-name="acute" unicode="&#xb4;" horiz-adv-x="368" 
d="M30 592l127 189h181l-149 -189h-159z" />
    <glyph glyph-name="paragraph" unicode="&#xb6;" horiz-adv-x="617" 
d="M291 -192v442h-19q-106 0 -162.5 55t-56.5 157t56.5 157t162.5 55h113v-866h-94zM451 -192v866h94v-866h-94z" />
    <glyph glyph-name="periodcentered" unicode="&#xb7;" horiz-adv-x="286" 
d="M50 180v182h186v-182h-186z" />
    <glyph glyph-name="cedilla" unicode="&#xb8;" horiz-adv-x="328" 
d="M127 -271q-53 0 -97 12v93q22 -4 39.5 -5.5t32.5 -1.5q32 0 45.5 7.5t13.5 20.5q0 16 -18.5 22.5t-65.5 6.5l20 127l95 -1l-10 -55q60 -9 88 -35.5t28 -73.5q0 -117 -171 -117z" />
    <glyph glyph-name="uni00B9" unicode="&#xb9;" horiz-adv-x="298" 
d="M117 400v238h-88v93l79 3q18 1 21 17l5 26h105v-377h-122z" />
    <glyph glyph-name="ordmasculine" unicode="&#xba;" horiz-adv-x="439" 
d="M219 287q-91 0 -138.5 52t-47.5 149q0 98 48 149.5t139 51.5q90 0 138 -51.5t48 -149.5q0 -97 -48 -149t-139 -52zM219 389q29 0 40.5 22t11.5 77t-11 77t-40 22q-28 0 -40 -22t-12 -77t11.5 -77t39.5 -22z" />
    <glyph glyph-name="guillemotright" unicode="&#xbb;" horiz-adv-x="783" 
d="M257 47h-216l166 213l-166 213h216l163 -213zM578 47h-216l166 213l-166 213h216l163 -213z" />
    <glyph glyph-name="onequarter" unicode="&#xbc;" horiz-adv-x="866" 
d="M144 0l390 674h148l-390 -674h-148zM675 0v69h-191v77l169 226h129v-224h45v-79h-45v-69h-107zM590 148h90v123zM117 302v238h-88v93l79 3q18 1 21 17l5 26h105v-377h-122z" />
    <glyph glyph-name="onehalf" unicode="&#xbd;" horiz-adv-x="903" 
d="M144 0l390 674h148l-390 -674h-148zM569 0v83l110 82q32 23 44 39.5t12 34.5q0 41 -55 41q-37 0 -77 -20l-37 89q59 32 126 32q77 0 120.5 -36t43.5 -99q0 -43 -20.5 -72.5t-70.5 -61.5l-32 -20h130v-92h-294zM117 302v238h-88v93l79 3q18 1 21 17l5 26h105v-377h-122z
" />
    <glyph glyph-name="threequarters" unicode="&#xbe;" horiz-adv-x="919" 
d="M197 0l390 674h148l-390 -674h-148zM728 0v69h-191v77l169 226h129v-224h45v-79h-45v-69h-107zM643 148h90v123zM166 293q-78 0 -138 23l22 86q58 -16 100 -16q32 0 44.5 7t12.5 24q0 29 -40 29h-67v86h67q37 0 37 26q0 33 -59 33q-38 0 -83 -13l-27 83q62 22 128 22
q77 0 118 -26.5t41 -76.5q0 -34 -18 -56.5t-51 -30.5q77 -19 77 -92q0 -52 -42.5 -80t-121.5 -28z" />
    <glyph glyph-name="questiondown" unicode="&#xbf;" horiz-adv-x="495" 
d="M182 353v161h186v-161h-186zM274 -177q-247 0 -247 182q0 54 22 93.5t71 73.5q33 23 49 38t21 31t5 41h160q0 -52 -6.5 -84.5t-25 -54.5t-53.5 -46q-42 -28 -55 -43.5t-13 -37.5t19 -32t62 -10q40 0 75.5 6.5t73.5 21.5l39 -141q-58 -21 -102.5 -29.5t-94.5 -8.5z" />
    <glyph glyph-name="Agrave" unicode="&#xc0;" horiz-adv-x="654" 
d="M7 0l190 674h254l196 -674h-189l-31 124h-206l-31 -124h-183zM253 255h141l-70 284zM250 741l-184 181h205l149 -181h-170z" />
    <glyph glyph-name="Aacute" unicode="&#xc1;" horiz-adv-x="654" 
d="M7 0l190 674h254l196 -674h-189l-31 124h-206l-31 -124h-183zM253 255h141l-70 284zM215 741l149 181h205l-184 -181h-170z" />
    <glyph glyph-name="Acircumflex" unicode="&#xc2;" horiz-adv-x="654" 
d="M7 0l190 674h254l196 -674h-189l-31 124h-206l-31 -124h-183zM253 255h141l-70 284zM101 741l129 181h187l129 -181h-164l-58 95l-59 -95h-164z" />
    <glyph glyph-name="Atilde" unicode="&#xc3;" horiz-adv-x="654" 
d="M7 0l190 674h254l196 -674h-189l-31 124h-206l-31 -124h-183zM253 255h141l-70 284zM130 741q0 98 28.5 142t92.5 44q36 0 60 -11t57 -44l11 -11q14 -13 19.5 -17t12.5 -4q14 0 18.5 16.5t4.5 65.5h108q0 -97 -28 -141.5t-93 -44.5q-36 0 -60 11t-57 44l-11 11
q-13 14 -19 17.5t-13 3.5q-13 0 -18 -16.5t-5 -65.5h-108z" />
    <glyph glyph-name="Adieresis" unicode="&#xc4;" horiz-adv-x="654" 
d="M7 0l190 674h254l196 -674h-189l-31 124h-206l-31 -124h-183zM253 255h141l-70 284zM139 739v145h152v-145h-152zM357 739v145h152v-145h-152z" />
    <glyph glyph-name="Aring" unicode="&#xc5;" horiz-adv-x="654" 
d="M7 0l190 674h254l196 -674h-189l-31 124h-206l-31 -124h-183zM253 255h141l-70 284zM324 732q-57 0 -93.5 34t-36.5 94t36.5 94t93.5 34t93.5 -34.5t36.5 -93.5t-36.5 -93.5t-93.5 -34.5zM324 808q23 0 36.5 13.5t13.5 38.5q0 26 -14 39t-36 13t-36 -13t-14 -39
q0 -25 14 -38.5t36 -13.5z" />
    <glyph glyph-name="AE" unicode="&#xc6;" horiz-adv-x="952" 
d="M0 0l343 674h554v-146h-262v-114h211v-146h-211v-122h266v-146h-445v122h-205l-61 -122h-190zM452 528l-136 -275h140v275h-4z" />
    <glyph glyph-name="Ccedilla" unicode="&#xc7;" horiz-adv-x="567" 
d="M359 -15q-318 0 -318 347q0 174 82.5 265.5t239.5 91.5q46 0 90.5 -8t80.5 -23l-33 -140q-32 9 -61 14t-52 5q-76 0 -111.5 -50.5t-35.5 -157.5q0 -102 35 -147t114 -45q27 0 57.5 5t61.5 14l33 -139q-32 -15 -80.5 -23.5t-102.5 -8.5zM311 -271q-53 0 -97 12v93
q22 -4 39.5 -5.5t32.5 -1.5q32 0 45.5 7.5t13.5 20.5q0 16 -18.5 22.5t-65.5 6.5l20 127l95 -1l-10 -55q60 -9 88 -35.5t28 -73.5q0 -117 -171 -117z" />
    <glyph glyph-name="Egrave" unicode="&#xc8;" horiz-adv-x="577" 
d="M70 0v674h452v-146h-267v-114h216v-146h-216v-122h271v-146h-456zM230 741l-184 181h205l149 -181h-170z" />
    <glyph glyph-name="Eacute" unicode="&#xc9;" horiz-adv-x="577" 
d="M70 0v674h452v-146h-267v-114h216v-146h-216v-122h271v-146h-456zM195 741l149 181h205l-184 -181h-170z" />
    <glyph glyph-name="Ecircumflex" unicode="&#xca;" horiz-adv-x="577" 
d="M70 0v674h452v-146h-267v-114h216v-146h-216v-122h271v-146h-456zM81 741l129 181h187l129 -181h-164l-58 95l-59 -95h-164z" />
    <glyph glyph-name="Edieresis" unicode="&#xcb;" horiz-adv-x="577" 
d="M70 0v674h452v-146h-267v-114h216v-146h-216v-122h271v-146h-456zM119 739v145h152v-145h-152zM337 739v145h152v-145h-152z" />
    <glyph glyph-name="Igrave" unicode="&#xcc;" horiz-adv-x="332" 
d="M70 0v674h192v-674h-192zM92 741l-184 181h205l149 -181h-170z" />
    <glyph glyph-name="Iacute" unicode="&#xcd;" horiz-adv-x="332" 
d="M70 0v674h192v-674h-192zM57 741l149 181h205l-184 -181h-170z" />
    <glyph glyph-name="Icircumflex" unicode="&#xce;" horiz-adv-x="332" 
d="M70 0v674h192v-674h-192zM-57 741l129 181h187l129 -181h-164l-58 95l-59 -95h-164z" />
    <glyph glyph-name="Idieresis" unicode="&#xcf;" horiz-adv-x="332" 
d="M70 0v674h192v-674h-192zM-19 739v145h152v-145h-152zM199 739v145h152v-145h-152z" />
    <glyph glyph-name="Eth" unicode="&#xd0;" horiz-adv-x="723" 
d="M94 0v280h-66v120h66v274h249q170 0 254.5 -85.5t84.5 -252.5q0 -166 -84.5 -251t-254.5 -85h-249zM373 280h-95v-132h63q77 0 109.5 42t32.5 147t-32.5 147t-109.5 42h-63v-126h95v-120z" />
    <glyph glyph-name="Ntilde" unicode="&#xd1;" horiz-adv-x="724" 
d="M70 0v674h200l217 -422v422h167v-674h-200l-217 422v-422h-167zM165 741q0 98 28.5 142t92.5 44q36 0 60 -11t57 -44l11 -11q14 -13 19.5 -17t12.5 -4q14 0 18.5 16.5t4.5 65.5h108q0 -97 -28 -141.5t-93 -44.5q-36 0 -60 11t-57 44l-11 11q-13 14 -19 17.5t-13 3.5
q-13 0 -18 -16.5t-5 -65.5h-108z" />
    <glyph glyph-name="Ograve" unicode="&#xd2;" horiz-adv-x="700" 
d="M350 -15q-151 0 -230 90t-79 262t79 262t230 90t230 -90t79 -262t-79 -262t-230 -90zM350 137q59 0 84 45.5t25 154.5t-25 154.5t-84 45.5t-84 -45.5t-25 -154.5t25 -154.5t84 -45.5zM276 741l-184 181h205l149 -181h-170z" />
    <glyph glyph-name="Oacute" unicode="&#xd3;" horiz-adv-x="700" 
d="M350 -15q-151 0 -230 90t-79 262t79 262t230 90t230 -90t79 -262t-79 -262t-230 -90zM350 137q59 0 84 45.5t25 154.5t-25 154.5t-84 45.5t-84 -45.5t-25 -154.5t25 -154.5t84 -45.5zM241 741l149 181h205l-184 -181h-170z" />
    <glyph glyph-name="Ocircumflex" unicode="&#xd4;" horiz-adv-x="700" 
d="M350 -15q-151 0 -230 90t-79 262t79 262t230 90t230 -90t79 -262t-79 -262t-230 -90zM350 137q59 0 84 45.5t25 154.5t-25 154.5t-84 45.5t-84 -45.5t-25 -154.5t25 -154.5t84 -45.5zM127 741l129 181h187l129 -181h-164l-58 95l-59 -95h-164z" />
    <glyph glyph-name="Otilde" unicode="&#xd5;" horiz-adv-x="700" 
d="M350 -15q-151 0 -230 90t-79 262t79 262t230 90t230 -90t79 -262t-79 -262t-230 -90zM350 137q59 0 84 45.5t25 154.5t-25 154.5t-84 45.5t-84 -45.5t-25 -154.5t25 -154.5t84 -45.5zM156 741q0 98 28.5 142t92.5 44q36 0 60 -11t57 -44l11 -11q14 -13 19.5 -17t12.5 -4
q14 0 18.5 16.5t4.5 65.5h108q0 -97 -28 -141.5t-93 -44.5q-36 0 -60 11t-57 44l-11 11q-13 14 -19 17.5t-13 3.5q-13 0 -18 -16.5t-5 -65.5h-108z" />
    <glyph glyph-name="Odieresis" unicode="&#xd6;" horiz-adv-x="700" 
d="M350 -15q-151 0 -230 90t-79 262t79 262t230 90t230 -90t79 -262t-79 -262t-230 -90zM350 137q59 0 84 45.5t25 154.5t-25 154.5t-84 45.5t-84 -45.5t-25 -154.5t25 -154.5t84 -45.5zM165 739v145h152v-145h-152zM383 739v145h152v-145h-152z" />
    <glyph glyph-name="multiply" unicode="&#xd7;" 
d="M153 99l-95 95l137 137l-137 137l95 95l137 -137l137 137l95 -95l-137 -137l137 -137l-95 -95l-137 137z" />
    <glyph glyph-name="Oslash" unicode="&#xd8;" horiz-adv-x="700" 
d="M140 -43l-74 51l50 72q-75 90 -75 257q0 172 79 262t230 90q97 0 164 -37l46 65l74 -51l-50 -72q75 -90 75 -257q0 -172 -79 -262t-230 -90q-97 0 -164 37zM227 337q0 -30 2.5 -57t6.5 -48l191 281q-27 26 -77 26q-65 0 -94 -47.5t-29 -154.5zM350 135q65 0 94 47.5
t29 154.5q0 63 -9 105l-191 -281q27 -26 77 -26z" />
    <glyph glyph-name="Ugrave" unicode="&#xd9;" horiz-adv-x="686" 
d="M343 -15q-149 0 -215.5 68.5t-66.5 223.5v397h193v-438q0 -96 90 -96q88 0 88 96v438h193v-397q0 -155 -66.5 -223.5t-215.5 -68.5zM269 741l-184 181h205l149 -181h-170z" />
    <glyph glyph-name="Uacute" unicode="&#xda;" horiz-adv-x="686" 
d="M343 -15q-149 0 -215.5 68.5t-66.5 223.5v397h193v-438q0 -96 90 -96q88 0 88 96v438h193v-397q0 -155 -66.5 -223.5t-215.5 -68.5zM234 741l149 181h205l-184 -181h-170z" />
    <glyph glyph-name="Ucircumflex" unicode="&#xdb;" horiz-adv-x="686" 
d="M343 -15q-149 0 -215.5 68.5t-66.5 223.5v397h193v-438q0 -96 90 -96q88 0 88 96v438h193v-397q0 -155 -66.5 -223.5t-215.5 -68.5zM120 741l129 181h187l129 -181h-164l-58 95l-59 -95h-164z" />
    <glyph glyph-name="Udieresis" unicode="&#xdc;" horiz-adv-x="686" 
d="M343 -15q-149 0 -215.5 68.5t-66.5 223.5v397h193v-438q0 -96 90 -96q88 0 88 96v438h193v-397q0 -155 -66.5 -223.5t-215.5 -68.5zM158 739v145h152v-145h-152zM376 739v145h152v-145h-152z" />
    <glyph glyph-name="Yacute" unicode="&#xdd;" horiz-adv-x="625" 
d="M219 0v220l-219 454h193l125 -267l126 267h181l-214 -434v-240h-192zM210 741l149 181h205l-184 -181h-170z" />
    <glyph glyph-name="Thorn" unicode="&#xde;" horiz-adv-x="641" 
d="M70 0v674h185v-102h96q261 0 261 -230t-261 -230h-96v-112h-185zM329 433h-74v-182h74q50 0 73 22t23 69t-23 69t-73 22z" />
    <glyph glyph-name="germandbls" unicode="&#xdf;" horiz-adv-x="663" 
d="M396 -10q-24 0 -49.5 3t-45.5 7v132q20 -5 55 -5q48 0 67.5 19.5t19.5 65.5q0 48 -21.5 69t-71.5 21h-33v128h21q76 0 76 79q0 81 -81 81q-90 0 -90 -98v-492h-186v481q0 125 66 186t201 61q264 0 264 -200q0 -117 -94 -151q133 -35 133 -188q0 -102 -56.5 -150.5
t-174.5 -48.5z" />
    <glyph glyph-name="agrave" unicode="&#xe0;" horiz-adv-x="564" 
d="M188 -13q-76 0 -117.5 39.5t-41.5 112.5q0 92 54 132t178 40h79q-1 44 -19 61t-64 17q-33 0 -73 -6.5t-78 -18.5l-31 131q47 15 100.5 23.5t103.5 8.5q122 0 177.5 -49t55.5 -158v-320h-159l-11 71q-24 -40 -64.5 -62t-89.5 -22zM255 115q23 0 47 9.5t38 24.5v68h-70
q-66 0 -66 -55q0 -47 51 -47zM222 592l-149 189h181l127 -189h-159z" />
    <glyph glyph-name="aacute" unicode="&#xe1;" horiz-adv-x="564" 
d="M188 -13q-76 0 -117.5 39.5t-41.5 112.5q0 92 54 132t178 40h79q-1 44 -19 61t-64 17q-33 0 -73 -6.5t-78 -18.5l-31 131q47 15 100.5 23.5t103.5 8.5q122 0 177.5 -49t55.5 -158v-320h-159l-11 71q-24 -40 -64.5 -62t-89.5 -22zM255 115q23 0 47 9.5t38 24.5v68h-70
q-66 0 -66 -55q0 -47 51 -47zM200 592l127 189h181l-149 -189h-159z" />
    <glyph glyph-name="acircumflex" unicode="&#xe2;" horiz-adv-x="564" 
d="M188 -13q-76 0 -117.5 39.5t-41.5 112.5q0 92 54 132t178 40h79q-1 44 -19 61t-64 17q-33 0 -73 -6.5t-78 -18.5l-31 131q47 15 100.5 23.5t103.5 8.5q122 0 177.5 -49t55.5 -158v-320h-159l-11 71q-24 -40 -64.5 -62t-89.5 -22zM255 115q23 0 47 9.5t38 24.5v68h-70
q-66 0 -66 -55q0 -47 51 -47zM71 592l132 189h177l130 -189h-154l-65 94l-64 -94h-156z" />
    <glyph glyph-name="atilde" unicode="&#xe3;" horiz-adv-x="564" 
d="M188 -13q-76 0 -117.5 39.5t-41.5 112.5q0 92 54 132t178 40h79q-1 44 -19 61t-64 17q-33 0 -73 -6.5t-78 -18.5l-31 131q47 15 100.5 23.5t103.5 8.5q122 0 177.5 -49t55.5 -158v-320h-159l-11 71q-24 -40 -64.5 -62t-89.5 -22zM255 115q23 0 47 9.5t38 24.5v68h-70
q-66 0 -66 -55q0 -47 51 -47zM87 592q0 98 28 142t90 44q36 0 60 -11t57 -44l11 -11q14 -13 19.5 -17t12.5 -4q11 0 15.5 16.5t4.5 65.5h108q0 -97 -28 -141.5t-90 -44.5q-36 0 -60 11t-57 44l-11 11q-13 14 -19 17.5t-13 3.5q-11 0 -15.5 -16.5t-4.5 -65.5h-108z" />
    <glyph glyph-name="adieresis" unicode="&#xe4;" horiz-adv-x="564" 
d="M188 -13q-76 0 -117.5 39.5t-41.5 112.5q0 92 54 132t178 40h79q-1 44 -19 61t-64 17q-33 0 -73 -6.5t-78 -18.5l-31 131q47 15 100.5 23.5t103.5 8.5q122 0 177.5 -49t55.5 -158v-320h-159l-11 71q-24 -40 -64.5 -62t-89.5 -22zM255 115q23 0 47 9.5t38 24.5v68h-70
q-66 0 -66 -55q0 -47 51 -47zM106 606v145h152v-145h-152zM324 606v145h152v-145h-152z" />
    <glyph glyph-name="aring" unicode="&#xe5;" horiz-adv-x="564" 
d="M188 -13q-76 0 -117.5 39.5t-41.5 112.5q0 92 54 132t178 40h79q-1 44 -19 61t-64 17q-33 0 -73 -6.5t-78 -18.5l-31 131q47 15 100.5 23.5t103.5 8.5q122 0 177.5 -49t55.5 -158v-320h-159l-11 71q-24 -40 -64.5 -62t-89.5 -22zM255 115q23 0 47 9.5t38 24.5v68h-70
q-66 0 -66 -55q0 -47 51 -47zM291 593q-57 0 -93.5 33t-36.5 93t36.5 93t93.5 33t93.5 -33.5t36.5 -92.5t-36.5 -92.5t-93.5 -33.5zM291 667q23 0 36 13.5t13 38.5q0 26 -13.5 39t-35.5 13t-35.5 -13t-13.5 -39q0 -52 49 -52z" />
    <glyph glyph-name="ae" unicode="&#xe6;" horiz-adv-x="857" 
d="M198 -13q-79 0 -124 41t-45 111q0 92 54 132t178 40h81q-1 43 -20 60.5t-65 17.5q-33 0 -73 -6.5t-78 -18.5l-31 131q47 15 100.5 23.5t103.5 8.5q115 0 159 -49q54 52 149 52q122 0 180 -66.5t58 -207.5v-48h-310q6 -45 31.5 -64.5t76.5 -19.5q38 0 72.5 7.5t69.5 22.5
l38 -123q-80 -46 -196 -46q-152 0 -216 87q-74 -85 -193 -85zM587 410q-39 0 -55.5 -22t-19.5 -78h144q-1 55 -16.5 77.5t-52.5 22.5zM255 115q28 0 56.5 11.5t41.5 27.5q-7 29 -10 63h-73q-66 0 -66 -55q0 -47 51 -47z" />
    <glyph glyph-name="ccedilla" unicode="&#xe7;" horiz-adv-x="473" 
d="M300 -15q-130 0 -197 67.5t-67 197.5q0 132 70 206t195 74q83 0 148 -28l-30 -130q-44 16 -84 16q-56 0 -82.5 -33t-26.5 -104q0 -68 24 -96t83 -28q43 0 88 15l30 -130q-65 -27 -151 -27zM256 -271q-53 0 -97 12v93q22 -4 39.5 -5.5t32.5 -1.5q32 0 45.5 7.5t13.5 20.5
q0 16 -18.5 22.5t-65.5 6.5l20 127l95 -1l-10 -55q60 -9 88 -35.5t28 -73.5q0 -117 -171 -117z" />
    <glyph glyph-name="egrave" unicode="&#xe8;" horiz-adv-x="557" 
d="M307 -15q-271 0 -271 271q0 132 65 203t186 71q122 0 180 -66.5t58 -207.5v-48h-310q6 -45 31.5 -64.5t76.5 -19.5q37 0 71.5 7.5t70.5 22.5l38 -123q-80 -46 -196 -46zM286 410q-38 0 -54.5 -22.5t-19.5 -77.5h144q-1 56 -17 78t-53 22zM221 592l-149 189h181l127 -189
h-159z" />
    <glyph glyph-name="eacute" unicode="&#xe9;" horiz-adv-x="557" 
d="M307 -15q-271 0 -271 271q0 132 65 203t186 71q122 0 180 -66.5t58 -207.5v-48h-310q6 -45 31.5 -64.5t76.5 -19.5q37 0 71.5 7.5t70.5 22.5l38 -123q-80 -46 -196 -46zM286 410q-38 0 -54.5 -22.5t-19.5 -77.5h144q-1 56 -17 78t-53 22zM199 592l127 189h181l-149 -189
h-159z" />
    <glyph glyph-name="ecircumflex" unicode="&#xea;" horiz-adv-x="557" 
d="M307 -15q-271 0 -271 271q0 132 65 203t186 71q122 0 180 -66.5t58 -207.5v-48h-310q6 -45 31.5 -64.5t76.5 -19.5q37 0 71.5 7.5t70.5 22.5l38 -123q-80 -46 -196 -46zM286 410q-38 0 -54.5 -22.5t-19.5 -77.5h144q-1 56 -17 78t-53 22zM70 592l132 189h177l130 -189
h-154l-65 94l-64 -94h-156z" />
    <glyph glyph-name="edieresis" unicode="&#xeb;" horiz-adv-x="557" 
d="M307 -15q-271 0 -271 271q0 132 65 203t186 71q122 0 180 -66.5t58 -207.5v-48h-310q6 -45 31.5 -64.5t76.5 -19.5q37 0 71.5 7.5t70.5 22.5l38 -123q-80 -46 -196 -46zM286 410q-38 0 -54.5 -22.5t-19.5 -77.5h144q-1 56 -17 78t-53 22zM105 606v145h152v-145h-152z
M323 606v145h152v-145h-152z" />
    <glyph glyph-name="igrave" unicode="&#xec;" horiz-adv-x="328" 
d="M85 0v384h-65v130h251v-514h-186zM93 592l-149 189h181l127 -189h-159z" />
    <glyph glyph-name="iacute" unicode="&#xed;" horiz-adv-x="328" 
d="M85 0v384h-65v130h251v-514h-186zM71 592l127 189h181l-149 -189h-159z" />
    <glyph glyph-name="icircumflex" unicode="&#xee;" horiz-adv-x="328" 
d="M85 0v384h-65v130h251v-514h-186zM-58 592l132 189h177l130 -189h-154l-65 94l-64 -94h-156z" />
    <glyph glyph-name="idieresis" unicode="&#xef;" horiz-adv-x="328" 
d="M85 0v384h-65v130h251v-514h-186zM-23 606v145h152v-145h-152zM195 606v145h152v-145h-152z" />
    <glyph glyph-name="eth" unicode="&#xf0;" horiz-adv-x="582" 
d="M283 -15q-121 0 -186 62.5t-65 177.5q0 101 50.5 155t144.5 54q82 0 124 -51q-6 43 -22 76.5t-46 62.5l-103 -60l-43 70l74 43q-37 22 -90 46l55 114q98 -36 168 -82l96 56l43 -70l-69 -40q133 -125 133 -332q0 -138 -67.5 -210t-196.5 -72zM213 221q0 -52 18 -76.5
t56 -24.5q39 0 56.5 28.5t17.5 89.5q0 26 -2 50q-36 38 -78 38q-36 0 -52 -24.5t-16 -80.5z" />
    <glyph glyph-name="ntilde" unicode="&#xf1;" horiz-adv-x="603" 
d="M57 0v514h159l10 -79q56 92 166 92q157 0 157 -186v-341h-186v326q0 56 -51 56q-37 0 -69 -29v-353h-186zM99 592q0 98 28 142t90 44q36 0 60 -11t57 -44l11 -11q14 -13 19.5 -17t12.5 -4q11 0 15.5 16.5t4.5 65.5h108q0 -97 -28 -141.5t-90 -44.5q-36 0 -60 11t-57 44
l-11 11q-13 14 -19 17.5t-13 3.5q-11 0 -15.5 -16.5t-4.5 -65.5h-108z" />
    <glyph glyph-name="ograve" unicode="&#xf2;" horiz-adv-x="591" 
d="M295 -15q-125 0 -192 70.5t-67 202.5q0 131 67 201.5t193 70.5q125 0 192 -70.5t67 -202.5q0 -131 -67 -201.5t-193 -70.5zM295 121q40 0 56 31t16 106q0 74 -16 105t-55 31q-40 0 -56 -31t-16 -106q0 -74 16 -105t55 -31zM227 592l-149 189h181l127 -189h-159z" />
    <glyph glyph-name="oacute" unicode="&#xf3;" horiz-adv-x="591" 
d="M295 -15q-125 0 -192 70.5t-67 202.5q0 131 67 201.5t193 70.5q125 0 192 -70.5t67 -202.5q0 -131 -67 -201.5t-193 -70.5zM295 121q40 0 56 31t16 106q0 74 -16 105t-55 31q-40 0 -56 -31t-16 -106q0 -74 16 -105t55 -31zM205 592l127 189h181l-149 -189h-159z" />
    <glyph glyph-name="ocircumflex" unicode="&#xf4;" horiz-adv-x="591" 
d="M295 -15q-125 0 -192 70.5t-67 202.5q0 131 67 201.5t193 70.5q125 0 192 -70.5t67 -202.5q0 -131 -67 -201.5t-193 -70.5zM295 121q40 0 56 31t16 106q0 74 -16 105t-55 31q-40 0 -56 -31t-16 -106q0 -74 16 -105t55 -31zM76 592l132 189h177l130 -189h-154l-65 94
l-64 -94h-156z" />
    <glyph glyph-name="otilde" unicode="&#xf5;" horiz-adv-x="591" 
d="M295 -15q-125 0 -192 70.5t-67 202.5q0 131 67 201.5t193 70.5q125 0 192 -70.5t67 -202.5q0 -131 -67 -201.5t-193 -70.5zM295 121q40 0 56 31t16 106q0 74 -16 105t-55 31q-40 0 -56 -31t-16 -106q0 -74 16 -105t55 -31zM92 592q0 98 28 142t90 44q36 0 60 -11t57 -44
l11 -11q14 -13 19.5 -17t12.5 -4q11 0 15.5 16.5t4.5 65.5h108q0 -97 -28 -141.5t-90 -44.5q-36 0 -60 11t-57 44l-11 11q-13 14 -19 17.5t-13 3.5q-11 0 -15.5 -16.5t-4.5 -65.5h-108z" />
    <glyph glyph-name="odieresis" unicode="&#xf6;" horiz-adv-x="591" 
d="M295 -15q-125 0 -192 70.5t-67 202.5q0 131 67 201.5t193 70.5q125 0 192 -70.5t67 -202.5q0 -131 -67 -201.5t-193 -70.5zM295 121q40 0 56 31t16 106q0 74 -16 105t-55 31q-40 0 -56 -31t-16 -106q0 -74 16 -105t55 -31zM111 606v145h152v-145h-152zM329 606v145h152
v-145h-152z" />
    <glyph glyph-name="divide" unicode="&#xf7;" 
d="M211 468v129h158v-129h-158zM69 262v142h442v-142h-442zM211 69v129h158v-129h-158z" />
    <glyph glyph-name="oslash" unicode="&#xf8;" horiz-adv-x="591" 
d="M135 -43l-71 49l37 52q-65 70 -65 200q0 131 67 201.5t193 70.5q71 0 124 -23l36 51l71 -49l-37 -52q65 -70 65 -200q0 -131 -67 -201.5t-193 -70.5q-71 0 -124 23zM214 257q0 -38 3 -65l129 193q-18 16 -50 16q-45 0 -63.5 -32.5t-18.5 -111.5zM295 114q45 0 63.5 32.5
t18.5 111.5q0 45 -3 66l-129 -195q19 -15 50 -15z" />
    <glyph glyph-name="ugrave" unicode="&#xf9;" horiz-adv-x="599" 
d="M212 -13q-158 0 -158 186v341h186v-323q0 -32 10 -45.5t35 -13.5q39 0 71 29v353h186v-514h-159l-10 75q-31 -46 -69.5 -67t-91.5 -21zM229 592l-149 189h181l127 -189h-159z" />
    <glyph glyph-name="uacute" unicode="&#xfa;" horiz-adv-x="599" 
d="M212 -13q-158 0 -158 186v341h186v-323q0 -32 10 -45.5t35 -13.5q39 0 71 29v353h186v-514h-159l-10 75q-31 -46 -69.5 -67t-91.5 -21zM207 592l127 189h181l-149 -189h-159z" />
    <glyph glyph-name="ucircumflex" unicode="&#xfb;" horiz-adv-x="599" 
d="M212 -13q-158 0 -158 186v341h186v-323q0 -32 10 -45.5t35 -13.5q39 0 71 29v353h186v-514h-159l-10 75q-31 -46 -69.5 -67t-91.5 -21zM78 592l132 189h177l130 -189h-154l-65 94l-64 -94h-156z" />
    <glyph glyph-name="udieresis" unicode="&#xfc;" horiz-adv-x="599" 
d="M212 -13q-158 0 -158 186v341h186v-323q0 -32 10 -45.5t35 -13.5q39 0 71 29v353h186v-514h-159l-10 75q-31 -46 -69.5 -67t-91.5 -21zM113 606v145h152v-145h-152zM331 606v145h152v-145h-152z" />
    <glyph glyph-name="yacute" unicode="&#xfd;" horiz-adv-x="550" 
d="M152 11l-144 503h191l80 -366l89 366h180l-160 -539q-28 -94 -87.5 -139t-157.5 -45q-28 0 -54 3.5t-50 10.5v132q41 -7 72 -7q50 0 81.5 19t47.5 62h-88zM186 592l127 189h181l-149 -189h-159z" />
    <glyph glyph-name="thorn" unicode="&#xfe;" horiz-adv-x="607" 
d="M57 -192v904h186v-251q57 66 150 66q178 0 178 -270t-178 -270q-93 0 -150 66v-245h-186zM316 132q37 0 52 28t15 97t-15 97t-52 28q-41 0 -73 -29v-192q32 -29 73 -29z" />
    <glyph glyph-name="ydieresis" unicode="&#xff;" horiz-adv-x="550" 
d="M152 11l-144 503h191l80 -366l89 366h180l-160 -539q-28 -94 -87.5 -139t-157.5 -45q-28 0 -54 3.5t-50 10.5v132q41 -7 72 -7q50 0 81.5 19t47.5 62h-88zM92 606v145h152v-145h-152zM310 606v145h152v-145h-152z" />
    <glyph glyph-name="Abreve" unicode="&#x102;" horiz-adv-x="654" 
d="M7 0l190 674h254l196 -674h-189l-31 124h-206l-31 -124h-183zM253 255h141l-70 284zM324 736q-99 0 -146.5 49.5t-47.5 136.5h140q0 -80 54 -80t54 80h140q0 -87 -47.5 -136.5t-146.5 -49.5z" />
    <glyph glyph-name="abreve" unicode="&#x103;" horiz-adv-x="564" 
d="M188 -13q-76 0 -117.5 39.5t-41.5 112.5q0 92 54 132t178 40h79q-1 44 -19 61t-64 17q-33 0 -73 -6.5t-78 -18.5l-31 131q47 15 100.5 23.5t103.5 8.5q122 0 177.5 -49t55.5 -158v-320h-159l-11 71q-24 -40 -64.5 -62t-89.5 -22zM255 115q23 0 47 9.5t38 24.5v68h-70
q-66 0 -66 -55q0 -47 51 -47zM291 587q-99 0 -146.5 48t-47.5 138h140q0 -43 13 -61.5t41 -18.5t41 19t13 61h140q0 -90 -47.5 -138t-146.5 -48z" />
    <glyph glyph-name="Aogonek" unicode="&#x104;" horiz-adv-x="654" 
d="M7 0l190 674h254l196 -674h-189l-31 124h-206l-31 -124h-183zM253 255h141l-70 284zM564 -237q-77 0 -121 33.5t-44 92.5q0 41 20.5 74.5t53.5 50.5l174 -14q-45 -12 -69.5 -32t-24.5 -46q0 -40 59 -40q9 0 19.5 1t24.5 4v-111q-45 -13 -92 -13z" />
    <glyph glyph-name="aogonek" unicode="&#x105;" horiz-adv-x="564" 
d="M188 -13q-76 0 -117.5 39.5t-41.5 112.5q0 92 54 132t178 40h79q-1 44 -19 61t-64 17q-33 0 -73 -6.5t-78 -18.5l-31 131q47 15 100.5 23.5t103.5 8.5q122 0 177.5 -49t55.5 -158v-320h-159l-11 71q-24 -40 -64.5 -62t-89.5 -22zM255 115q23 0 47 9.5t38 24.5v68h-70
q-66 0 -66 -55q0 -47 51 -47zM429 -237q-73 0 -113.5 31t-40.5 86q0 52 33 87.5t76 46.5l128 -14q-43 -13 -68.5 -31.5t-25.5 -46.5q0 -21 12.5 -30.5t46.5 -9.5q11 0 21 1.5t21 3.5v-111q-19 -6 -40 -9.5t-50 -3.5z" />
    <glyph glyph-name="Cacute" unicode="&#x106;" horiz-adv-x="567" 
d="M359 -15q-318 0 -318 347q0 174 82.5 265.5t239.5 91.5q46 0 90.5 -8t80.5 -23l-33 -140q-32 9 -61 14t-52 5q-76 0 -111.5 -50.5t-35.5 -157.5q0 -102 35 -147t114 -45q27 0 57.5 5t61.5 14l33 -139q-32 -15 -80.5 -23.5t-102.5 -8.5zM243 741l149 181h205l-184 -181
h-170z" />
    <glyph glyph-name="cacute" unicode="&#x107;" horiz-adv-x="473" 
d="M300 -15q-130 0 -197 67.5t-67 197.5q0 132 70 206t195 74q83 0 148 -28l-30 -130q-44 16 -84 16q-56 0 -82.5 -33t-26.5 -104q0 -68 24 -96t83 -28q43 0 88 15l30 -130q-65 -27 -151 -27zM181 592l127 189h181l-149 -189h-159z" />
    <glyph glyph-name="Eogonek" unicode="&#x118;" horiz-adv-x="577" 
d="M70 0v674h452v-146h-267v-114h216v-146h-216v-122h271v-146q-45 -12 -69.5 -32t-24.5 -46q0 -40 59 -40q11 0 20.5 1t23.5 4v-111q-46 -13 -92 -13q-78 0 -121.5 33t-43.5 92q0 39 23 68t64 44h-295z" />
    <glyph glyph-name="eogonek" unicode="&#x119;" horiz-adv-x="557" 
d="M415 -237q-74 0 -114 30t-40 86q0 62 55 106h-9q-271 0 -271 271q0 132 65 203t186 71q122 0 180 -66.5t58 -207.5v-48h-310q6 -45 31.5 -64.5t76.5 -19.5q67 0 142 29l38 -122q-46 -16 -72.5 -43t-26.5 -59q0 -47 58 -47q11 0 21.5 1.5t20.5 3.5v-111q-25 -7 -45.5 -10
t-43.5 -3zM287 410q-39 0 -55.5 -22t-19.5 -78h144q-1 55 -16.5 77.5t-52.5 22.5z" />
    <glyph glyph-name="dotlessi" unicode="&#x131;" horiz-adv-x="328" 
d="M85 0v384h-65v130h251v-514h-186z" />
    <glyph glyph-name="IJ" unicode="&#x132;" horiz-adv-x="825" 
d="M70 0v674h192v-674h-192zM521 -15q-87 0 -154 31l36 139q25 -10 45 -14t37 -4q47 0 67 21.5t20 70.5v291h-166v154h358v-463q0 -115 -59 -170.5t-184 -55.5z" />
    <glyph glyph-name="ij" unicode="&#x133;" horiz-adv-x="656" 
d="M82 592v154h184v-154h-184zM85 0v384h-65v130h251v-514h-186zM410 592v154h184v-154h-184zM419 -209q-31 0 -50 3.5t-38 8.5v132q19 -4 38 -4q22 0 33 11t11 38v404h-65v130h251v-493q0 -72 -13 -123.5t-51.5 -79t-115.5 -27.5z" />
    <glyph glyph-name="Lslash" unicode="&#x141;" horiz-adv-x="559" 
d="M93 0v212l-64 -33v127l64 33v335h186v-238l141 74v-127l-141 -74v-155h242v-154h-428z" />
    <glyph glyph-name="lslash" unicode="&#x142;" horiz-adv-x="374" 
d="M14 225v127l60 31v329h182v-234l91 47v-127l-91 -47v-177q0 -25 11 -35.5t38 -10.5q8 0 15.5 1t20.5 2v-132q-22 -4 -44 -6.5t-47 -2.5q-66 0 -104.5 18t-55 61t-16.5 116v71z" />
    <glyph glyph-name="Nacute" unicode="&#x143;" horiz-adv-x="724" 
d="M70 0v674h200l217 -422v422h167v-674h-200l-217 422v-422h-167zM250 741l149 181h205l-184 -181h-170z" />
    <glyph glyph-name="nacute" unicode="&#x144;" horiz-adv-x="603" 
d="M57 0v514h159l10 -79q56 92 166 92q157 0 157 -186v-341h-186v326q0 56 -51 56q-37 0 -69 -29v-353h-186zM212 592l127 189h181l-149 -189h-159z" />
    <glyph glyph-name="OE" unicode="&#x152;" horiz-adv-x="959" 
d="M321 -15q-133 0 -206.5 92.5t-73.5 259.5q0 108 32 187t90.5 122t137.5 43q119 0 169 -72v57h434v-146h-267v-114h216v-146h-216v-122h271v-146h-438v59q-20 -35 -58 -54.5t-91 -19.5zM350 137q59 0 84 45.5t25 154.5t-25 154.5t-84 45.5t-84 -45.5t-25 -154.5t25 -154.5
t84 -45.5z" />
    <glyph glyph-name="oe" unicode="&#x153;" horiz-adv-x="889" 
d="M291 -15q-124 0 -189.5 70t-65.5 203q0 132 65 202t189 70q113 0 161 -70q47 70 170 70q121 0 178.5 -67t57.5 -207v-48h-310q6 -45 31.5 -64.5t76.5 -19.5q38 0 72.5 7.5t69.5 22.5l38 -123q-80 -46 -196 -46q-61 0 -109 17.5t-73 49.5q-49 -67 -166 -67zM618 410
q-38 0 -54.5 -22.5t-19.5 -77.5h144q-1 56 -17 78t-53 22zM295 121q40 0 56 31t16 106q0 74 -16 105t-55 31q-40 0 -56 -31t-16 -106q0 -74 16 -105t55 -31z" />
    <glyph glyph-name="Sacute" unicode="&#x15a;" horiz-adv-x="569" 
d="M259 -15q-119 0 -218 39l35 146q39 -15 83.5 -23.5t83.5 -8.5q58 0 83.5 15t25.5 49q0 41 -46 50l-89 18q-166 34 -166 199q0 103 68 161.5t187 58.5t212 -36l-36 -143q-69 27 -162 27q-92 0 -92 -57q0 -42 53 -52l76 -15q92 -19 135.5 -68t43.5 -135q0 -114 -68 -169.5
t-209 -55.5zM190 741l149 181h205l-184 -181h-170z" />
    <glyph glyph-name="sacute" unicode="&#x15b;" horiz-adv-x="474" 
d="M214 -15q-50 0 -99 10t-84 27l35 133q29 -14 72.5 -24t79.5 -10t50.5 7t14.5 24q0 25 -38 32l-66 14q-71 16 -104.5 55t-33.5 108q0 80 56 124.5t156 44.5q53 0 91.5 -7t86.5 -26l-30 -127q-33 13 -64 18t-73 5q-66 0 -66 -30q0 -14 9 -21t35 -12l45 -10q61 -13 95 -32.5
t48.5 -51t14.5 -81.5q0 -87 -56.5 -128.5t-174.5 -41.5zM157 592l127 189h181l-149 -189h-159z" />
    <glyph glyph-name="Scaron" unicode="&#x160;" horiz-adv-x="569" 
d="M259 -15q-119 0 -218 39l35 146q39 -15 83.5 -23.5t83.5 -8.5q58 0 83.5 15t25.5 49q0 41 -46 50l-89 18q-166 34 -166 199q0 103 68 161.5t187 58.5t212 -36l-36 -143q-69 27 -162 27q-92 0 -92 -57q0 -42 53 -52l76 -15q92 -19 135.5 -68t43.5 -135q0 -114 -68 -169.5
t-209 -55.5zM205 741l-129 181h164l59 -95l58 95h164l-129 -181h-187z" />
    <glyph glyph-name="scaron" unicode="&#x161;" horiz-adv-x="474" 
d="M214 -15q-50 0 -99 10t-84 27l35 133q29 -14 72.5 -24t79.5 -10t50.5 7t14.5 24q0 25 -38 32l-66 14q-71 16 -104.5 55t-33.5 108q0 80 56 124.5t156 44.5q53 0 91.5 -7t86.5 -26l-30 -127q-33 13 -64 18t-73 5q-66 0 -66 -30q0 -14 9 -21t35 -12l45 -10q61 -13 95 -32.5
t48.5 -51t14.5 -81.5q0 -87 -56.5 -128.5t-174.5 -41.5zM160 592l-132 189h157l64 -94l65 94h153l-130 -189h-177z" />
    <glyph glyph-name="Wcircumflex" unicode="&#x174;" horiz-adv-x="910" 
d="M142 0l-133 674h175l77 -476l102 468h190l103 -476l81 484h164l-133 -674h-222l-91 430l-91 -430h-222zM235 741l129 181h187l129 -181h-164l-58 95l-59 -95h-164z" />
    <glyph glyph-name="wcircumflex" unicode="&#x175;" horiz-adv-x="818" 
d="M131 0l-122 514h173l58 -381l74 377h192l78 -386l53 390h172l-122 -514h-206l-74 353l-70 -353h-206zM190 592l132 189h177l130 -189h-154l-65 94l-64 -94h-156z" />
    <glyph glyph-name="Ycircumflex" unicode="&#x176;" horiz-adv-x="625" 
d="M219 0v220l-219 454h193l125 -267l126 267h181l-214 -434v-240h-192zM96 741l129 181h187l129 -181h-164l-58 95l-59 -95h-164z" />
    <glyph glyph-name="ycircumflex" unicode="&#x177;" horiz-adv-x="550" 
d="M152 11l-144 503h191l80 -366l89 366h180l-160 -539q-28 -94 -87.5 -139t-157.5 -45q-28 0 -54 3.5t-50 10.5v132q41 -7 72 -7q50 0 81.5 19t47.5 62h-88zM57 592l132 189h177l130 -189h-154l-65 94l-64 -94h-156z" />
    <glyph glyph-name="Ydieresis" unicode="&#x178;" horiz-adv-x="625" 
d="M219 0v220l-219 454h193l125 -267l126 267h181l-214 -434v-240h-192zM134 739v145h152v-145h-152zM352 739v145h152v-145h-152z" />
    <glyph glyph-name="Zacute" unicode="&#x179;" horiz-adv-x="579" 
d="M43 0v133l270 395h-269v146h488v-133l-270 -395h277v-146h-496zM184 741l149 181h205l-184 -181h-170z" />
    <glyph glyph-name="zacute" unicode="&#x17a;" horiz-adv-x="495" 
d="M40 0v125l209 253h-204v136h405v-125l-209 -253h214v-136h-415zM157 592l127 189h181l-149 -189h-159z" />
    <glyph glyph-name="Zdotaccent" unicode="&#x17b;" horiz-adv-x="579" 
d="M43 0v133l270 395h-269v146h488v-133l-270 -395h277v-146h-496zM201 739v154h184v-154h-184z" />
    <glyph glyph-name="zdotaccent" unicode="&#x17c;" horiz-adv-x="495" 
d="M40 0v125l209 253h-204v136h405v-125l-209 -253h214v-136h-415zM156 592v154h184v-154h-184z" />
    <glyph glyph-name="Zcaron" unicode="&#x17d;" horiz-adv-x="579" 
d="M43 0v133l270 395h-269v146h488v-133l-270 -395h277v-146h-496zM199 741l-129 181h164l59 -95l58 95h164l-129 -181h-187z" />
    <glyph glyph-name="zcaron" unicode="&#x17e;" horiz-adv-x="495" 
d="M40 0v125l209 253h-204v136h405v-125l-209 -253h214v-136h-415zM160 592l-132 189h157l64 -94l65 94h153l-130 -189h-177z" />
    <glyph glyph-name="uni0218" unicode="&#x218;" horiz-adv-x="569" 
d="M259 -15q-119 0 -218 39l35 146q39 -15 83.5 -23.5t83.5 -8.5q58 0 83.5 15t25.5 49q0 41 -46 50l-89 18q-166 34 -166 199q0 103 68 161.5t187 58.5t212 -36l-36 -143q-69 27 -162 27q-92 0 -92 -57q0 -42 53 -52l76 -15q92 -19 135.5 -68t43.5 -135q0 -114 -68 -169.5
t-209 -55.5zM173 -284l37 198h155l-63 -198h-129z" />
    <glyph glyph-name="uni0219" unicode="&#x219;" horiz-adv-x="474" 
d="M214 -15q-50 0 -99 10t-84 27l35 133q29 -14 72.5 -24t79.5 -10t50.5 7t14.5 24q0 25 -38 32l-66 14q-71 16 -104.5 55t-33.5 108q0 80 56 124.5t156 44.5q53 0 91.5 -7t86.5 -26l-30 -127q-33 13 -64 18t-73 5q-66 0 -66 -30q0 -14 9 -21t35 -12l45 -10q61 -13 95 -32.5
t48.5 -51t14.5 -81.5q0 -87 -56.5 -128.5t-174.5 -41.5zM125 -284l37 198h155l-63 -198h-129z" />
    <glyph glyph-name="uni021A" unicode="&#x21a;" horiz-adv-x="566" 
d="M187 0v522h-165v152h522v-152h-165v-522h-192zM171 -284l37 198h155l-63 -198h-129z" />
    <glyph glyph-name="uni021B" unicode="&#x21b;" horiz-adv-x="441" 
d="M308 -10q-81 0 -128.5 20t-68 65.5t-20.5 124.5v184h-85v125l55 4q23 2 32.5 9.5t10.5 25.5l10 111h158v-145h142v-130h-142v-192q0 -38 14.5 -51t58.5 -13q27 0 63 6v-132q-24 -7 -47.5 -9.5t-52.5 -2.5zM127 -284l37 198h155l-63 -198h-129z" />
    <glyph glyph-name="uni0237" unicode="&#x237;" horiz-adv-x="328" 
d="M91 -209q-31 0 -50 3.5t-38 8.5v132q19 -4 38 -4q22 0 33 11t11 38v404h-65v130h251v-493q0 -72 -13 -123.5t-51.5 -79t-115.5 -27.5z" />
    <glyph glyph-name="circumflex" unicode="&#x2c6;" horiz-adv-x="499" 
d="M30 592l132 189h177l130 -189h-154l-65 94l-64 -94h-156z" />
    <glyph glyph-name="caron" unicode="&#x2c7;" horiz-adv-x="499" 
d="M162 592l-132 189h157l64 -94l65 94h153l-130 -189h-177z" />
    <glyph glyph-name="breve" unicode="&#x2d8;" horiz-adv-x="448" 
d="M224 587q-99 0 -146.5 48t-47.5 138h140q0 -43 13 -61.5t41 -18.5t41 19t13 61h140q0 -90 -47.5 -138t-146.5 -48z" />
    <glyph glyph-name="dotaccent" unicode="&#x2d9;" horiz-adv-x="244" 
d="M30 592v154h184v-154h-184z" />
    <glyph glyph-name="ring" unicode="&#x2da;" horiz-adv-x="320" 
d="M160 593q-57 0 -93.5 33t-36.5 93t36.5 93t93.5 33t93.5 -33.5t36.5 -92.5t-36.5 -92.5t-93.5 -33.5zM160 667q23 0 36 13.5t13 38.5q0 26 -13.5 39t-35.5 13t-35.5 -13t-13.5 -39q0 -52 49 -52z" />
    <glyph glyph-name="ogonek" unicode="&#x2db;" horiz-adv-x="304" 
d="M184 -237q-73 0 -113.5 31t-40.5 86q0 52 33 87.5t76 46.5l128 -14q-43 -13 -68.5 -31.5t-25.5 -46.5q0 -21 12.5 -30.5t46.5 -9.5q11 0 21 1.5t21 3.5v-111q-19 -6 -40 -9.5t-50 -3.5z" />
    <glyph glyph-name="tilde" unicode="&#x2dc;" horiz-adv-x="472" 
d="M32 592q0 98 28 142t90 44q36 0 60 -11t57 -44l11 -11q14 -13 19.5 -17t12.5 -4q11 0 15.5 16.5t4.5 65.5h108q0 -97 -28 -141.5t-90 -44.5q-36 0 -60 11t-57 44l-11 11q-13 14 -19 17.5t-13 3.5q-11 0 -15.5 -16.5t-4.5 -65.5h-108z" />
    <glyph glyph-name="gravecomb" unicode="&#x300;" horiz-adv-x="0" 
d="M-69 592l-149 189h181l127 -189h-159z" />
    <glyph glyph-name="acutecomb" unicode="&#x301;" horiz-adv-x="0" 
d="M-91 592l127 189h181l-149 -189h-159z" />
    <glyph glyph-name="uni0302" unicode="&#x302;" horiz-adv-x="0" 
d="M-220 592l132 189h177l130 -189h-154l-65 94l-64 -94h-156z" />
    <glyph glyph-name="tildecomb" unicode="&#x303;" horiz-adv-x="0" 
d="M-204 592q0 98 28 142t90 44q36 0 60 -11t57 -44l11 -11q14 -13 19.5 -17t12.5 -4q11 0 15.5 16.5t4.5 65.5h108q0 -97 -28 -141.5t-90 -44.5q-36 0 -60 11t-57 44l-11 11q-13 14 -19 17.5t-13 3.5q-11 0 -15.5 -16.5t-4.5 -65.5h-108z" />
    <glyph glyph-name="uni0306" unicode="&#x306;" horiz-adv-x="0" 
d="M0 587q-99 0 -146.5 48t-47.5 138h140q0 -43 13 -61.5t41 -18.5t41 19t13 61h140q0 -90 -47.5 -138t-146.5 -48z" />
    <glyph glyph-name="uni0307" unicode="&#x307;" horiz-adv-x="0" 
d="M-92 592v154h184v-154h-184z" />
    <glyph glyph-name="uni0308" unicode="&#x308;" horiz-adv-x="0" 
d="M-185 606v145h152v-145h-152zM33 606v145h152v-145h-152z" />
    <glyph glyph-name="uni030A" unicode="&#x30a;" horiz-adv-x="0" 
d="M0 593q-57 0 -93.5 33t-36.5 93t36.5 93t93.5 33t93.5 -33.5t36.5 -92.5t-36.5 -92.5t-93.5 -33.5zM0 667q23 0 36 13.5t13 38.5q0 26 -13.5 39t-35.5 13t-35.5 -13t-13.5 -39q0 -52 49 -52z" />
    <glyph glyph-name="uni030C" unicode="&#x30c;" horiz-adv-x="0" 
d="M-88 592l-132 189h157l64 -94l65 94h153l-130 -189h-177z" />
    <glyph glyph-name="uni0326" unicode="&#x326;" horiz-adv-x="0" 
d="M-112 -284l37 198h155l-63 -198h-129z" />
    <glyph glyph-name="uni0327" unicode="&#x327;" horiz-adv-x="0" 
d="M-30 -271q-53 0 -97 12v93q22 -4 39.5 -5.5t32.5 -1.5q32 0 45.5 7.5t13.5 20.5q0 16 -18.5 22.5t-65.5 6.5l20 127l95 -1l-10 -55q60 -9 88 -35.5t28 -73.5q0 -117 -171 -117z" />
    <glyph glyph-name="uni0328" unicode="&#x328;" horiz-adv-x="0" 
d="M-83 -237q-73 0 -113.5 31t-40.5 86q0 52 33 87.5t76 46.5l128 -14q-43 -13 -68.5 -31.5t-25.5 -46.5q0 -21 12.5 -30.5t46.5 -9.5q11 0 21 1.5t21 3.5v-111q-19 -6 -40 -9.5t-50 -3.5z" />
    <glyph glyph-name="Wgrave" unicode="&#x1e80;" horiz-adv-x="910" 
d="M142 0l-133 674h175l77 -476l102 468h190l103 -476l81 484h164l-133 -674h-222l-91 430l-91 -430h-222zM384 741l-184 181h205l149 -181h-170z" />
    <glyph glyph-name="wgrave" unicode="&#x1e81;" horiz-adv-x="818" 
d="M131 0l-122 514h173l58 -381l74 377h192l78 -386l53 390h172l-122 -514h-206l-74 353l-70 -353h-206zM341 592l-149 189h181l127 -189h-159z" />
    <glyph glyph-name="Wacute" unicode="&#x1e82;" horiz-adv-x="910" 
d="M142 0l-133 674h175l77 -476l102 468h190l103 -476l81 484h164l-133 -674h-222l-91 430l-91 -430h-222zM349 741l149 181h205l-184 -181h-170z" />
    <glyph glyph-name="wacute" unicode="&#x1e83;" horiz-adv-x="818" 
d="M131 0l-122 514h173l58 -381l74 377h192l78 -386l53 390h172l-122 -514h-206l-74 353l-70 -353h-206zM319 592l127 189h181l-149 -189h-159z" />
    <glyph glyph-name="Wdieresis" unicode="&#x1e84;" horiz-adv-x="910" 
d="M142 0l-133 674h175l77 -476l102 468h190l103 -476l81 484h164l-133 -674h-222l-91 430l-91 -430h-222zM273 739v145h152v-145h-152zM491 739v145h152v-145h-152z" />
    <glyph glyph-name="wdieresis" unicode="&#x1e85;" horiz-adv-x="818" 
d="M131 0l-122 514h173l58 -381l74 377h192l78 -386l53 390h172l-122 -514h-206l-74 353l-70 -353h-206zM225 606v145h152v-145h-152zM443 606v145h152v-145h-152z" />
    <glyph glyph-name="uni1E9E" unicode="&#x1e9e;" horiz-adv-x="706" 
d="M428 -10q-58 0 -111 14l21 143q17 -4 32 -6t28 -2q90 0 90 74q0 71 -74 71h-62v113l95 135q-31 6 -64 6q-71 0 -103.5 -31t-32.5 -100v-407h-191v407q0 139 79.5 210.5t233.5 71.5q74 0 147 -13t125 -36v-111l-110 -146q73 -13 111.5 -61t38.5 -127q0 -96 -67 -150.5
t-186 -54.5z" />
    <glyph glyph-name="Ygrave" unicode="&#x1ef2;" horiz-adv-x="625" 
d="M219 0v220l-219 454h193l125 -267l126 267h181l-214 -434v-240h-192zM245 741l-184 181h205l149 -181h-170z" />
    <glyph glyph-name="ygrave" unicode="&#x1ef3;" horiz-adv-x="550" 
d="M152 11l-144 503h191l80 -366l89 366h180l-160 -539q-28 -94 -87.5 -139t-157.5 -45q-28 0 -54 3.5t-50 10.5v132q41 -7 72 -7q50 0 81.5 19t47.5 62h-88zM208 592l-149 189h181l127 -189h-159z" />
    <glyph glyph-name="uni2000" unicode="&#x2000;" horiz-adv-x="500" 
 />
    <glyph glyph-name="uni2001" unicode="&#x2001;" horiz-adv-x="1000" 
 />
    <glyph glyph-name="uni2002" unicode="&#x2002;" horiz-adv-x="500" 
 />
    <glyph glyph-name="uni2003" unicode="&#x2003;" horiz-adv-x="1000" 
 />
    <glyph glyph-name="uni2004" unicode="&#x2004;" horiz-adv-x="333" 
 />
    <glyph glyph-name="uni2005" unicode="&#x2005;" horiz-adv-x="250" 
 />
    <glyph glyph-name="uni2006" unicode="&#x2006;" horiz-adv-x="167" 
 />
    <glyph glyph-name="uni2007" unicode="&#x2007;" 
 />
    <glyph glyph-name="uni2008" unicode="&#x2008;" horiz-adv-x="286" 
 />
    <glyph glyph-name="uni2009" unicode="&#x2009;" horiz-adv-x="200" 
 />
    <glyph glyph-name="uni200A" unicode="&#x200a;" horiz-adv-x="62" 
 />
    <glyph glyph-name="uni200B" unicode="&#x200b;" horiz-adv-x="0" 
 />
    <glyph glyph-name="uni2010" unicode="&#x2010;" horiz-adv-x="405" 
d="M42 195v164h321v-164h-321z" />
    <glyph glyph-name="uni2011" unicode="&#x2011;" horiz-adv-x="405" 
d="M42 195v164h321v-164h-321z" />
    <glyph glyph-name="endash" unicode="&#x2013;" horiz-adv-x="450" 
d="M0 201v150h450v-150h-450z" />
    <glyph glyph-name="emdash" unicode="&#x2014;" horiz-adv-x="900" 
d="M0 201v150h900v-150h-900z" />
    <glyph glyph-name="quoteleft" unicode="&#x2018;" horiz-adv-x="293" 
d="M33 376l74 298h146l-34 -298h-186z" />
    <glyph glyph-name="quoteright" unicode="&#x2019;" horiz-adv-x="293" 
d="M40 376l34 298h186l-82 -298h-138z" />
    <glyph glyph-name="quotesinglbase" unicode="&#x201a;" horiz-adv-x="293" 
d="M40 -116l34 298h186l-82 -298h-138z" />
    <glyph glyph-name="quotedblleft" unicode="&#x201c;" horiz-adv-x="536" 
d="M33 376l74 298h146l-34 -298h-186zM276 376l74 298h146l-34 -298h-186z" />
    <glyph glyph-name="quotedblright" unicode="&#x201d;" horiz-adv-x="536" 
d="M40 376l34 298h186l-82 -298h-138zM283 376l34 298h186l-82 -298h-138z" />
    <glyph glyph-name="quotedblbase" unicode="&#x201e;" horiz-adv-x="536" 
d="M40 -116l34 298h186l-82 -298h-138zM283 -116l34 298h186l-82 -298h-138z" />
    <glyph glyph-name="dagger" unicode="&#x2020;" horiz-adv-x="492" 
d="M179 118v335h-135v118h135v141h134v-141h135v-118h-135v-335h-134z" />
    <glyph glyph-name="daggerdbl" unicode="&#x2021;" horiz-adv-x="492" 
d="M179 118v133h-135v110h135v108h-135v110h135v133h134v-133h135v-110h-135v-108h135v-110h-135v-133h-134z" />
    <glyph glyph-name="bullet" unicode="&#x2022;" horiz-adv-x="538" 
d="M130 126v288h278v-288h-278z" />
    <glyph glyph-name="ellipsis" unicode="&#x2026;" horiz-adv-x="864" 
d="M51 0v182h186v-182h-186zM339 0v182h186v-182h-186zM627 0v182h186v-182h-186z" />
    <glyph glyph-name="perthousand" unicode="&#x2030;" horiz-adv-x="1335" 
d="M202 0l390 674h148l-390 -674h-148zM907 185q0 -95 -44 -144.5t-129 -49.5t-129 50t-44 146q0 95 44 144.5t129 49.5t129 -50t44 -146zM687 185q0 -58 10 -79t37 -21t37 22t10 80t-10 79t-37 21t-37 -21.5t-10 -80.5zM1300 185q0 -95 -44 -144.5t-129 -49.5t-129 50
t-44 146q0 95 44 144.5t129 49.5t129 -50t44 -146zM1080 185q0 -58 10 -79t37 -21t37 22t10 80t-10 79t-37 21t-37 -21.5t-10 -80.5zM381 487q0 -95 -44 -144.5t-129 -49.5t-129 50t-44 146q0 95 44 144.5t129 49.5t129 -50t44 -146zM161 487q0 -58 10 -79t37 -21t37 22
t10 80t-10 79t-37 21t-37 -21.5t-10 -80.5z" />
    <glyph glyph-name="guilsinglleft" unicode="&#x2039;" horiz-adv-x="462" 
d="M205 47l-163 213l163 213h216l-166 -213l166 -213h-216z" />
    <glyph glyph-name="guilsinglright" unicode="&#x203a;" horiz-adv-x="462" 
d="M257 47h-216l166 213l-166 213h216l163 -213z" />
    <glyph glyph-name="fraction" unicode="&#x2044;" horiz-adv-x="220" 
d="M-159 0l390 674h148l-390 -674h-148z" />
    <glyph glyph-name="uni2070" unicode="&#x2070;" horiz-adv-x="416" 
d="M381 585q0 -95 -44 -144.5t-129 -49.5t-129 50t-44 146q0 95 44 144.5t129 49.5t129 -50t44 -146zM161 585q0 -58 10 -79t37 -21t37 22t10 80t-10 79t-37 21t-37 -21.5t-10 -80.5z" />
    <glyph glyph-name="uni2074" unicode="&#x2074;" horiz-adv-x="418" 
d="M227 400v69h-191v77l169 226h129v-224h45v-79h-45v-69h-107zM142 548h90v123z" />
    <glyph glyph-name="uni2075" unicode="&#x2075;" horiz-adv-x="387" 
d="M188 391q-82 0 -142 26l22 85q26 -9 55.5 -14t54.5 -5q57 0 57 36q0 38 -50 38q-32 0 -64 -15l-63 33v197h266v-92h-165v-61q27 14 67 14q65 0 94 -33t29 -87q0 -122 -161 -122z" />
    <glyph glyph-name="uni2076" unicode="&#x2076;" horiz-adv-x="399" 
d="M204 391q-169 0 -169 186q0 104 49 154t149 50q59 0 110 -21l-19 -86q-39 14 -80 14q-50 0 -71 -21t-21 -69q26 35 86 35t94 -30t34 -83q0 -61 -42.5 -95t-119.5 -34zM204 557q-32 0 -52 -19q1 -65 52 -65q48 0 48 42t-48 42z" />
    <glyph glyph-name="uni2077" unicode="&#x2077;" horiz-adv-x="357" 
d="M26 675v97h301v-84l-115 -288h-131l119 275h-174z" />
    <glyph glyph-name="uni2078" unicode="&#x2078;" horiz-adv-x="414" 
d="M207 391q-82 0 -125.5 27.5t-43.5 79.5q0 33 18.5 57t50.5 33q-27 9 -43.5 33t-16.5 56q0 47 43.5 75.5t116.5 28.5t116.5 -28.5t43.5 -75.5q0 -32 -16.5 -56t-43.5 -33q32 -9 50.5 -33t18.5 -57q0 -52 -43.5 -79.5t-125.5 -27.5zM207 626q47 0 47 38q0 39 -47 39
t-47 -38q0 -39 47 -39zM207 471q50 0 50 40t-50 40t-50 -40t50 -40z" />
    <glyph glyph-name="uni2079" unicode="&#x2079;" horiz-adv-x="399" 
d="M195 781q169 0 169 -186q0 -103 -48.5 -153.5t-149.5 -50.5q-59 0 -110 21l19 86q39 -14 80 -14q50 0 71 21t21 69q-26 -35 -86 -35t-94 30.5t-34 82.5q0 62 42.5 95.5t119.5 33.5zM147 657q0 -42 48 -42q32 0 52 19q-1 65 -52 65q-48 0 -48 -42z" />
    <glyph glyph-name="uni2080" unicode="&#x2080;" horiz-adv-x="416" 
d="M381 85q0 -95 -44 -144.5t-129 -49.5t-129 50t-44 146q0 95 44 144.5t129 49.5t129 -50t44 -146zM161 85q0 -58 10 -79t37 -21t37 22t10 80t-10 79t-37 21t-37 -21.5t-10 -80.5z" />
    <glyph glyph-name="uni2081" unicode="&#x2081;" horiz-adv-x="298" 
d="M117 -100v238h-88v93l79 3q18 1 21 17l5 26h105v-377h-122z" />
    <glyph glyph-name="uni2082" unicode="&#x2082;" horiz-adv-x="373" 
d="M39 -100v83l110 82q32 23 44 39.5t12 34.5q0 41 -55 41q-37 0 -77 -20l-37 89q59 32 126 32q77 0 120.5 -36t43.5 -99q0 -43 -20.5 -72.5t-70.5 -61.5l-32 -20h130v-92h-294z" />
    <glyph glyph-name="uni2083" unicode="&#x2083;" horiz-adv-x="376" 
d="M166 -109q-78 0 -138 23l22 86q58 -16 100 -16q32 0 44.5 7t12.5 24q0 29 -40 29h-67v86h67q37 0 37 26q0 33 -59 33q-38 0 -83 -13l-27 83q62 22 128 22q77 0 118 -26.5t41 -76.5q0 -34 -18 -56.5t-51 -30.5q77 -19 77 -92q0 -52 -42.5 -80t-121.5 -28z" />
    <glyph glyph-name="uni2084" unicode="&#x2084;" horiz-adv-x="418" 
d="M227 -100v69h-191v77l169 226h129v-224h45v-79h-45v-69h-107zM142 48h90v123z" />
    <glyph glyph-name="uni2085" unicode="&#x2085;" horiz-adv-x="387" 
d="M188 -109q-82 0 -142 26l22 85q26 -9 55.5 -14t54.5 -5q57 0 57 36q0 38 -50 38q-32 0 -64 -15l-63 33v197h266v-92h-165v-61q27 14 67 14q65 0 94 -33t29 -87q0 -122 -161 -122z" />
    <glyph glyph-name="uni2086" unicode="&#x2086;" horiz-adv-x="399" 
d="M204 -109q-169 0 -169 186q0 104 49 154t149 50q59 0 110 -21l-19 -86q-39 14 -80 14q-50 0 -71 -21t-21 -69q26 35 86 35t94 -30t34 -83q0 -61 -42.5 -95t-119.5 -34zM204 57q-32 0 -52 -19q1 -65 52 -65q48 0 48 42t-48 42z" />
    <glyph glyph-name="uni2087" unicode="&#x2087;" horiz-adv-x="357" 
d="M26 175v97h301v-84l-115 -288h-131l119 275h-174z" />
    <glyph glyph-name="uni2088" unicode="&#x2088;" horiz-adv-x="414" 
d="M207 -109q-82 0 -125.5 27.5t-43.5 79.5q0 33 18.5 57t50.5 33q-27 9 -43.5 33t-16.5 56q0 47 43.5 75.5t116.5 28.5t116.5 -28.5t43.5 -75.5q0 -32 -16.5 -56t-43.5 -33q32 -9 50.5 -33t18.5 -57q0 -52 -43.5 -79.5t-125.5 -27.5zM207 126q47 0 47 38q0 39 -47 39
t-47 -38q0 -39 47 -39zM207 -29q50 0 50 40t-50 40t-50 -40t50 -40z" />
    <glyph glyph-name="uni2089" unicode="&#x2089;" horiz-adv-x="399" 
d="M195 281q169 0 169 -186q0 -103 -48.5 -153.5t-149.5 -50.5q-59 0 -110 21l19 86q39 -14 80 -14q50 0 71 21t21 69q-26 -35 -86 -35t-94 30.5t-34 82.5q0 62 42.5 95.5t119.5 33.5zM147 157q0 -42 48 -42q32 0 52 19q-1 65 -52 65q-48 0 -48 -42z" />
    <glyph glyph-name="Euro" unicode="&#x20ac;" 
d="M32 225v80h59v28q0 16 1 32h-60v80h69q23 120 98 182t198 62q46 0 90.5 -8t80.5 -23l-33 -140q-32 9 -61 14t-52 5q-104 0 -135 -92h193l-20 -80h-188q-1 -16 -1 -35q0 -13 1 -25h175l-20 -80h-143q16 -46 50 -67t90 -21q27 0 57.5 5t61.5 14l33 -139
q-32 -15 -80.5 -23.5t-102.5 -8.5q-252 0 -294 240h-67z" />
    <glyph glyph-name="uni20BD" unicode="&#x20bd;" 
d="M84 0v87h-68v100h68v58h-68v124h68v305h246q238 0 238 -215q0 -214 -238 -214h-76v-58h157v-100h-157v-87h-170zM303 540h-49v-171h49q46 0 67 21t21 66q0 44 -20.5 64t-67.5 20z" />
    <glyph glyph-name="trademark" unicode="&#x2122;" horiz-adv-x="783" 
d="M350 358v316h115l62 -172l61 172h115v-316h-88v206l-53 -154h-71l-53 154v-206h-88zM132 358v239h-82v77h254v-77h-82v-239h-90z" />
    <glyph glyph-name="arrowleft" unicode="&#x2190;" horiz-adv-x="740" 
d="M295 75l-262 262l262 262l86 -88l-99 -103h425v-142h-425l99 -103z" />
    <glyph glyph-name="arrowup" unicode="&#x2191;" horiz-adv-x="740" 
d="M297 0v433l-101 -107l-88 86l262 262l262 -262l-88 -86l-101 107v-433h-146z" />
    <glyph glyph-name="arrowright" unicode="&#x2192;" horiz-adv-x="740" 
d="M445 75l-86 88l99 103h-425v142h425l-99 103l86 88l262 -262z" />
    <glyph glyph-name="arrowdown" unicode="&#x2193;" horiz-adv-x="740" 
d="M370 0l-262 262l88 86l101 -107v433h146v-433l101 107l88 -86z" />
    <glyph glyph-name="minus" unicode="&#x2212;" 
d="M69 262v142h442v-142h-442z" />
    <glyph glyph-name="uniFEFF" unicode="&#xfeff;" horiz-adv-x="0" 
 />
    <glyph glyph-name="zero.pnum" horiz-adv-x="646" 
d="M598 337q0 -352 -275 -352t-275 352t275 352t275 -352zM236 337q0 -112 19.5 -158t67.5 -46t67.5 46t19.5 158q0 113 -19.5 158.5t-67.5 45.5t-67.5 -45.5t-19.5 -158.5z" />
    <glyph glyph-name="one.pnum" horiz-adv-x="449" 
d="M179 0v478h-146v134l113 6q26 2 34.5 8t12.5 27l5 31h169v-684h-188z" />
    <glyph glyph-name="two.pnum" horiz-adv-x="593" 
d="M52 0v140l206 184q47 42 64.5 69.5t17.5 58.5q0 40 -27.5 61.5t-77.5 21.5q-30 0 -66 -8t-73 -24l-53 138q47 23 104.5 35.5t112.5 12.5q122 0 191.5 -60.5t69.5 -167.5q0 -71 -38.5 -131.5t-126.5 -126.5l-72 -54h252v-149h-484z" />
    <glyph glyph-name="three.pnum" 
d="M42 642q100 47 219 47q122 0 189 -49.5t67 -138.5q0 -60 -31 -100t-88 -54q62 -15 97 -56.5t35 -102.5q0 -97 -72 -150t-204 -53q-123 0 -230 51l47 141q85 -37 167 -37q108 0 108 70q0 57 -93 57h-87v144h84q47 0 66.5 14t19.5 46q0 34 -22 49.5t-72 15.5
q-76 0 -152 -31z" />
    <glyph glyph-name="four.pnum" horiz-adv-x="638" 
d="M365 0v127h-321v121l297 426h178v-406h72v-141h-72v-127h-154zM214 268h151v219z" />
    <glyph glyph-name="five.pnum" horiz-adv-x="600" 
d="M279 -15q-134 0 -232 54l47 140q90 -40 174 -40q57 0 82 17.5t25 56.5q0 76 -95 76q-31 0 -58.5 -8t-56.5 -27l-90 57v363h438v-152h-279v-141q43 38 118 38q95 0 149.5 -56.5t54.5 -155.5q0 -222 -277 -222z" />
    <glyph glyph-name="six.pnum" horiz-adv-x="626" 
d="M325 -15q-277 0 -277 339q0 365 317 365q109 0 192 -40l-38 -135q-66 28 -137 28q-81 0 -116 -40.5t-37 -141.5q41 59 141 59q98 0 154 -54.5t56 -151.5q0 -108 -67 -168t-188 -60zM324 291q-55 0 -95 -37q2 -68 24.5 -99t70.5 -31q80 0 80 82q0 85 -80 85z" />
    <glyph glyph-name="seven.pnum" horiz-adv-x="572" 
d="M33 522v152h500v-137l-230 -537h-198l232 522h-304z" />
    <glyph glyph-name="eight.pnum" horiz-adv-x="630" 
d="M315 -15q-128 0 -198.5 50t-70.5 141q0 65 33.5 108.5t94.5 60.5q-51 18 -80 57t-29 93q0 89 67.5 141.5t182.5 52.5q116 0 183 -52.5t67 -141.5q0 -54 -29 -93t-80 -57q61 -17 94.5 -60.5t33.5 -108.5q0 -91 -70 -141t-199 -50zM315 408q37 0 58.5 20t21.5 54
q0 35 -21 54t-59 19q-37 0 -58.5 -19t-21.5 -54q0 -34 21.5 -54t58.5 -20zM315 119q43 0 66 20.5t23 57.5t-23 57t-66 20t-66 -20t-23 -57t23 -57.5t66 -20.5z" />
    <glyph glyph-name="nine.pnum" horiz-adv-x="626" 
d="M301 689q277 0 277 -339q0 -365 -315 -365q-104 0 -193 40l38 135q66 -28 138 -28q80 0 114.5 40.5t36.5 141.5q-42 -60 -141 -60q-98 0 -154 54.5t-56 151.5q0 108 67.5 168.5t187.5 60.5zM222 467q0 -85 80 -85q54 0 95 38q-2 68 -24.5 99t-70.5 31q-80 0 -80 -83z" />
    <glyph glyph-name="zero.dnom" horiz-adv-x="416" 
d="M381 185q0 -95 -44 -144.5t-129 -49.5t-129 50t-44 146q0 95 44 144.5t129 49.5t129 -50t44 -146zM161 185q0 -58 10 -79t37 -21t37 22t10 80t-10 79t-37 21t-37 -21.5t-10 -80.5z" />
    <glyph glyph-name="one.dnom" horiz-adv-x="298" 
d="M117 0v238h-88v93l79 3q18 1 21 17l5 26h105v-377h-122z" />
    <glyph glyph-name="two.dnom" horiz-adv-x="373" 
d="M39 0v83l110 82q32 23 44 39.5t12 34.5q0 41 -55 41q-37 0 -77 -20l-37 89q59 32 126 32q77 0 120.5 -36t43.5 -99q0 -43 -20.5 -72.5t-70.5 -61.5l-32 -20h130v-92h-294z" />
    <glyph glyph-name="three.dnom" horiz-adv-x="376" 
d="M166 -9q-78 0 -138 23l22 86q58 -16 100 -16q32 0 44.5 7t12.5 24q0 29 -40 29h-67v86h67q37 0 37 26q0 33 -59 33q-38 0 -83 -13l-27 83q62 22 128 22q77 0 118 -26.5t41 -76.5q0 -34 -18 -56.5t-51 -30.5q77 -19 77 -92q0 -52 -42.5 -80t-121.5 -28z" />
    <glyph glyph-name="four.dnom" horiz-adv-x="418" 
d="M227 0v69h-191v77l169 226h129v-224h45v-79h-45v-69h-107zM142 148h90v123z" />
    <glyph glyph-name="five.dnom" horiz-adv-x="387" 
d="M188 -9q-82 0 -142 26l22 85q26 -9 55.5 -14t54.5 -5q57 0 57 36q0 38 -50 38q-32 0 -64 -15l-63 33v197h266v-92h-165v-61q27 14 67 14q65 0 94 -33t29 -87q0 -122 -161 -122z" />
    <glyph glyph-name="six.dnom" horiz-adv-x="399" 
d="M204 -9q-169 0 -169 186q0 104 49 154t149 50q59 0 110 -21l-19 -86q-39 14 -80 14q-50 0 -71 -21t-21 -69q26 35 86 35t94 -30t34 -83q0 -61 -42.5 -95t-119.5 -34zM204 157q-32 0 -52 -19q1 -65 52 -65q48 0 48 42t-48 42z" />
    <glyph glyph-name="seven.dnom" horiz-adv-x="357" 
d="M26 275v97h301v-84l-115 -288h-131l119 275h-174z" />
    <glyph glyph-name="eight.dnom" horiz-adv-x="414" 
d="M207 -9q-82 0 -125.5 27.5t-43.5 79.5q0 33 18.5 57t50.5 33q-27 9 -43.5 33t-16.5 56q0 47 43.5 75.5t116.5 28.5t116.5 -28.5t43.5 -75.5q0 -32 -16.5 -56t-43.5 -33q32 -9 50.5 -33t18.5 -57q0 -52 -43.5 -79.5t-125.5 -27.5zM207 226q47 0 47 38q0 39 -47 39t-47 -38
q0 -39 47 -39zM207 71q50 0 50 40t-50 40t-50 -40t50 -40z" />
    <glyph glyph-name="nine.dnom" horiz-adv-x="399" 
d="M195 381q169 0 169 -186q0 -103 -48.5 -153.5t-149.5 -50.5q-59 0 -110 21l19 86q39 -14 80 -14q50 0 71 21t21 69q-26 -35 -86 -35t-94 30.5t-34 82.5q0 62 42.5 95.5t119.5 33.5zM147 257q0 -42 48 -42q32 0 52 19q-1 65 -52 65q-48 0 -48 -42z" />
    <glyph glyph-name="zero.numr" horiz-adv-x="416" 
d="M381 487q0 -95 -44 -144.5t-129 -49.5t-129 50t-44 146q0 95 44 144.5t129 49.5t129 -50t44 -146zM161 487q0 -58 10 -79t37 -21t37 22t10 80t-10 79t-37 21t-37 -21.5t-10 -80.5z" />
    <glyph glyph-name="one.numr" horiz-adv-x="298" 
d="M117 302v238h-88v93l79 3q18 1 21 17l5 26h105v-377h-122z" />
    <glyph glyph-name="two.numr" horiz-adv-x="373" 
d="M39 302v83l110 82q32 23 44 39.5t12 34.5q0 41 -55 41q-37 0 -77 -20l-37 89q59 32 126 32q77 0 120.5 -36t43.5 -99q0 -43 -20.5 -72.5t-70.5 -61.5l-32 -20h130v-92h-294z" />
    <glyph glyph-name="three.numr" horiz-adv-x="376" 
d="M166 293q-78 0 -138 23l22 86q58 -16 100 -16q32 0 44.5 7t12.5 24q0 29 -40 29h-67v86h67q37 0 37 26q0 33 -59 33q-38 0 -83 -13l-27 83q62 22 128 22q77 0 118 -26.5t41 -76.5q0 -34 -18 -56.5t-51 -30.5q77 -19 77 -92q0 -52 -42.5 -80t-121.5 -28z" />
    <glyph glyph-name="four.numr" horiz-adv-x="418" 
d="M227 302v69h-191v77l169 226h129v-224h45v-79h-45v-69h-107zM142 450h90v123z" />
    <glyph glyph-name="five.numr" horiz-adv-x="387" 
d="M188 293q-82 0 -142 26l22 85q26 -9 55.5 -14t54.5 -5q57 0 57 36q0 38 -50 38q-32 0 -64 -15l-63 33v197h266v-92h-165v-61q27 14 67 14q65 0 94 -33t29 -87q0 -122 -161 -122z" />
    <glyph glyph-name="six.numr" horiz-adv-x="399" 
d="M204 293q-169 0 -169 186q0 104 49 154t149 50q59 0 110 -21l-19 -86q-39 14 -80 14q-50 0 -71 -21t-21 -69q26 35 86 35t94 -30t34 -83q0 -61 -42.5 -95t-119.5 -34zM204 459q-32 0 -52 -19q1 -65 52 -65q48 0 48 42t-48 42z" />
    <glyph glyph-name="seven.numr" horiz-adv-x="357" 
d="M26 577v97h301v-84l-115 -288h-131l119 275h-174z" />
    <glyph glyph-name="eight.numr" horiz-adv-x="414" 
d="M207 293q-82 0 -125.5 27.5t-43.5 79.5q0 33 18.5 57t50.5 33q-27 9 -43.5 33t-16.5 56q0 47 43.5 75.5t116.5 28.5t116.5 -28.5t43.5 -75.5q0 -32 -16.5 -56t-43.5 -33q32 -9 50.5 -33t18.5 -57q0 -52 -43.5 -79.5t-125.5 -27.5zM207 528q47 0 47 38q0 39 -47 39
t-47 -38q0 -39 47 -39zM207 373q50 0 50 40t-50 40t-50 -40t50 -40z" />
    <glyph glyph-name="nine.numr" horiz-adv-x="399" 
d="M195 683q169 0 169 -186q0 -103 -48.5 -153.5t-149.5 -50.5q-59 0 -110 21l19 86q39 -14 80 -14q50 0 71 21t21 69q-26 -35 -86 -35t-94 30.5t-34 82.5q0 62 42.5 95.5t119.5 33.5zM147 559q0 -42 48 -42q32 0 52 19q-1 65 -52 65q-48 0 -48 -42z" />
    <glyph glyph-name="hyphen.case" horiz-adv-x="405" 
d="M42 255v164h321v-164h-321z" />
    <glyph glyph-name="uni2010.case" horiz-adv-x="405" 
d="M42 255v164h321v-164h-321z" />
    <glyph glyph-name="uni2011.case" horiz-adv-x="405" 
d="M42 255v164h321v-164h-321z" />
    <glyph glyph-name="uni00AD.case" horiz-adv-x="405" 
d="M42 255v164h321v-164h-321z" />
    <glyph glyph-name="endash.case" horiz-adv-x="450" 
d="M0 261v150h450v-150h-450z" />
    <glyph glyph-name="emdash.case" horiz-adv-x="900" 
d="M0 261v150h900v-150h-900z" />
    <glyph glyph-name="parenleft.case" horiz-adv-x="409" 
d="M214 -117q-64 92 -99 210t-35 242t35 242t99 210h165q-55 -97 -85 -215t-30 -237q0 -118 30 -236.5t85 -215.5h-165z" />
    <glyph glyph-name="parenright.case" horiz-adv-x="409" 
d="M195 -117h-165q55 97 85 215.5t30 236.5q0 119 -30 237t-85 215h165q65 -92 99.5 -210t34.5 -242t-34.5 -242t-99.5 -210z" />
    <glyph glyph-name="slash.case" horiz-adv-x="505" 
d="M16 -117l295 904h178l-295 -904h-178z" />
    <glyph glyph-name="backslash.case" horiz-adv-x="505" 
d="M489 -117h-178l-295 904h178z" />
    <glyph glyph-name="bracketleft.case" horiz-adv-x="415" 
d="M72 -117v904h317v-130h-145v-644h145v-130h-317z" />
    <glyph glyph-name="bracketright.case" horiz-adv-x="415" 
d="M343 -117h-317v130h145v644h-145v130h317v-904z" />
    <glyph glyph-name="braceleft.case" horiz-adv-x="446" 
d="M296 -128q-94 0 -146 39.5t-52 112.5q0 26 9 51.5t31 65.5q17 30 24 48t7 33q0 49 -56 49h-77v131h76q57 0 57 49q0 15 -7 33t-24 48q-22 40 -31 66t-9 51q0 73 52 112.5t146 39.5q32 0 65 -4.5t59 -12.5v-127q-37 10 -77 10q-39 0 -55.5 -11t-16.5 -37q0 -17 8 -35
t24 -44q21 -33 28.5 -52.5t7.5 -40.5q0 -47 -30.5 -76.5t-84.5 -34.5q54 -4 84.5 -33.5t30.5 -76.5q0 -21 -7.5 -40.5t-28.5 -52.5q-16 -26 -24 -44t-8 -35q0 -26 16.5 -37t55.5 -11q40 0 77 10v-127q-26 -8 -59 -12.5t-65 -4.5z" />
    <glyph glyph-name="braceright.case" horiz-adv-x="446" 
d="M150 -128q-32 0 -65 4.5t-59 12.5v127q37 -10 77 -10q39 0 55.5 11t16.5 37q0 17 -7.5 35t-24.5 44q-21 33 -28.5 52.5t-7.5 40.5q0 47 30.5 76.5t84.5 34.5q-54 4 -84.5 33.5t-30.5 76.5q0 21 7.5 40.5t28.5 52.5q17 26 24.5 44t7.5 35q0 26 -16.5 37t-55.5 11
q-40 0 -77 -10v127q26 8 59 12.5t65 4.5q95 0 146.5 -39.5t51.5 -112.5q0 -25 -8.5 -51t-31.5 -66q-17 -30 -24 -48t-7 -33q0 -49 57 -49h76v-131h-77q-56 0 -56 -49q0 -15 7 -33t24 -48q23 -40 31.5 -65.5t8.5 -51.5q0 -73 -51.5 -112.5t-146.5 -39.5z" />
    <glyph glyph-name="bullet.case" horiz-adv-x="538" 
d="M130 191v288h278v-288h-278z" />
    <glyph glyph-name="guilsinglleft.case" horiz-adv-x="462" 
d="M205 107l-163 213l163 213h216l-166 -213l166 -213h-216z" />
    <glyph glyph-name="guilsinglright.case" horiz-adv-x="462" 
d="M257 107h-216l166 213l-166 213h216l163 -213z" />
    <glyph glyph-name="guillemotleft.case" horiz-adv-x="783" 
d="M205 107l-163 213l163 213h216l-166 -213l166 -213h-216zM526 107l-163 213l163 213h216l-166 -213l166 -213h-216z" />
    <glyph glyph-name="guillemotright.case" horiz-adv-x="783" 
d="M257 107h-216l166 213l-166 213h216l163 -213zM578 107h-216l166 213l-166 213h216l163 -213z" />
    <glyph glyph-name="at.case" horiz-adv-x="953" 
d="M487 -117q-211 0 -323.5 110t-112.5 317q0 140 50.5 238.5t146.5 150.5t232 52q132 0 226 -47t144 -134.5t50 -210.5t-52 -189.5t-149 -66.5q-113 0 -148 70q-47 -70 -142 -70q-64 0 -99 34.5t-35 96.5q0 133 173 133h79q-1 38 -15.5 50.5t-56.5 12.5q-58 0 -115 -18
l-25 109q48 13 84.5 18.5t73.5 5.5q97 0 140 -39t43 -128v-109q0 -64 56 -64q79 0 79 155q0 140 -79.5 214.5t-229.5 74.5q-156 0 -239 -87.5t-83 -251.5q0 -160 83.5 -242.5t245.5 -82.5q133 0 229 48l38 -94q-98 -56 -269 -56zM463 207q36 0 64 24v57h-61q-48 0 -48 -41
q0 -40 45 -40z" />
    <glyph glyph-name="periodcentered.case" horiz-adv-x="286" 
d="M50 250v182h186v-182h-186z" />
    <glyph glyph-name="questiondown.case" horiz-adv-x="495" 
d="M182 513v161h186v-161h-186zM274 -17q-247 0 -247 182q0 54 22 93.5t71 73.5q33 23 49 38t21 31t5 41h160q0 -52 -6.5 -84.5t-25 -54.5t-53.5 -46q-42 -28 -55 -43.5t-13 -37.5t19 -32t62 -10q40 0 75.5 6.5t73.5 21.5l39 -141q-58 -21 -102.5 -29.5t-94.5 -8.5z" />
    <glyph glyph-name="exclamdown.case" horiz-adv-x="308" 
d="M61 513v161h186v-161h-186zM63 0l16 442h150l16 -442h-182z" />
    <glyph glyph-name="periodcentered.loclCAT" horiz-adv-x="114" 
d="M-40 292v154h150v-154h-150z" />
    <glyph glyph-name="periodcentered.loclCAT.cap" horiz-adv-x="0" 
d="M-177 307v154h150v-154h-150z" />
    <glyph glyph-name="uni0327.cap" horiz-adv-x="0" 
d="M-30 -271q-53 0 -97 12v93q22 -4 39.5 -5.5t32.5 -1.5q32 0 45.5 7.5t13.5 20.5q0 16 -18.5 22.5t-65.5 6.5l20 127l95 -1l-10 -55q60 -9 88 -35.5t28 -73.5q0 -117 -171 -117z" />
    <glyph glyph-name="uni0326.cap" horiz-adv-x="0" 
d="M-112 -284l37 198h155l-63 -198h-129z" />
    <glyph glyph-name="commabelow" horiz-adv-x="252" 
d="M30 -284l37 198h155l-63 -198h-129z" />
    <glyph glyph-name="uni0328.cap" horiz-adv-x="0" 
d="M-83 -237q-77 0 -121 33.5t-44 92.5q0 41 20.5 74.5t53.5 50.5l174 -14q-45 -12 -69.5 -32t-24.5 -46q0 -40 59 -40q9 0 19.5 1t24.5 4v-111q-45 -13 -92 -13z" />
    <glyph glyph-name="uni0328.round" horiz-adv-x="0" 
d="M-88 -237q-74 0 -114 30t-40 86q0 67 63 112.5t173 58.5l7 -23q-47 -16 -73.5 -41t-26.5 -57q0 -47 58 -47q10 0 20.5 1t23.5 4v-111q-23 -7 -44 -10t-47 -3z" />
    <glyph glyph-name="acutecomb.cap" horiz-adv-x="0" 
d="M-109 741l149 181h205l-184 -181h-170z" />
    <glyph glyph-name="IJacute" horiz-adv-x="825" 
d="M70 0v674h192v-674h-192zM521 -15q-87 0 -154 31l36 139q25 -10 45 -14t37 -4q47 0 67 21.5t20 70.5v291h-166v154h358v-463q0 -115 -59 -170.5t-184 -55.5zM57 741l149 181h205l-184 -181h-170zM505 741l149 181h205l-184 -181h-170z" />
    <glyph glyph-name="ijacute" horiz-adv-x="656" 
d="M85 0v384h-65v130h251v-514h-186zM419 -209q-31 0 -50 3.5t-38 8.5v132q19 -4 38 -4q22 0 33 11t11 38v404h-65v130h251v-493q0 -72 -13 -123.5t-51.5 -79t-115.5 -27.5zM71 592l127 189h181l-149 -189h-159zM399 592l127 189h181l-149 -189h-159z" />
    <glyph glyph-name="gravecomb.cap" horiz-adv-x="0" 
d="M-74 741l-184 181h205l149 -181h-170z" />
    <glyph glyph-name="uni0302.cap" horiz-adv-x="0" 
d="M-223 741l129 181h187l129 -181h-164l-58 95l-59 -95h-164z" />
    <glyph glyph-name="tildecomb.cap" horiz-adv-x="0" 
d="M-194 741q0 98 28.5 142t92.5 44q36 0 60 -11t57 -44l11 -11q14 -13 19.5 -17t12.5 -4q14 0 18.5 16.5t4.5 65.5h108q0 -97 -28 -141.5t-93 -44.5q-36 0 -60 11t-57 44l-11 11q-13 14 -19 17.5t-13 3.5q-13 0 -18 -16.5t-5 -65.5h-108z" />
    <glyph glyph-name="uni030C.cap" horiz-adv-x="0" 
d="M-94 741l-129 181h164l59 -95l58 95h164l-129 -181h-187z" />
    <glyph glyph-name="uni0308.cap" horiz-adv-x="0" 
d="M-185 739v145h152v-145h-152zM33 739v145h152v-145h-152z" />
    <glyph glyph-name="uni0306.cap" horiz-adv-x="0" 
d="M0 736q-99 0 -146.5 49.5t-47.5 136.5h140q0 -80 54 -80t54 80h140q0 -87 -47.5 -136.5t-146.5 -49.5z" />
    <glyph glyph-name="uni030A.cap" horiz-adv-x="0" 
d="M0 732q-57 0 -93.5 34t-36.5 94t36.5 94t93.5 34t93.5 -34.5t36.5 -93.5t-36.5 -93.5t-93.5 -34.5zM0 808q23 0 36.5 13.5t13.5 38.5q0 26 -14 39t-36 13t-36 -13t-14 -39q0 -25 14 -38.5t36 -13.5z" />
    <glyph glyph-name="uni0307.cap" horiz-adv-x="0" 
d="M-92 739v154h184v-154h-184z" />
    <glyph glyph-name="cent.BRACKET.160" 
d="M315 -67v96q-238 20 -238 261q0 121 62.5 193t175.5 83v89h75v-89q58 -5 124 -26l-32 -130q-52 16 -92 16v-257q27 0 49 3.5t44 11.5l32 -130q-59 -21 -125 -26v-95h-75zM260 291q0 -45 13 -72t42 -39v233q-55 -26 -55 -122z" />
    <glyph glyph-name="dollar.BRACKET.160" 
d="M255 -67v95q-60 3 -119.5 13.5t-98.5 26.5l30 133q100 -29 188 -33v95l-34 5q-94 14 -137 53t-43 112q0 86 54.5 135.5t159.5 58.5v99h75v-98q101 -3 181 -30l-32 -128q-30 10 -69 16t-80 8v-102l26 -4q94 -13 137 -55.5t43 -121.5q0 -86 -50.5 -131t-155.5 -52v-95h-75z
M202 445q0 -19 11.5 -28t41.5 -14v88q-53 -9 -53 -46zM382 209q0 36 -52 43v-82q52 8 52 39z" />
    <glyph glyph-name="g.salt" horiz-adv-x="561" 
d="M258 182q-27 0 -50 3q-17 -7 -27.5 -17.5t-10.5 -21.5q0 -19 27 -19h150q190 0 190 -152q0 -94 -69.5 -139t-213.5 -45q-252 0 -252 121q0 75 89 90q-64 25 -64 87q0 82 101 115q-92 41 -92 152q0 174 223 174q106 0 161 -40q40 36 104 36h16v-130h-16h-46q3 -19 3 -40
q0 -174 -223 -174zM258 282q56 0 56 74q0 40 -12.5 57t-42.5 17q-29 0 -42.5 -17.5t-13.5 -56.5q0 -74 55 -74zM164 -52q0 -26 23 -36.5t80 -10.5q61 0 85 10.5t24 35.5q0 42 -60 42h-135q-17 -15 -17 -41z" />
    </font>
</defs>
</svg>
