<?xml version="1.0" standalone="no"?>
<!DOCTYPE svg PUBLIC "-//W3C//DTD SVG 1.1//EN" "http://www.w3.org/Graphics/SVG/1.1/DTD/svg11.dtd" >
<svg xmlns="http://www.w3.org/2000/svg" xmlns:xlink="http://www.w3.org/1999/xlink" version="1.1">
<metadata>
Created by FontForge 20170731 at Wed Jul 22 20:11:08 2020
 By Aleksey,,,
Copyright 2018 The Goldman Project Authors (https://github.com/magictype/goldman)
</metadata>
<defs>
<font id="Goldman-Regular" horiz-adv-x="640" >
  <font-face 
    font-family="Goldman"
    font-weight="400"
    font-stretch="normal"
    units-per-em="1000"
    panose-1="0 0 0 0 0 0 0 0 0 0"
    ascent="800"
    descent="-200"
    x-height="448"
    cap-height="588"
    bbox="-550 -680 4315 1054"
    underline-thickness="50"
    underline-position="-175"
    unicode-range="U+000D-FB02"
  />
<missing-glyph horiz-adv-x="576" 
d="M0 0v588h576v-588h-576zM132 96h312v396h-312v-396z" />
    <glyph glyph-name="f_f" unicode="ff" horiz-adv-x="811" 
d="M82 0v362h-62v85h62v89q0 34 13.5 63t45 47t83.5 18h50q80 0 129.5 -12.5t72.5 -30.5t23 -37l-30 -76q-7 11 -25 27.5t-51.5 29.5t-90.5 13h-50q-25 0 -36.5 -9t-11.5 -31v-91h208v-85h-208v-362h-122zM414 0v362h-62v85h62v89q0 34 13.5 63t45 47t83.5 18h50
q120 0 172.5 -11t52.5 -19l-30 -76q-17 7 -61 13.5t-106 6.5h-50q-25 0 -36.5 -9t-11.5 -31v-91h208v-85h-208v-362h-122z" />
    <glyph glyph-name="f_f_i" unicode="ffi" horiz-adv-x="982" 
d="M82 0v362h-62v85h62v89q0 34 13.5 63t45 47t83.5 18h50q80 0 129.5 -12.5t72.5 -30.5t23 -37l-30 -76q-7 11 -25 27.5t-51.5 29.5t-90.5 13h-50q-25 0 -36.5 -9t-11.5 -31v-91h208v-85h-208v-362h-122zM454 0v362h-62v85h62v89q0 63 38 95.5t104 32.5h113
q80 0 126.5 -9.5t66.5 -30t20 -54.5t-17 -49.5t-55 -15.5q-37 0 -54 17.5t-17 54.5q-9 1 -19 1h-23h-113q-27 0 -37.5 -10.5t-10.5 -29.5v-91l215 -9l121 10v-448h-122v362h-214v-362h-122z" />
    <glyph glyph-name="f_f_l" unicode="ffl" horiz-adv-x="947" 
d="M82 0v362h-62v85h62v89q0 34 13.5 63t45 47t83.5 18h50q80 0 129.5 -12.5t72.5 -30.5t23 -37l-30 -76q-7 11 -25 27.5t-51.5 29.5t-90.5 13h-50q-25 0 -36.5 -9t-11.5 -31v-91h208v-85h-208v-362h-122zM424 0v362h-62v85h62v89q0 34 13.5 63t45 47t83.5 18h61q48 0 83 -8
t58 -21l119 9v-644h-122v498q0 23 -9.5 41t-37 28.5t-82.5 10.5h-42q-25 0 -36.5 -9t-11.5 -31v-90h138v-86h-138v-362h-122z" />
    <glyph glyph-name="f_i" unicode="fi" horiz-adv-x="610" 
d="M82 0v362h-62v85h62v89q0 63 38 95.5t104 32.5h113q80 0 126.5 -9.5t66.5 -30t20 -54.5t-17 -49.5t-55 -15.5q-37 0 -54 17.5t-17 54.5q-9 1 -19 1h-23h-113q-27 0 -37.5 -10.5t-10.5 -29.5v-91l215 -9l121 10v-448h-122v362h-214v-362h-122z" />
    <glyph glyph-name="f_l" unicode="fl" horiz-adv-x="605" 
d="M82 0v362h-62v85h62v89q0 34 13.5 63t45 47t83.5 18h61q48 0 83 -8t58 -21l119 9v-644h-122v498q0 23 -9.5 41t-37 28.5t-82.5 10.5h-42q-25 0 -36.5 -9t-11.5 -31v-90h138v-86h-138v-362h-122z" />
    <glyph glyph-name=".notdef" horiz-adv-x="576" 
d="M0 0v588h576v-588h-576zM132 96h312v396h-312v-396z" />
    <glyph glyph-name=".null" horiz-adv-x="600" 
 />
    <glyph glyph-name="nonmarkingreturn" horiz-adv-x="600" 
 />
    <glyph glyph-name="CR" unicode="&#xd;" horiz-adv-x="600" 
 />
    <glyph glyph-name="space" unicode=" " horiz-adv-x="220" 
 />
    <glyph glyph-name="exclam" unicode="!" horiz-adv-x="333" 
d="M131 210q-8 47 -17 99.5t-16.5 101t-12.5 83.5t-5 45q0 29 5.5 44t34.5 15h93q27 0 33.5 -14.5t6.5 -44.5q0 -11 -4.5 -45.5t-12 -83t-16.5 -101t-17 -99.5h-72zM166 0q-37 0 -54 15t-17 50q0 36 16.5 50.5t54.5 14.5t55 -14.5t17 -50.5q0 -34 -17 -49.5t-55 -15.5z" />
    <glyph glyph-name="quotedbl" unicode="&#x22;" horiz-adv-x="350" 
d="M100 500q-10 0 -19 17.5t-16.5 44.5t-13 57t-8.5 56.5t-3 40.5q0 28 11 41t49 13t50 -13t12 -41q0 -14 -3 -40t-9 -56t-13.5 -57.5t-17 -45t-19.5 -17.5zM260 500q-10 0 -19 17.5t-16.5 44.5t-13 57t-8.5 56.5t-3 40.5q0 28 11 41t49 13t50 -13t12 -41q0 -14 -3 -40
t-9 -56t-13.5 -57.5t-17 -45t-19.5 -17.5z" />
    <glyph glyph-name="numbersign" unicode="#" horiz-adv-x="873" 
d="M132 0l42 130h-94v96h126l47 145h-123v96h154l23 70l12 51h130l-40 -121h158l23 70l12 51h130l-40 -121h101v-96h-132l-47 -145h129v-96h-161l-25 -78l-12 -52h-130l42 130h-158l-25 -78l-12 -52h-130zM331 226h158l47 145h-158z" />
    <glyph glyph-name="dollar" unicode="$" horiz-adv-x="696" 
d="M253 249q-101 0 -147 38t-46 122v16q0 44 16.5 81t56.5 59.5t110 22.5h56v62h100v-62h66q68 0 110 -7t42 -15l-20 -84q-20 2 -78 5.5t-146 3.5l-58 2h-44q-46 0 -62 -18.5t-17 -46.5v-17q0 -33 18.5 -49.5t61.5 -16.5h162q64 0 109 -13t69 -47.5t24 -101.5v-16
q0 -75 -38.5 -121t-133.5 -46h-65v-60h-100v60h-107q-68 0 -100 6t-32 14l40 87q14 -2 71.5 -6t155.5 -4l56 -1h42q43 0 61 15.5t18 52.5v20q0 35 -14.5 50t-64.5 15h-172z" />
    <glyph glyph-name="percent" unicode="%" horiz-adv-x="896" 
d="M221 0l312 537l12 51h131l-312 -539l-12 -49h-131zM152 309q-44 0 -63.5 12t-24 32t-4.5 44v103q0 20 4 40.5t23 34t65 13.5h109q44 0 63.5 -13.5t24 -34t4.5 -40.5v-103q0 -24 -4.5 -44t-24 -32t-63.5 -12h-109zM172 386h69q11 0 15.5 6.5t4.5 13.5v86q0 7 -4.5 13.5
t-15.5 6.5h-69q-12 0 -16.5 -6.5t-3.5 -13.5v-86q-1 -7 3.5 -13.5t16.5 -6.5zM635 0q-44 0 -63.5 12t-24 32t-4.5 44v103q0 20 4 40.5t23 34t65 13.5h109q44 0 63.5 -13.5t24 -34t4.5 -40.5v-103q0 -24 -4.5 -44t-24 -32t-63.5 -12h-109zM655 77h69q11 0 15.5 6.5t4.5 13.5
v86q0 7 -4.5 13.5t-15.5 6.5h-69q-12 0 -16.5 -6.5t-3.5 -13.5v-86q-1 -7 3.5 -13.5t16.5 -6.5z" />
    <glyph glyph-name="ampersand" unicode="&#x26;" horiz-adv-x="804" 
d="M699 -10q-52 0 -87 16t-70 45q-18 -12 -42.5 -23.5t-65.5 -19t-107 -7.5h-84q-62 0 -97.5 20t-50.5 56t-15 84v34q0 78 31 120t89 55q-11 14 -21.5 37.5t-10.5 57.5v14q0 24 13.5 49.5t44.5 43t85 17.5h104q50 0 77 -11.5t38.5 -29.5t14 -37t2.5 -34v-37
q0 -17 -9.5 -24.5t-25.5 -7.5h-85v49q0 17 -8 26.5t-28 9.5h-49q-22 0 -31.5 -9.5t-9.5 -26.5q0 -28 12 -44.5t43 -39.5q36 -25 71.5 -50.5t66.5 -53.5q16 -14 35 -32.5t35 -34.5t21 -22l10 7v178l141 -10v-84q0 -21 -5.5 -37t-22.5 -33l-32 -32l-32 -32q35 -34 74.5 -49
t65.5 -15l-12 -72q-8 -4 -27.5 -7.5t-45.5 -3.5zM277 110h125q41 0 57.5 7t18.5 9q-25 24 -60 59t-79 71q-38 31 -72 31q-26 0 -42.5 -17.5t-16.5 -47.5v-42q0 -37 16 -53.5t53 -16.5z" />
    <glyph glyph-name="quotesingle" unicode="'" horiz-adv-x="202" 
d="M100 500q-10 0 -19 17.5t-16.5 44.5t-13 57t-8.5 56.5t-3 40.5q0 28 11 41t49 13t50 -13t12 -41q0 -14 -3 -40t-9 -56t-13.5 -57.5t-17 -45t-19.5 -17.5z" />
    <glyph glyph-name="parenleft" unicode="(" horiz-adv-x="294" 
d="M217 -80l17 50q-27 26 -49 64.5t-35.5 102t-13.5 166.5q0 77 8.5 129.5t22.5 87t31.5 57t35.5 40.5l-17 50q-59 0 -99.5 -28.5t-65.5 -79t-36.5 -116t-11.5 -140.5q0 -72 11.5 -140.5t36.5 -123.5t65.5 -87t99.5 -32z" />
    <glyph glyph-name="parenright" unicode=")" horiz-adv-x="310" 
d="M57 -80l-17 50q27 26 49 64.5t35.5 102t13.5 166.5q0 77 -8.5 129.5t-22.5 87t-31.5 57t-35.5 40.5l17 50q59 0 99.5 -28.5t65.5 -79t36.5 -116t11.5 -140.5q0 -72 -11.5 -140.5t-36.5 -123.5t-65.5 -87t-99.5 -32z" />
    <glyph glyph-name="asterisk" unicode="*" horiz-adv-x="540" 
d="M203 270l-80 58l21 45l110 71l-130 -8l-44 24l30 94l50 -6l99 -82l-47 120l10 49h98l10 -49l-47 -120l97 80l49 6l31 -94l-44 -24l-124 8l104 -66l21 -45l-79 -58l-37 34l-30 119l-32 -122z" />
    <glyph glyph-name="plus" unicode="+" horiz-adv-x="641" 
d="M271 50v190h-191v100h191v190h100v-190h190v-100h-190v-190h-100z" />
    <glyph glyph-name="comma" unicode="," horiz-adv-x="298" 
d="M86 -138q-21 -6 -24.5 5.5t3.5 23.5q6 8 16.5 26t20.5 40.5t13 45.5q-26 4 -38 19t-12 46q0 35 16.5 49.5t54.5 14.5q41 0 61.5 -17.5t20.5 -57.5q0 -29 -12.5 -61t-32.5 -60.5t-43 -48t-44 -25.5z" />
    <glyph glyph-name="hyphen" unicode="-" horiz-adv-x="480" 
d="M80 220v116h320v-116h-320z" />
    <glyph glyph-name="period" unicode="." horiz-adv-x="303" 
d="M151 0q-37 0 -54 15t-17 50q0 36 16.5 50.5t54.5 14.5t55 -14.5t17 -50.5q0 -34 -17 -49.5t-55 -15.5z" />
    <glyph glyph-name="slash" unicode="/" horiz-adv-x="442" 
d="M20 -80l259 662l12 51h131l-259 -664l-12 -49h-131z" />
    <glyph glyph-name="zero" unicode="0" horiz-adv-x="756" 
d="M263 0q-70 0 -110 20t-56.5 60t-16.5 99v231q0 58 16 97.5t56 60t111 20.5h231q70 0 109.5 -20.5t56 -60t16.5 -97.5v-231q0 -88 -39 -133.5t-143 -45.5h-231zM292 96h174q37 0 57.5 19t20.5 52v255q0 29 -21 49.5t-57 20.5h-174q-36 0 -58 -19t-22 -51v-255
q0 -34 21.5 -52.5t58.5 -18.5z" />
    <glyph glyph-name="one" unicode="1" horiz-adv-x="359" 
d="M147 0v492l-120 -9l-7 85l259 30v-598h-132z" />
    <glyph glyph-name="two" unicode="2" horiz-adv-x="636" 
d="M40 0v97q17 11 51.5 33t77 49t86.5 55.5t81.5 54t59.5 42.5q32 25 44.5 48.5t12.5 46.5v20q0 25 -20 41t-66 16h-30q-58 0 -116 -4t-103.5 -8.5t-67.5 -7.5l-10 91q28 5 77 11t113 10t134 4h28q63 0 101 -14.5t58.5 -37.5t27.5 -50.5t7 -53.5v-21q0 -53 -34.5 -102.5
t-111.5 -92.5q-84 -46 -141.5 -77.5t-82.5 -45.5v-8h400v-96h-576z" />
    <glyph glyph-name="three" unicode="3" horiz-adv-x="691" 
d="M232 0q-75 0 -115 6t-56 13.5t-21 10.5l39 77q6 -1 24 -3t55.5 -3.5t101.5 -3t161 -1.5q37 0 56 10t25.5 26.5t6.5 34.5v24q0 26 -14 43.5t-55 17.5h-284v88h233q47 0 68 18.5t21 46.5v31q0 28 -16 47t-62 19h-28q-52 0 -109 -3.5t-107 -8t-81 -8.5l-10 91q19 3 68 9
t118 11t149 5h28q61 0 97 -14.5t54.5 -38t24.5 -51t6 -53.5v-17q0 -45 -21 -70t-39 -37q44 -13 67.5 -45t23.5 -79v-24q0 -29 -7.5 -59t-29.5 -55t-64 -40t-111 -15h-197z" />
    <glyph glyph-name="four" unicode="4" horiz-adv-x="758" 
d="M432 0v108h-392v98l339 382h185v-384h134v-96h-134v-108h-132zM203 204h229v262h-10l-218 -252z" />
    <glyph glyph-name="five" unicode="5" horiz-adv-x="693" 
d="M234 0q-67 0 -107 6t-59.5 13.5t-27.5 10.5l39 77q22 -2 105 -6.5t249 -4.5q44 0 61 19.5t17 51.5v38q0 29 -16.5 50t-62.5 21h-282l-80 -10v322h452q50 0 71 -4t21 -8l-20 -84h-392v-137q13 2 52.5 5t107.5 3h79q112 0 157 -40.5t45 -120.5v-23q0 -31 -5 -62.5t-22 -58
t-54 -42.5t-101 -16h-227z" />
    <glyph glyph-name="six" unicode="6" horiz-adv-x="724" 
d="M262 0q-67 0 -104.5 19t-54 48t-20 59t-3.5 52v231q0 20 3.5 50t19.5 59.5t53.5 49.5t105.5 20h185q78 0 118 -6t55.5 -13t19.5 -11l-18 -76q-13 2 -98 6t-234 4q-47 0 -62.5 -22.5t-15.5 -48.5v-65q12 2 55 5t126 3h99q72 0 111.5 -18t55 -54t15.5 -90v-24
q0 -30 -4.5 -61.5t-21.5 -57.5t-53.5 -42.5t-101.5 -16.5h-231zM290 96h174q33 0 49.5 10.5t22.5 27t6 33.5v48q0 27 -13 44t-56 17h-261v-110q0 -29 17.5 -49.5t60.5 -20.5z" />
    <glyph glyph-name="seven" unicode="7" horiz-adv-x="617" 
d="M137 0l28 60l288 422v10h-433v96h577v-97l-311 -491h-149z" />
    <glyph glyph-name="eight" unicode="8" horiz-adv-x="696" 
d="M233 0q-96 0 -139.5 40.5t-43.5 128.5v11q0 47 18.5 84t66.5 55q-28 14 -41.5 43t-13.5 67v11q0 39 16 73t56 54.5t111 20.5h171q70 0 109.5 -20.5t56 -54.5t16.5 -73v-11q0 -37 -13 -65.5t-43 -44.5q48 -18 67 -55t19 -84v-11q0 -88 -43.5 -128.5t-138.5 -40.5h-231z
M292 348h114q39 0 58.5 16t19.5 53v5q0 37 -15 53.5t-63 16.5h-114q-46 0 -63 -15t-17 -55v-5q0 -37 18.5 -53t61.5 -16zM262 96h174q37 0 57.5 17t20.5 54v23q0 32 -21 51t-57 19h-174q-36 0 -58 -17.5t-22 -52.5v-23q0 -37 21.5 -54t58.5 -17z" />
    <glyph glyph-name="nine" unicode="9" horiz-adv-x="724" 
d="M235 0q-85 0 -123 9t-49 21l39 77q16 -2 53 -5t104.5 -4.5t174.5 -1.5q32 0 48.5 11t23 27.5t6.5 32.5v65q-9 -1 -48.5 -4.5t-122.5 -3.5h-109q-101 0 -141.5 42.5t-40.5 129.5v14q0 30 4.5 61.5t21.5 57.5t54 42.5t101 16.5h231q68 0 105 -19t53.5 -48t20 -59t3.5 -52
v-231q0 -20 -3.5 -50t-19.5 -59.5t-53.5 -49.5t-105.5 -20h-227zM261 312h251v110q0 28 -18.5 49t-59.5 21h-173q-46 0 -62.5 -23t-16.5 -47v-38q0 -34 15 -53t64 -19z" />
    <glyph glyph-name="colon" unicode=":" horiz-adv-x="303" 
d="M151 330q-37 0 -54 15t-17 50q0 36 16.5 50.5t54.5 14.5t55 -14.5t17 -50.5q0 -34 -17 -49.5t-55 -15.5zM151 0q-37 0 -54 15t-17 50q0 36 16.5 50.5t54.5 14.5t55 -14.5t17 -50.5q0 -34 -17 -49.5t-55 -15.5z" />
    <glyph glyph-name="semicolon" unicode=";" horiz-adv-x="318" 
d="M151 330q-37 0 -54 15t-17 50q0 36 16.5 50.5t54.5 14.5t55 -14.5t17 -50.5q0 -34 -17 -49.5t-55 -15.5zM86 -138q-21 -6 -24.5 5.5t3.5 23.5q6 8 16.5 26t20.5 40.5t13 45.5q-26 4 -38 19t-12 46q0 35 16.5 49.5t54.5 14.5q41 0 61.5 -17.5t20.5 -57.5q0 -29 -12.5 -61
t-32.5 -60.5t-43 -48t-44 -25.5z" />
    <glyph glyph-name="less" unicode="&#x3c;" 
d="M560 120v110l-344 120l344 117v113l-480 -170v-120z" />
    <glyph glyph-name="equal" unicode="=" horiz-adv-x="560" 
d="M559 319l-479 1v101l479 -1v-101zM559 139l-479 1v101l479 -1v-101z" />
    <glyph glyph-name="greater" unicode="&#x3e;" 
d="M80 120v110l344 120l-344 117v113l480 -170v-120z" />
    <glyph glyph-name="question" unicode="?" horiz-adv-x="626" 
d="M205 210q-3 8 -6.5 22.5t-3.5 31.5q0 40 24 60t76 20h62q32 0 44.5 15t12.5 46v46q-1 26 -14 38t-45 12h-85q-61 0 -104 -7t-66 -13l-20 87q23 14 72 22t128 8h93q91 0 132 -41t41 -103v-63q0 -64 -38.5 -99t-103.5 -35h-75q-26 0 -36 -11t-14 -36h-74zM243 0
q-37 0 -54 15t-17 50q0 36 16.5 50.5t54.5 14.5t55 -14.5t17 -50.5q0 -34 -17 -49.5t-55 -15.5z" />
    <glyph glyph-name="at" unicode="@" horiz-adv-x="939" 
d="M272 -100q-69 0 -111 23t-61.5 61t-19.5 84v352q0 54 19.5 96.5t61.5 67t111 24.5h410q86 0 131.5 -45t45.5 -123v-257q0 -62 -38.5 -93t-103.5 -31h-18q-54 0 -82 24.5t-28 65.5q-7 -26 -23 -47t-47 -33.5t-84 -12.5h-77q-43 0 -65.5 22.5t-22.5 56.5v217
q0 37 22.5 58.5t65.5 21.5q23 0 59 -1.5t75.5 -4t69.5 -4.5l61 30h40v-256q0 -25 13.5 -38t33.5 -13h10q26 0 37 13t11 38v232q1 27 -7.5 49.5t-32 36.5t-68.5 14h-381q-44 0 -68 -14t-32.5 -36.5t-8.5 -49.5v-348q0 -26 8.5 -49t32.5 -37t68 -14h440l-30 -70
q-3 -3 -16 -6.5t-36 -3.5h-365zM422 145h30q49 0 69.5 23t20.5 66v106h-120q-18 0 -24.5 -6.5t-6.5 -23.5v-134q0 -17 8 -24t23 -7z" />
    <glyph glyph-name="A" unicode="A" horiz-adv-x="782" 
d="M0 0l293 588h197l292 -588h-154l-59 127h-358l-65 -127h-146zM247 225h285l-137 273h-10z" />
    <glyph glyph-name="B" unicode="B" horiz-adv-x="796" 
d="M80 0v589h435q94 0 137 -37.5t43 -90.5v-30q0 -41 -17.5 -67.5t-37.5 -37.5q44 -14 70 -48.5t26 -90.5v-18q0 -30 -7 -60t-26.5 -54.5t-55 -39.5t-92.5 -15h-475zM212 353h282q35 -1 52 17.5t17 46.5v10q0 23 -16 44.5t-60 21.5h-275v-140zM212 96h315q38 0 57.5 19
t19.5 52v18q0 31 -23 50.5t-76 19.5h-293v-159z" />
    <glyph glyph-name="C" unicode="C" horiz-adv-x="755" 
d="M253 0q-71 0 -111 20t-56 60t-16 99v223q0 96 43 141.5t140 45.5h301q69 0 105.5 -7.5t36.5 -15.5l-20 -83q-17 3 -100.5 6.5t-242.5 3.5h-51q-80 0 -80 -71v-255q0 -34 17.5 -52.5t62.5 -18.5h41q166 0 257.5 3.5t113.5 7.5l41 -66q0 -5 -16.5 -15t-60.5 -18t-127 -8
h-278z" />
    <glyph glyph-name="D" unicode="D" horiz-adv-x="806" 
d="M90 0v508l-10 80h464q81 0 124.5 -20t60.5 -59.5t17 -98.5v-231q0 -60 -16.5 -99.5t-60 -59.5t-125.5 -20h-454zM222 96h314q77 0 78 71v255q0 29 -17 49.5t-61 20.5h-314v-396z" />
    <glyph glyph-name="E" unicode="E" horiz-adv-x="766" 
d="M80 0v588h622v-96h-490v-138h374v-99h-374v-159h494l40 -85q0 -4 -27 -7.5t-93 -3.5h-546z" />
    <glyph glyph-name="F" unicode="F" horiz-adv-x="724" 
d="M90 0v508l-10 80h624v-96h-482v-146h374v-99h-374v-247h-132z" />
    <glyph glyph-name="G" unicode="G" horiz-adv-x="795" 
d="M253 0q-71 0 -111 20t-56 60t-16 99v223q0 96 43 141.5t140 45.5h301q69 0 105.5 -7.5t36.5 -15.5l-20 -83q-17 3 -100.5 6.5t-242.5 3.5h-51q-80 0 -80 -71v-255q0 -34 17.5 -52.5t62.5 -18.5h41q96 0 162 1.5t109 2.5v136l-60 -1l-131 -10v98h322v-281l10 -21
q0 -8 -42 -14.5t-142 -6.5h-298z" />
    <glyph glyph-name="H" unicode="H" horiz-adv-x="816" 
d="M80 0v588h132v-244h392v244h132v-588h-132v248h-392v-248h-132z" />
    <glyph glyph-name="I" unicode="I" horiz-adv-x="292" 
d="M80 0v588h132v-588h-132z" />
    <glyph glyph-name="J" unicode="J" horiz-adv-x="662" 
d="M272 0q-72 0 -131.5 3.5t-95 12.5t-35.5 25l50 77q29 -13 80.5 -17.5t136.5 -4.5h96q47 0 62 22.5t15 48.5v341l-8 80h140v-409q0 -50 -12.5 -91t-51 -64.5t-117.5 -23.5h-129z" />
    <glyph glyph-name="K" unicode="K" horiz-adv-x="798" 
d="M707 -10q-49 0 -85 20t-71 54q-38 40 -92 92q-25 26 -51 43t-58.5 26t-80.5 9h-47v-234h-132v508l-10 80h142v-256h56q20 0 33 5t24 16q28 28 64 70t70.5 86.5t59.5 78.5h162l-41 -60q-28 -29 -60 -63t-63 -66.5t-56 -57t-37 -35.5q27 -9 49.5 -23t55.5 -41
q25 -20 48.5 -41t54.5 -50q35 -32 66 -47t52.5 -19t27.5 -4l-20 -81q-3 -3 -18 -6.5t-43 -3.5z" />
    <glyph glyph-name="L" unicode="L" horiz-adv-x="686" 
d="M80 0l10 80v508h132v-492h414l40 -85q0 -4 -27 -7.5t-93 -3.5h-476z" />
    <glyph glyph-name="M" unicode="M" horiz-adv-x="907" 
d="M90 0v508l-10 80h152l226 -400l234 400h135v-588h-132v373h-11l-39 -87l-126 -226h-121l-126 226l-40 87h-10v-373h-132z" />
    <glyph glyph-name="N" unicode="N" horiz-adv-x="826" 
d="M90 0v508l-10 80h144l340 -356l39 -54h11v410h132v-588h-127l-348 362l-39 47h-10v-409h-132z" />
    <glyph glyph-name="O" unicode="O" horiz-adv-x="797" 
d="M253 0q-70 0 -110 20t-56.5 60t-16.5 99v231q0 58 16 97.5t56 60t111 20.5h292q70 0 109.5 -20.5t56 -60t16.5 -97.5v-231q0 -88 -39 -133.5t-143 -45.5h-292zM282 96h235q37 0 57.5 19t20.5 52v255q0 29 -21 49.5t-57 20.5h-235q-36 0 -58 -19t-22 -51v-255
q0 -34 21.5 -52.5t58.5 -18.5z" />
    <glyph glyph-name="P" unicode="P" horiz-adv-x="765" 
d="M90 0v508l-10 81h443q64 0 100.5 -17t54 -44.5t22.5 -58.5t5 -59v-59q0 -23 -7 -51.5t-26 -55t-55 -44t-94 -17.5h-102q-63 0 -117.5 3t-81.5 5v-191h-132zM222 279h272q45 0 62 22t17 53v63q0 32 -17 54t-61 22h-273v-214z" />
    <glyph glyph-name="Q" unicode="Q" horiz-adv-x="806" 
d="M253 0q-70 0 -110 20t-56.5 60t-16.5 99v231q0 58 16 97.5t56 60t111 20.5h292q70 0 109.5 -20.5t56 -60t16.5 -97.5v-131q0 -75 -18.5 -119.5t-65.5 -75.5q-29 -19 -99 -46q42 -7 78.5 -14.5t63.5 -12.5q33 -6 67.5 -10.5t60.5 -7t32 -3.5l-22 -86q-4 -1 -21 -4.5
t-46 -3.5q-43 0 -80.5 8.5t-82.5 22.5q-40 13 -73.5 26t-69.5 23.5t-83 17t-115 6.5zM282 96h124q67 0 108.5 15.5t61 55t19.5 110.5v145q0 29 -21 49.5t-57 20.5h-235q-36 0 -58 -19t-22 -51v-255q0 -34 21.5 -52.5t58.5 -18.5z" />
    <glyph glyph-name="R" unicode="R" horiz-adv-x="828" 
d="M719 -10q-40 0 -78.5 12.5t-87.5 61.5l-72 72q-44 45 -96.5 66t-131.5 21h-31v-223h-132v508l-10 81h443q64 0 100.5 -17t54 -44.5t22.5 -58.5t5 -59v-19q0 -22 -6 -49t-23 -53t-48.5 -44t-82.5 -21q13 -7 33 -21.5t41.5 -31.5t39.5 -31t28 -20q36 -21 64 -29t46 -9
t21 -1l-20 -81q-9 -3 -30 -6.5t-49 -3.5zM372 314q38 0 68 1.5t54 3.5q44 5 61.5 24.5t17.5 50.5v23q0 32 -17 54t-61 22h-273v-174q44 -3 81 -4t69 -1z" />
    <glyph glyph-name="S" unicode="S" horiz-adv-x="756" 
d="M192 0q-68 0 -100 6t-32 14l40 87q23 -4 114.5 -7.5t251.5 -3.5h19q43 0 61 15.5t18 52.5v20q0 35 -14.5 50t-64.5 15h-232q-101 0 -147 37.5t-46 122.5v16q0 44 16.5 81t56.5 59.5t110 22.5h272q68 0 110 -7t42 -15l-20 -84q-26 3 -118 6.5t-247 3.5l-11 1
q-46 0 -62 -18.5t-17 -46.5v-17q0 -33 18.5 -49.5t61.5 -16.5h222q64 0 109 -13t69 -47.5t24 -101.5v-16q0 -75 -38.5 -121t-133.5 -46h-332z" />
    <glyph glyph-name="T" unicode="T" horiz-adv-x="694" 
d="M281 0l-1 493h-260v96h654v-96h-261v-493h-132z" />
    <glyph glyph-name="U" unicode="U" horiz-adv-x="766" 
d="M228 -10q-91 0 -127 49t-36 130v419h132v-423q0 -47 23 -63t57 -16h212q32 0 56 16.5t24 62.5v423h132v-419q0 -54 -15 -94t-50 -62.5t-97 -22.5h-311z" />
    <glyph glyph-name="V" unicode="V" horiz-adv-x="736" 
d="M289 0l-279 587h140l188 -405l27 -72h9l26 72l190 405h136l-16 -60l-261 -527h-160z" />
    <glyph glyph-name="W" unicode="W" horiz-adv-x="1111" 
d="M225 0l-215 587h140l141 -384l23 -97h10l13 68l133 413h170l139 -413l18 -68h10l23 97l131 384h140l-10 -60l-206 -527h-170l-136 393l-20 64h-10l-19 -64l-135 -393h-170z" />
    <glyph glyph-name="X" unicode="X" horiz-adv-x="738" 
d="M10 0l38 60l222 234l-260 294h160l193 -221h11l194 221h160l-39 -59l-221 -235l260 -294h-160l-194 223h-11l-193 -223h-160z" />
    <glyph glyph-name="Y" unicode="Y" horiz-adv-x="738" 
d="M301 0v244l-291 344h160l148 -187l46 -62h10l46 62l148 187h160l-39 -60l-256 -288v-240h-132z" />
    <glyph glyph-name="Z" unicode="Z" horiz-adv-x="732" 
d="M50 0v97l444 395h-444v96h621v-96l-453 -396h448l40 -85q0 -4 -27 -7.5t-93 -3.5h-536z" />
    <glyph glyph-name="bracketleft" unicode="[" horiz-adv-x="373" 
d="M283 -100l10 70h-121v648h121l-10 70h-243v-788h243z" />
    <glyph glyph-name="backslash" unicode="\" horiz-adv-x="382" 
d="M362 -80l-259 662l-12 51h-131l259 -664l12 -49h131z" />
    <glyph glyph-name="bracketright" unicode="]" horiz-adv-x="413" 
d="M90 -100l-10 70h121v648h-121l10 70h243v-788h-243z" />
    <glyph glyph-name="asciicircum" unicode="^" horiz-adv-x="402" 
d="M53 370q-13 0 -13 14q0 7 12.5 32.5t31 58.5t36.5 62.5t30 44.5q11 14 21.5 17.5t22.5 3.5h20q11 0 22 -3.5t21 -17.5q14 -19 31.5 -49t34.5 -61.5t28 -55.5t11 -32q0 -13 -13 -13q-16 0 -27 13q-5 6 -24.5 28.5t-45 52.5t-48.5 56q-23 -26 -49.5 -55.5t-47.5 -52.5
t-27 -29q-14 -14 -27 -14z" />
    <glyph glyph-name="underscore" unicode="_" 
d="M80 -80v80h480v-80h-480z" />
    <glyph glyph-name="grave" unicode="`" horiz-adv-x="230" 
d="M180 518q0 13 -9.5 36.5t-21.5 47t-19 35.5q-9 14 -22.5 21.5t-37.5 7.5h-11q-39 0 -39 -29q0 -15 18.5 -38t44 -44.5t47.5 -35.5q16 -10 33 -15t17 14z" />
    <glyph glyph-name="a" unicode="a" horiz-adv-x="651" 
d="M189 0q-76 0 -110 35.5t-34 97.5q0 65 35.5 100t108.5 35h51q75 0 135 -4t99 -8v66q0 9 -2 18.5t-12 15.5t-34 6h-50q-109 0 -182 -3.5t-99 -6.5l-11 76q0 14 76 17t254 3h50q50 0 77 -14t38.5 -35t14 -42.5t2.5 -36.5v-320h-82l-39 20q-42 -7 -101 -13.5t-135 -6.5h-50z
M215 86h229q22 0 26 4t4 25v77h-259q-27 0 -37.5 -13t-10.5 -41t12 -40t36 -12z" />
    <glyph glyph-name="b" unicode="b" horiz-adv-x="650" 
d="M60 0v634h122v-198q43 5 101.5 8.5t133.5 3.5h51q50 0 77 -13t38.5 -33t14 -42t2.5 -40v-192q0 -15 -2.5 -36.5t-14 -42.5t-38.5 -35t-77 -14h-51q-83 0 -145 4.5t-103 9.5l-27 -14h-82zM213 86h217q48 0 48 40v196q1 22 -9 31t-39 9h-50q-64 0 -113.5 -2.5t-84.5 -5.5
v-237q0 -21 4.5 -26t26.5 -5z" />
    <glyph glyph-name="c" unicode="c" horiz-adv-x="590" 
d="M182 0q-50 0 -77 13t-38.5 33t-14 42t-2.5 40v192q0 15 2.5 36.5t14 42.5t39 35t76.5 14h139q125 0 177.5 -6.5t52.5 -13.5l-20 -76q-28 2 -71 4.5t-92.5 4t-96.5 1.5h-51q-48 0 -48 -40v-196q-1 -40 48 -40h51q54 0 105.5 1.5t94.5 4t69 4.5l40 -65q0 -31 -197 -31h-201
z" />
    <glyph glyph-name="d" unicode="d" horiz-adv-x="660" 
d="M182 0q-50 0 -77 13t-38.5 33t-14 42t-2.5 40v192q0 15 2.5 36.5t14 42.5t39 35t76.5 14h51q92 0 148.5 -3.5t86.5 -7.5v197h122v-634h-82l-39 20q-42 -7 -101 -13.5t-136 -6.5h-50zM220 86h217q21 0 26 5t5 25v239q-34 2 -86 4.5t-111 2.5h-51q-48 0 -48 -40v-196
q0 -40 48 -40z" />
    <glyph glyph-name="e" unicode="e" horiz-adv-x="620" 
d="M182 0q-50 0 -77 13t-38.5 33t-14 42t-2.5 40v192q0 15 2.5 36.5t14 42.5t39 35t76.5 14h215q66 0 103.5 -12.5t53 -40.5t15.5 -75v-148h-175q-90 0 -146.5 4t-75.5 5v-55q-1 -40 48 -40h51q54 0 105.5 1.5t94.5 4t69 4.5l40 -65q0 -31 -197 -31h-201zM172 258h275v64
q0 20 -4.5 28t-26.5 10t-75 2h-121q-48 0 -48 -40v-64z" />
    <glyph glyph-name="f" unicode="f" horiz-adv-x="479" 
d="M82 0v362h-62v85h62v89q0 34 13.5 63t45 47t83.5 18h50q120 0 172.5 -11t52.5 -19l-30 -76q-17 7 -61 13.5t-106 6.5h-50q-25 0 -36.5 -9t-11.5 -31v-91h208v-85h-208v-362h-122z" />
    <glyph glyph-name="g" unicode="g" horiz-adv-x="651" 
d="M389 -176q-110 0 -179 2t-106 6t-50.5 10t-13.5 13l30 75q16 -5 56.5 -12.5t103.5 -7.5h171q37 0 52.5 11t15.5 39v60q-43 -8 -101.5 -14t-134.5 -6h-50q-50 0 -77 13t-38.5 33t-14 42t-2.5 40v192q0 15 2.5 36.5t14 42.5t39 35t76.5 14h51q105 0 163.5 -4t85.5 -9l26 13
h82v-496q0 -18 -5.5 -40t-21.5 -42t-46 -33t-79 -13h-50zM221 86h217q23 0 27 4t4 26v239q-34 2 -86 4.5t-111 2.5h-51q-48 0 -48 -40v-196q-1 -40 48 -40z" />
    <glyph glyph-name="h" unicode="h" horiz-adv-x="655" 
d="M60 0v648h122v-220q42 8 101 14t135 6h50q50 0 77 -14t38.5 -35t14 -42.5t2.5 -36.5v-320h-122v322q0 40 -48 40h-218q-19 0 -24.5 -3.5t-5.5 -18.5v-340h-122z" />
    <glyph glyph-name="i" unicode="i" horiz-adv-x="263" 
d="M131 511q-37 0 -54 15t-17 50q0 36 16.5 50.5t54.5 14.5t55 -14.5t17 -50.5q0 -34 -17 -49.5t-55 -15.5zM70 0v448h122v-448h-122z" />
    <glyph glyph-name="j" unicode="j" horiz-adv-x="275" 
d="M143 511q-37 0 -54 15t-17 51q0 35 16.5 49.5t54.5 14.5t55 -14.5t17 -49.5t-17 -50.5t-55 -15.5zM39 -176q-29 0 -56.5 4.5t-45 11.5t-17.5 14l20 60q12 -3 34.5 -6.5t47.5 -3.5q27 0 43.5 13t16.5 53v478h122v-478q0 -55 -20.5 -87t-54.5 -45.5t-77 -13.5h-13z" />
    <glyph glyph-name="k" unicode="k" horiz-adv-x="618" 
d="M539 -10q-42 0 -71.5 10t-62.5 43l-16 16t-28.5 29t-28.5 29l-17 17q-25 25 -47.5 39t-55.5 14q-22 0 -26 -4t-4 -27v-156h-122v633h122v-360h32q18 0 32 14q9 9 34 36t56.5 61t57.5 63h147l-16 -31q-23 -24 -50 -50.5t-52.5 -51t-46.5 -43t-32 -24.5q30 -16 54 -36.5
t52 -46t67 -57.5q35 -28 65 -32.5t36 -4.5l-18 -70q-10 -3 -27 -6.5t-34 -3.5z" />
    <glyph glyph-name="l" unicode="l" horiz-adv-x="252" 
d="M70 0v554l-10 80h132v-634h-122z" />
    <glyph glyph-name="m" unicode="m" horiz-adv-x="913" 
d="M60 0v448h82l25 -12q29 5 71 8.5t100 3.5h50q29 0 56 -7.5t40 -21.5q26 13 72 21t120 8h50q50 0 77 -14t38.5 -35t14 -42.5t2.5 -36.5v-320h-122v322q0 40 -48 40h-140q-16 0 -22 -4t-6 -18v-340h-122v322q0 40 -48 40h-138q-19 0 -24.5 -3.5t-5.5 -18.5v-340h-122z" />
    <glyph glyph-name="n" unicode="n" horiz-adv-x="655" 
d="M60 0v448h82l40 -20q42 8 101 14t135 6h50q50 0 77 -14t38.5 -35t14 -42.5t2.5 -36.5v-320h-122v322q0 40 -48 40h-218q-19 0 -24.5 -3.5t-5.5 -18.5v-340h-122z" />
    <glyph glyph-name="o" unicode="o" 
d="M182 0q-67 0 -99.5 27t-32.5 88v205q0 15 2.5 36.5t14 42.5t39 35t76.5 14h276q50 0 77 -14t38.5 -35t14 -42.5t2.5 -36.5v-192q0 -18 -2.5 -40t-14.5 -42t-39 -33t-76 -13h-276zM220 86h200q49 0 49 40v196q0 40 -49 40h-200q-48 0 -48 -40v-196q0 -40 48 -40z" />
    <glyph glyph-name="p" unicode="p" horiz-adv-x="650" 
d="M60 -186v634h82l25 -13q45 5 107.5 9t142.5 4h51q50 0 77 -13t38.5 -33t14 -42t2.5 -40v-192q0 -15 -2.5 -36.5t-14 -42.5t-38.5 -35t-77 -14h-51q-76 0 -135 4t-100 8v-198h-122zM213 86h217q19 0 33.5 10t14.5 30v196q1 22 -10.5 31t-37.5 9h-50q-64 0 -113.5 -2.5
t-84.5 -5.5v-237q0 -22 4.5 -26.5t26.5 -4.5z" />
    <glyph glyph-name="q" unicode="q" horiz-adv-x="650" 
d="M468 -186v206q-43 -8 -101.5 -14t-134.5 -6h-50q-50 0 -77 13t-38.5 33t-14 42t-2.5 40v192q0 15 2.5 36.5t14 42.5t39 35t76.5 14h51q106 0 164.5 -4t85.5 -9l25 13h82v-634h-122zM220 86h217q22 0 26.5 4.5t4.5 25.5v239q-34 2 -86 4.5t-111 2.5h-51q-29 0 -38.5 -10
t-9.5 -30v-196q-1 -20 9 -30t39 -10z" />
    <glyph glyph-name="r" unicode="r" horiz-adv-x="501" 
d="M60 0v448h82l38 -20q26 14 56 22t76 8q73 0 118.5 -16t60.5 -24l-35 -87q-12 6 -39.5 15.5t-64.5 17.5t-81 8h-11q-48 0 -62.5 -19t-15.5 -63v-290h-122z" />
    <glyph glyph-name="s" unicode="s" horiz-adv-x="638" 
d="M173 0q-67 0 -95 7t-28 14l30 75q29 -3 106.5 -6.5t191.5 -3.5h50q25 0 31.5 13.5t6.5 36.5t-7.5 37t-30.5 14h-246q-70 0 -101 26.5t-31 79.5v40q0 14 3 33t15 38t39 31.5t75 12.5h276q60 0 85 -7t25 -14l-10 -75q-29 3 -107 6.5t-191 3.5h-50q-25 0 -31.5 -13.5
t-6.5 -31.5q0 -19 6.5 -31.5t31.5 -12.5h246q68 0 100 -28t32 -71v-59q0 -18 -2.5 -38t-14.5 -37.5t-39 -28.5t-76 -11h-283z" />
    <glyph glyph-name="t" unicode="t" horiz-adv-x="452" 
d="M234 0q-76 0 -104 32t-28 96v234h-82v86h42q19 0 27.5 6t12.5 24l20 107h102v-137h208v-86h-208v-235q0 -25 12 -33t36 -8h141l10 -76q-21 -3 -64 -6.5t-94 -3.5h-31z" />
    <glyph glyph-name="u" unicode="u" 
d="M192 0q-49 0 -76.5 13t-39 33t-14 42t-2.5 40v320h122v-322q-1 -22 14.5 -31t33.5 -9h198q22 0 26 4t4 26v332h122v-448h-82l-38 20q-40 -8 -94.5 -14t-122.5 -6h-51z" />
    <glyph glyph-name="v" unicode="v" horiz-adv-x="590" 
d="M216 0l-206 448h140l115 -276l26 -72h10l26 72l117 276h136l-16 -61l-188 -387h-160z" />
    <glyph glyph-name="w" unicode="w" horiz-adv-x="861" 
d="M171 0l-161 448h140l81 -254l26 -89h10l15 79l69 264h160l73 -264l14 -79h10l27 91l76 252h140l-16 -61l-144 -387h-160l-83 275l-10 47h-10l-12 -47l-85 -275h-160z" />
    <glyph glyph-name="x" unicode="x" horiz-adv-x="580" 
d="M10 0l20 40l173 185l-193 223h152l122 -155h10l124 155h152l-16 -32l-183 -191l199 -225h-153l-123 150h-10l-122 -150h-152z" />
    <glyph glyph-name="y" unicode="y" horiz-adv-x="591" 
d="M102 -196q-48 0 -88 11t-54 20l30 90q17 -7 48.5 -16.5t71.5 -9.5h11q46 0 81.5 27.5t54.5 73.5h-50l-196 448h140l115 -276l26 -72h10l26 72l117 276h136l-16 -61q-19 -39 -43.5 -89.5t-50.5 -104.5t-50.5 -104t-43.5 -89q-29 -60 -63.5 -104t-79 -68t-105.5 -24h-27z
" />
    <glyph glyph-name="z" unicode="z" horiz-adv-x="609" 
d="M40 0v60l323 301h-303v87h490v-60l-332 -302h341l30 -75q0 -4 -30 -7.5t-101 -3.5h-418z" />
    <glyph glyph-name="braceleft" unicode="{" horiz-adv-x="359" 
d="M308 -100l11 70q-47 0 -63.5 19t-16.5 61v143q0 79 -61 111q61 27 61 112v122q0 44 19.5 62t60.5 18l-11 70h-61q-68 0 -102 -39t-34 -109v-135q0 -37 -18.5 -54t-52.5 -17v-60q32 0 51.5 -19t19.5 -51v-156q0 -76 33.5 -112t102.5 -36h61z" />
    <glyph glyph-name="bar" unicode="|" horiz-adv-x="256" 
d="M80 -120v708h96v-708h-96z" />
    <glyph glyph-name="braceright" unicode="}" horiz-adv-x="359" 
d="M51 -100l-11 70q47 0 63.5 19t16.5 61v143q0 79 61 111q-61 27 -61 112v122q0 44 -19.5 62t-60.5 18l11 70h61q68 0 102 -39t34 -109v-135q0 -37 18.5 -54t52.5 -17v-60q-32 0 -51.5 -19t-19.5 -51v-156q0 -76 -33.5 -112t-102.5 -36h-61z" />
    <glyph glyph-name="asciitilde" unicode="~" horiz-adv-x="402" 
d="M271 160q-28 0 -48.5 10.5t-36.5 24.5t-31.5 24.5t-34.5 10.5q-25 0 -34.5 -17.5t-14.5 -32.5q-4 -12 -14 -16.5t-18.5 1.5t-8.5 24q0 44 25.5 77.5t74.5 33.5q28 0 47.5 -10.5t35 -24.5t32 -24.5t37.5 -10.5q23 0 34 17.5t15 32.5q4 13 13.5 17.5t18.5 -1.5t9 -25
q0 -27 -10.5 -52.5t-33 -42t-57.5 -16.5z" />
    <glyph glyph-name="uni00A0" unicode="&#xa0;" horiz-adv-x="220" 
 />
    <glyph glyph-name="exclamdown" unicode="&#xa1;" horiz-adv-x="333" 
d="M167 328q-38 0 -55 14.5t-17 50.5q0 35 17.5 50t54.5 15q38 0 54.5 -15t16.5 -50q0 -36 -16.5 -50.5t-54.5 -14.5zM120 -140q-27 0 -33.5 14.5t-6.5 44.5q0 11 5 45.5t12.5 83t16 101.5t16.5 99h72q8 -47 17 -99.5t16.5 -101t12.5 -83t5 -45.5q0 -29 -5.5 -44t-34.5 -15
h-93z" />
    <glyph glyph-name="cent" unicode="&#xa2;" horiz-adv-x="603" 
d="M300 -60v60h-118q-70 0 -101 29t-31 99v192q0 60 28 94t104 34h118v62h80v-63q62 -1 95.5 -4t49.5 -7t26 -8l-20 -76q-21 2 -62.5 4.5t-88.5 3.5v-272q51 2 94.5 4.5t65.5 3.5l53 -78q-25 -10 -77.5 -14t-135.5 -4v-60h-80zM220 86h80v276h-80q-48 0 -48 -40v-196
q0 -40 48 -40z" />
    <glyph glyph-name="sterling" unicode="&#xa3;" horiz-adv-x="679" 
d="M84 0l50 96v150h-74v96h74v60q0 96 43 141.5t140 45.5h28q89 0 136 -7.5t47 -15.5l-20 -83q-13 3 -43 6.5t-68 3.5h-51q-80 0 -80 -71v-80h144v-96h-144v-79q0 -25 -3.5 -44t-6.5 -27h51q129 0 208 3.5t103 7.5l41 -86q0 -8 -42 -14.5t-142 -6.5h-391z" />
    <glyph glyph-name="currency" unicode="&#xa4;" horiz-adv-x="679" 
d="M133 70l-53 53l53 44q-14 22 -20.5 52t-6.5 67v6q0 37 6 66.5t21 51.5l-53 44l53 53l47 -57q42 20 109 20h102q66 0 108 -20l47 57l53 -53l-53 -44q14 -22 20.5 -51.5t6.5 -66.5v-6q0 -37 -6.5 -67t-20.5 -52l53 -44l-53 -53l-47 57q-42 -20 -108 -20h-102q-67 0 -109 20
zM318 203h45q37 0 57.5 19t20.5 52v30q0 29 -21 49.5t-57 20.5h-45q-36 0 -58 -19t-22 -51v-30q0 -34 21.5 -52.5t58.5 -18.5z" />
    <glyph glyph-name="yen" unicode="&#xa5;" horiz-adv-x="758" 
d="M311 0v146h-204v96h204v1l-54 64h-150v96h69l-156 185h160l148 -188l46 -62h10l46 62l148 188h160l-39 -60l-111 -125h60v-96h-145l-57 -65h202v-96h-205v-146h-132z" />
    <glyph glyph-name="brokenbar" unicode="&#xa6;" horiz-adv-x="256" 
d="M80 300v288h96v-288h-96zM80 -80v299h96v-299h-96z" />
    <glyph glyph-name="section" unicode="&#xa7;" horiz-adv-x="569" 
d="M487 231l-310 105q-48 17 -71 41.5t-23 82.5q0 33 10.5 62t39.5 47.5t82 18.5h103q68 0 110 -7t42 -15l-20 -84q-12 3 -49.5 6.5t-97.5 3.5h-50q-21 0 -29.5 -8t-8.5 -22q0 -21 12 -30t36 -16q22 -6 54.5 -15.5t66 -19.5t57.5 -19q46 -15 46 -64v-67zM215 -80
q-68 0 -100 6t-32 14l40 87q18 -4 57.5 -7.5t88.5 -3.5h50q38 0 38 32q0 23 -10 36.5t-38 21.5q-13 4 -46 14t-72 22.5t-70 23.5q-19 7 -30 19.5t-11 30.5v75l85.5 -28.5l91.5 -30.5l81 -27t55 -18q43 -14 63.5 -34.5t26.5 -46.5t6 -58q0 -28 -8.5 -57.5t-36.5 -50
t-87 -20.5h-142z" />
    <glyph glyph-name="dieresis" unicode="&#xa8;" horiz-adv-x="413" 
d="M274.798 541q-30.5791 0 -44.6299 12.3975q-14.0498 12.3965 -14.0498 41.3232q0 29.7539 13.6367 41.7373q13.6367 11.9844 45.043 11.9844t45.4561 -11.9844q14.0508 -11.9834 14.0508 -41.7373q0 -28.0996 -14.0508 -40.9102q-14.0498 -12.8105 -45.4561 -12.8105z
M116.798 541q-30.5791 0 -44.6299 12.3975q-14.0498 12.3965 -14.0498 41.3232q0 29.7539 13.6367 41.7373q13.6367 11.9844 45.043 11.9844t45.4561 -11.9844q14.0508 -11.9834 14.0508 -41.7373q0 -28.0996 -14.0508 -40.9102q-14.0498 -12.8105 -45.4561 -12.8105z" />
    <glyph glyph-name="copyright" unicode="&#xa9;" horiz-adv-x="814" 
d="M329.307 157q-30.3047 0 -46.668 7.87891q-16.3643 7.87891 -23.334 20.001q-6.9707 12.1211 -8.48535 25.4551q-1.51562 13.334 -1.51562 24.2432v116.367q0 9.09082 1.51562 22.1221q1.51465 13.0303 8.48535 25.7578q6.96973 12.7275 23.6367 21.2129t46.3652 8.48535
h84.2451q75.7598 0 107.579 -3.93945q31.8184 -3.93945 31.8184 -8.18164l-12.1211 -46.0625q-16.9707 1.21191 -43.0312 2.72754q-26.0615 1.51465 -56.0625 2.42383t-58.4873 0.90918h-30.9092q-29.0918 0 -29.0918 -24.2432v-118.791
q-0.606445 -24.2432 29.0918 -24.2432h30.9092q32.7285 0 63.9414 0.90918q31.2139 0.90918 57.2744 2.42383q26.0615 1.51562 41.8203 2.72754l24.2422 -39.3955q0 -18.7881 -119.397 -18.7881h-121.821zM242 0q-61 0 -96.5 19t-50.5 52.5t-15 76.5v280q0 80 35.5 120
t126.5 40h326q95 0 130.5 -40t35.5 -120v-280q0 -67 -39 -107.5t-127 -40.5h-326zM242 60h326q65 0 86 25t21 63v280q0 47 -21 73.5t-86 26.5h-326q-62 0 -82 -25t-20 -75v-280q0 -40 20 -64t82 -24z" />
    <glyph glyph-name="ordfeminine" unicode="&#xaa;" horiz-adv-x="375" 
d="M116.5 330q-38 0 -55 17.75t-17 48.75q0 32.5 17.75 50t54.25 17.5h25.5q37.5 0 67.5 -2t49.5 -4v33q0 4.5 -1 9.25t-6 7.75t-17 3h-25q-54.5 0 -91 -1.75t-49.5 -3.25l-5.5 38q0 7 38 8.5t127 1.5h25q25 0 38.5 -7t19.25 -17.5t7 -21.25t1.25 -18.25v-160h-41l-19.5 10
q-21 -3.5 -50.5 -6.75t-67.5 -3.25h-25zM129.5 373h114.5q11 0 13 2t2 12.5v38.5h-129.5q-13.5 0 -18.75 -6.5t-5.25 -20.5t6 -20t18 -6z" />
    <glyph glyph-name="guillemotleft" unicode="&#xab;" horiz-adv-x="738" 
d="M388 0l-172 241l172 239h-136l-172 -239l172 -241h136zM658 0l-172 241l172 239h-136l-172 -239l172 -241h136z" />
    <glyph glyph-name="logicalnot" unicode="&#xac;" horiz-adv-x="600" 
d="M474 250v100h-444v96h540v-196h-96z" />
    <glyph glyph-name="uni00AD" unicode="&#xad;" horiz-adv-x="480" 
d="M80 220v116h320v-116h-320z" />
    <glyph glyph-name="registered" unicode="&#xae;" horiz-adv-x="487" 
d="M313.782 401.777q-8.88867 0 -17.4443 2.77832q-8.55566 2.77734 -19.4453 13.667l-16 16q-9.77832 10.001 -21.4453 14.668q-11.667 4.66602 -29.2236 4.66602h-6.88867v-49.5566h-29.334v112.893l-2.22266 18h98.4473q14.2227 0 22.334 -3.77734
q8.11133 -3.77832 12.001 -9.88965q3.88867 -6.11133 5 -13q1.11133 -6.88965 1.11133 -13.1113v-4.22266q0 -4.88867 -1.33398 -10.8896q-1.33301 -6 -5.11133 -11.7773q-3.77734 -5.77832 -10.7783 -9.77832q-7 -4 -18.333 -4.66699q2.88867 -1.55566 7.33301 -4.77832
q4.44434 -3.22168 9.22266 -7q4.77832 -3.77734 8.77832 -6.88867t6.22168 -4.44434q8.00098 -4.66699 14.2227 -6.44531q6.22266 -1.77734 10.2227 -2q4 -0.22168 4.66699 -0.22168l-4.44434 -18.001q-2 -0.666992 -6.66699 -1.44434q-4.66699 -0.77832 -10.8896 -0.77832z
M236.669 473.78q8.44531 0 15.1123 0.333008q6.66602 0.333008 12 0.777344q9.77832 1.11133 13.667 5.44531q3.88867 4.33301 3.88867 11.2227v5.11133q0 7.11133 -3.77734 12q-3.77832 4.88867 -13.5566 4.88867h-60.668v-38.668q9.77832 -0.666016 18 -0.888672
q8.22266 -0.22168 15.334 -0.22168zM161 324q-30.5 0 -48.25 9.5t-25.25 26.25t-7.5 38.25v140q0 40 17.75 60t63.25 20h163q47.5 0 65.25 -20t17.75 -60v-140q0 -33.5 -19.5 -53.75t-63.5 -20.25h-163zM161 354h163q32.5 0 43 12.5t10.5 31.5v140q0 23.5 -10.5 36.75
t-43 13.25h-163q-31 0 -41 -12.5t-10 -37.5v-140q0 -20 10 -32t41 -12z" />
    <glyph glyph-name="macron" unicode="&#xaf;" horiz-adv-x="332" 
d="M70 540q-20 0 -30 6.5t-10 26.5v6q0 20 9 25.5t31 5.5h192q20 0 30 -5.5t10 -25.5v-6q0 -20 -11 -26.5t-29 -6.5h-192z" />
    <glyph glyph-name="degree" unicode="&#xb0;" horiz-adv-x="460" 
d="M230 470q-41 0 -75 20.5t-54.5 54.5t-20.5 75q0 42 20.5 76t54.5 54t75 20q42 0 76 -20t54 -54t20 -76q0 -41 -20 -75t-54 -54.5t-76 -20.5zM230 550q29 0 49.5 21t20.5 49q0 29 -20.5 49.5t-49.5 20.5q-28 0 -49 -20.5t-21 -49.5q0 -28 21 -49t49 -21z" />
    <glyph glyph-name="plusminus" unicode="&#xb1;" horiz-adv-x="641" 
d="M271 130v190h-191v100h191v190h100v-190h190v-100h-190v-190h-100zM559 -21l-479 1v101l479 -1v-101z" />
    <glyph glyph-name="uni00B2" unicode="&#xb2;" horiz-adv-x="348" 
d="M40 232v48.5q8.5 5.5 25.75 16.5t38.5 24.5t43.25 27.75t40.75 27t29.75 21.25q16 12.5 22.25 24.25t6.25 23.25v10q0 12.5 -10 20.5t-33 8h-15q-29 0 -58 -2t-51.75 -4.25t-33.75 -3.75l-5 45.5q14 2.5 38.5 5.5t56.5 5t67 2h14q31.5 0 50.5 -7.25t29.25 -18.75
t13.75 -25.25t3.5 -26.75v-10.5q0 -26.5 -17.25 -51.25t-55.75 -46.25q-42 -23 -70.75 -38.75t-41.25 -22.75v-4h200v-48h-288z" />
    <glyph glyph-name="uni00B3" unicode="&#xb3;" horiz-adv-x="390" 
d="M136 232q-37.5 0 -57.5 3t-28 6.75t-10.5 5.25l19.5 38.5q3 -0.5 12 -1.5t27.75 -1.75t50.75 -1.5t80.5 -0.75q18.5 0 28 5t12.75 13.25t3.25 17.25v12q0 13 -7 21.75t-27.5 8.75h-142v44h116.5q23.5 0 34 9.25t10.5 23.25v15.5q0 14 -8 23.5t-31 9.5h-14
q-26 0 -54.5 -1.75t-53.5 -4t-40.5 -4.25l-5 45.5q9.5 1.5 34 4.5t59 5.5t74.5 2.5h14q30.5 0 48.5 -7.25t27.25 -19t12.25 -25.5t3 -26.75v-8.5q0 -22.5 -10.5 -35t-19.5 -18.5q22 -6.5 33.75 -22.5t11.75 -39.5v-12q0 -14.5 -3.75 -29.5t-14.75 -27.5t-32 -20t-55.5 -7.5
h-98.5z" />
    <glyph glyph-name="acute" unicode="&#xb4;" horiz-adv-x="230" 
d="M-60 518q0 13 9.5 36.5t21.5 47t19 35.5q9 14 22.5 21.5t37.5 7.5h11q39 0 39 -29q0 -15 -18.5 -38t-44 -44.5t-47.5 -35.5q-16 -10 -33 -15t-17 14z" />
    <glyph glyph-name="uni00B5" unicode="&#xb5;" horiz-adv-x="620" 
d="M192 0q-40 0 -68 10q15 -40 25 -74t10 -67q0 -31 -10 -45.5t-40 -14.5q-27 0 -37.5 19.5t-10.5 51.5v217q-1 8 -1 16v15v320h122v-322q-1 -22 14.5 -31t33.5 -9h198q22 0 26 4t4 26v332h122v-448h-82l-38 20q-40 -8 -94.5 -14t-122.5 -6h-51z" />
    <glyph glyph-name="paragraph" unicode="&#xb6;" horiz-adv-x="686" 
d="M195 -80v382q-55 0 -85 26t-30 92v50q0 55 27 86.5t88 31.5h411l-20 -96v-572h-132v572h-127v-572h-132z" />
    <glyph glyph-name="periodcentered" unicode="&#xb7;" horiz-adv-x="303" 
d="M151 220q-37 0 -54 15t-17 50q0 36 16.5 50.5t54.5 14.5t55 -14.5t17 -50.5q0 -34 -17 -49.5t-55 -15.5z" />
    <glyph glyph-name="cedilla" unicode="&#xb8;" horiz-adv-x="222" 
d="M116 -220q-43 0 -71 17t-40 36q-5 8 -5 17q0 8 6 13t16 2q19 -5 39.5 -10t46.5 -5q49 0 49 31q0 22 -29.5 28.5t-67.5 5.5q6 18 18 42.5t24 42.5t27 18t12 -18q-3 -15 -5.5 -27t-4.5 -23q44 -4 67.5 -25.5t23.5 -59.5q0 -36 -28 -60.5t-78 -24.5z" />
    <glyph glyph-name="uni00B9" unicode="&#xb9;" horiz-adv-x="229" 
d="M83.5 232v246l-60 -4.5l-3.5 42.5l129.5 15v-299h-66z" />
    <glyph glyph-name="ordmasculine" unicode="&#xba;" horiz-adv-x="370" 
d="M116 330q-33.5 0 -49.75 13.5t-16.25 44v102.5q0 7.5 1.25 18.25t7 21.25t19.5 17.5t38.25 7h138q25 0 38.5 -7t19.25 -17.5t7 -21.25t1.25 -18.25v-96q0 -9 -1.25 -20t-7.25 -21t-19.5 -16.5t-38 -6.5h-138zM135 373h100q24.5 0 24.5 20v98q0 20 -24.5 20h-100
q-24 0 -24 -20v-98q0 -20 24 -20z" />
    <glyph glyph-name="guillemotright" unicode="&#xbb;" horiz-adv-x="738" 
d="M350 0l172 241l-172 239h136l172 -239l-172 -241h-136zM80 0l172 241l-172 239h136l172 -239l-172 -241h-136z" />
    <glyph glyph-name="onequarter" unicode="&#xbc;" horiz-adv-x="893" 
d="M83.5 285v246l-60 -4.5l-3.5 42.5l129.5 15v-299h-66zM119 -80l417 668h73l-418 -668h-72zM700 0v54h-196v49l169.5 191h92.5v-192h67v-48h-67v-54h-66zM585.5 102h114.5v131h-5l-109 -126z" />
    <glyph glyph-name="onehalf" unicode="&#xbd;" horiz-adv-x="817" 
d="M83.5 285v246l-60 -4.5l-3.5 42.5l129.5 15v-299h-66zM119 -80l417 668h73l-418 -668h-72zM519 0v48.5q8.5 5.5 25.75 16.5t38.5 24.5t43.25 27.75t40.75 27t29.75 21.25q16 12.5 22.25 24.25t6.25 23.25v10q0 12.5 -10 20.5t-33 8h-15q-29 0 -58 -2t-51.75 -4.25
t-33.75 -3.75l-5 45.5q14 2.5 38.5 5.5t56.5 5t67 2h14q31.5 0 50.5 -7.25t29.25 -18.75t13.75 -25.25t3.5 -26.75v-10.5q0 -26.5 -17.25 -51.25t-55.75 -46.25q-42 -23 -70.75 -38.75t-41.25 -22.75v-4h200v-48h-288z" />
    <glyph glyph-name="threequarters" unicode="&#xbe;" horiz-adv-x="1010" 
d="M116 290q-37.5 0 -57.5 3t-28 6.75t-10.5 5.25l19.5 38.5q3 -0.5 12 -1.5t27.75 -1.75t50.75 -1.5t80.5 -0.75q18.5 0 28 5t12.75 13.25t3.25 17.25v12q0 13 -7 21.75t-27.5 8.75h-142v44h116.5q23.5 0 34 9.25t10.5 23.25v15.5q0 14 -8 23.5t-31 9.5h-14
q-26 0 -54.5 -1.75t-53.5 -4t-40.5 -4.25l-5 45.5q9.5 1.5 34 4.5t59 5.5t74.5 2.5h14q30.5 0 48.5 -7.25t27.25 -19t12.25 -25.5t3 -26.75v-8.5q0 -22.5 -10.5 -35t-19.5 -18.5q22 -6.5 33.75 -22.5t11.75 -39.5v-12q0 -14.5 -3.75 -29.5t-14.75 -27.5t-32 -20t-55.5 -7.5
h-98.5zM236 -80l417 668h73l-418 -668h-72zM817 0v54h-196v49l169.5 191h92.5v-192h67v-48h-67v-54h-66zM702.5 102h114.5v131h-5l-109 -126z" />
    <glyph glyph-name="questiondown" unicode="&#xbf;" horiz-adv-x="627" 
d="M384 328q-38 0 -55 14.5t-17 50.5q0 35 17.5 50t54.5 15q38 0 54.5 -15t16.5 -50q0 -36 -16.5 -50.5t-54.5 -14.5zM254 -140q-91 0 -132.5 41t-41.5 103v63q0 65 38.5 99.5t104.5 34.5h75q26 0 36 11t14 36h74q3 -7 6.5 -22t3.5 -32q0 -40 -23.5 -60t-76.5 -20h-62
q-32 0 -44.5 -14.5t-12.5 -46.5v-46q0 -26 13.5 -38t45.5 -12h85q62 0 104.5 7t65.5 13l20 -87q-23 -14 -72 -22t-128 -8h-93z" />
    <glyph glyph-name="Agrave" unicode="&#xc0;" horiz-adv-x="782" 
d="M0 0l293 588h197l292 -588h-154l-59 127h-358l-65 -127h-146zM247 225h285l-137 273h-10zM457 658q0 13 -9.5 36.5t-21.5 47t-19 35.5q-9 14 -22.5 21.5t-37.5 7.5h-11q-39 0 -39 -29q0 -15 18.5 -38t44 -44.5t47.5 -35.5q16 -10 33 -15t17 14z" />
    <glyph glyph-name="Aacute" unicode="&#xc1;" horiz-adv-x="782" 
d="M0 0l293 588h197l292 -588h-154l-59 127h-358l-65 -127h-146zM247 225h285l-137 273h-10zM357 658q0 13 9.5 36.5t21.5 47t19 35.5q9 14 22.5 21.5t37.5 7.5h11q39 0 39 -29q0 -15 -18.5 -38t-44 -44.5t-47.5 -35.5q-16 -10 -33 -15t-17 14z" />
    <glyph glyph-name="Acircumflex" unicode="&#xc2;" horiz-adv-x="782" 
d="M0 0l293 588h197l292 -588h-154l-59 127h-358l-65 -127h-146zM247 225h285l-137 273h-10zM248 666q0 9 15 29t33.5 40t28.5 29q13 12 24 17t28 5h30q18 0 30 -7.5t20 -15.5q11 -11 28 -31.5t30.5 -39.5t13.5 -26q0 -11 -15.5 -12t-34.5 12l-87 58l-94 -58q-50 -31 -50 0z
" />
    <glyph glyph-name="Atilde" unicode="&#xc3;" horiz-adv-x="782" 
d="M0 0l293 588h197l292 -588h-154l-59 127h-358l-65 -127h-146zM247 225h285l-137 273h-10zM462 640q-28 0 -48.5 10.5t-36.5 24.5t-31.5 24.5t-34.5 10.5q-25 0 -34.5 -17.5t-14.5 -32.5q-4 -12 -14 -16.5t-18.5 1.5t-8.5 24q0 44 25.5 77.5t74.5 33.5q28 0 47.5 -10.5
t35 -24.5t32 -24.5t37.5 -10.5q23 0 34 17.5t15 32.5q4 13 13.5 17.5t18.5 -1.5t9 -25q0 -27 -10.5 -52.5t-33 -42t-57.5 -16.5z" />
    <glyph glyph-name="Adieresis" unicode="&#xc4;" horiz-adv-x="782" 
d="M0 0l293 588h197l292 -588h-154l-59 127h-358l-65 -127h-146zM247 225h285l-137 273h-10zM470.798 651q-30.5791 0 -44.6299 12.3975q-14.0498 12.3965 -14.0498 41.3232q0 29.7539 13.6367 41.7373q13.6367 11.9844 45.043 11.9844t45.4561 -11.9844
q14.0508 -11.9834 14.0508 -41.7373q0 -28.0996 -14.0508 -40.9102q-14.0498 -12.8105 -45.4561 -12.8105zM312.798 651q-30.5791 0 -44.6299 12.3975q-14.0498 12.3965 -14.0498 41.3232q0 29.7539 13.6367 41.7373q13.6367 11.9844 45.043 11.9844t45.4561 -11.9844
q14.0508 -11.9834 14.0508 -41.7373q0 -28.0996 -14.0508 -40.9102q-14.0498 -12.8105 -45.4561 -12.8105z" />
    <glyph glyph-name="Aring" unicode="&#xc5;" horiz-adv-x="782" 
d="M0 0l293 588h197l292 -588h-154l-59 127h-358l-65 -127h-146zM247 225h285l-137 273h-10zM368 650q-44 0 -66 12t-29 32t-7 44v11q0 20 6.5 40.5t28 34t67.5 13.5h47q44 0 66 -13.5t29 -34t7 -40.5v-11q0 -24 -7 -44t-29 -32t-66 -12h-47zM367 716h48q11 0 15.5 6.5
t4.5 13.5v14q0 7 -4.5 13.5t-15.5 6.5h-48q-12 0 -16.5 -6.5t-3.5 -13.5v-14q-1 -7 3.5 -13.5t16.5 -6.5z" />
    <glyph glyph-name="AE" unicode="&#xc6;" horiz-adv-x="1196" 
d="M10 0l272 588h850v-96h-490v-138h374v-99h-374v-159h494l40 -85q0 -4 -27 -7.5t-93 -3.5h-546v137h-292l-62 -137h-146zM252 225h258v283h-136z" />
    <glyph glyph-name="Ccedilla" unicode="&#xc7;" horiz-adv-x="755" 
d="M253 0q-71 0 -111 20t-56 60t-16 99v223q0 96 43 141.5t140 45.5h301q69 0 105.5 -7.5t36.5 -15.5l-20 -83q-17 3 -100.5 6.5t-242.5 3.5h-51q-80 0 -80 -71v-255q0 -34 17.5 -52.5t62.5 -18.5h41q166 0 257.5 3.5t113.5 7.5l41 -66q0 -5 -16.5 -15t-60.5 -18t-127 -8
h-278zM418 -220q-43 0 -71 17t-40 36q-5 8 -5 17q0 8 6 13t16 2q19 -5 39.5 -10t46.5 -5q49 0 49 31q0 22 -29.5 28.5t-67.5 5.5q6 18 18 42.5t24 42.5t27 18t12 -18q-3 -15 -5.5 -27t-4.5 -23q44 -4 67.5 -25.5t23.5 -59.5q0 -36 -28 -60.5t-78 -24.5z" />
    <glyph glyph-name="Egrave" unicode="&#xc8;" horiz-adv-x="766" 
d="M80 0v588h622v-96h-490v-138h374v-99h-374v-159h494l40 -85q0 -4 -27 -7.5t-93 -3.5h-546zM468 658q0 13 -9.5 36.5t-21.5 47t-19 35.5q-9 14 -22.5 21.5t-37.5 7.5h-11q-39 0 -39 -29q0 -15 18.5 -38t44 -44.5t47.5 -35.5q16 -10 33 -15t17 14z" />
    <glyph glyph-name="Eacute" unicode="&#xc9;" horiz-adv-x="766" 
d="M80 0v588h622v-96h-490v-138h374v-99h-374v-159h494l40 -85q0 -4 -27 -7.5t-93 -3.5h-546zM368 658q0 13 9.5 36.5t21.5 47t19 35.5q9 14 22.5 21.5t37.5 7.5h11q39 0 39 -29q0 -15 -18.5 -38t-44 -44.5t-47.5 -35.5q-16 -10 -33 -15t-17 14z" />
    <glyph glyph-name="Ecircumflex" unicode="&#xca;" horiz-adv-x="766" 
d="M80 0v588h622v-96h-490v-138h374v-99h-374v-159h494l40 -85q0 -4 -27 -7.5t-93 -3.5h-546zM259 666q0 9 15 29t33.5 40t28.5 29q13 12 24 17t28 5h30q18 0 30 -7.5t20 -15.5q11 -11 28 -31.5t30.5 -39.5t13.5 -26q0 -11 -15.5 -12t-34.5 12l-87 58l-94 -58q-50 -31 -50 0
z" />
    <glyph glyph-name="Edieresis" unicode="&#xcb;" horiz-adv-x="766" 
d="M80 0v588h622v-96h-490v-138h374v-99h-374v-159h494l40 -85q0 -4 -27 -7.5t-93 -3.5h-546zM481.798 651q-30.5791 0 -44.6299 12.3975q-14.0498 12.3965 -14.0498 41.3232q0 29.7539 13.6367 41.7373q13.6367 11.9844 45.043 11.9844t45.4561 -11.9844
q14.0508 -11.9834 14.0508 -41.7373q0 -28.0996 -14.0508 -40.9102q-14.0498 -12.8105 -45.4561 -12.8105zM323.798 651q-30.5791 0 -44.6299 12.3975q-14.0498 12.3965 -14.0498 41.3232q0 29.7539 13.6367 41.7373q13.6367 11.9844 45.043 11.9844t45.4561 -11.9844
q14.0508 -11.9834 14.0508 -41.7373q0 -28.0996 -14.0508 -40.9102q-14.0498 -12.8105 -45.4561 -12.8105z" />
    <glyph glyph-name="Igrave" unicode="&#xcc;" horiz-adv-x="292" 
d="M80 0v588h132v-588h-132zM211 658q0 13 -9.5 36.5t-21.5 47t-19 35.5q-9 14 -22.5 21.5t-37.5 7.5h-11q-39 0 -39 -29q0 -15 18.5 -38t44 -44.5t47.5 -35.5q16 -10 33 -15t17 14z" />
    <glyph glyph-name="Iacute" unicode="&#xcd;" horiz-adv-x="292" 
d="M80 0v588h132v-588h-132zM111 658q0 13 9.5 36.5t21.5 47t19 35.5q9 14 22.5 21.5t37.5 7.5h11q39 0 39 -29q0 -15 -18.5 -38t-44 -44.5t-47.5 -35.5q-16 -10 -33 -15t-17 14z" />
    <glyph glyph-name="Icircumflex" unicode="&#xce;" horiz-adv-x="292" 
d="M80 0v588h132v-588h-132zM2 666q0 9 15 29t33.5 40t28.5 29q13 12 24 17t28 5h30q18 0 30 -7.5t20 -15.5q11 -11 28 -31.5t30.5 -39.5t13.5 -26q0 -11 -15.5 -12t-34.5 12l-87 58l-94 -58q-50 -31 -50 0z" />
    <glyph glyph-name="Idieresis" unicode="&#xcf;" horiz-adv-x="292" 
d="M80 0v588h132v-588h-132zM224.798 651q-30.5791 0 -44.6299 12.3975q-14.0498 12.3965 -14.0498 41.3232q0 29.7539 13.6367 41.7373q13.6367 11.9844 45.043 11.9844t45.4561 -11.9844q14.0508 -11.9834 14.0508 -41.7373q0 -28.0996 -14.0508 -40.9102
q-14.0498 -12.8105 -45.4561 -12.8105zM66.7979 651q-30.5791 0 -44.6299 12.3975q-14.0498 12.3965 -14.0498 41.3232q0 29.7539 13.6367 41.7373q13.6367 11.9844 45.043 11.9844t45.4561 -11.9844q14.0508 -11.9834 14.0508 -41.7373q0 -28.0996 -14.0508 -40.9102
q-14.0498 -12.8105 -45.4561 -12.8105z" />
    <glyph glyph-name="Eth" unicode="&#xd0;" horiz-adv-x="806" 
d="M90 0v508l-10 80h464q81 0 124.5 -20t60.5 -59.5t17 -98.5v-231q0 -60 -16.5 -99.5t-60 -59.5t-125.5 -20h-454zM222 96h314q77 0 78 71v255q0 29 -17 49.5t-61 20.5h-314v-396zM-2 256v75h412v-75h-412z" />
    <glyph glyph-name="Ntilde" unicode="&#xd1;" horiz-adv-x="826" 
d="M90 0v508l-10 80h144l340 -356l39 -54h11v410h132v-588h-127l-348 362l-39 47h-10v-409h-132zM483 640q-28 0 -48.5 10.5t-36.5 24.5t-31.5 24.5t-34.5 10.5q-25 0 -34.5 -17.5t-14.5 -32.5q-4 -12 -14 -16.5t-18.5 1.5t-8.5 24q0 44 25.5 77.5t74.5 33.5
q28 0 47.5 -10.5t35 -24.5t32 -24.5t37.5 -10.5q23 0 34 17.5t15 32.5q4 13 13.5 17.5t18.5 -1.5t9 -25q0 -27 -10.5 -52.5t-33 -42t-57.5 -16.5z" />
    <glyph glyph-name="Ograve" unicode="&#xd2;" horiz-adv-x="797" 
d="M253 0q-70 0 -110 20t-56.5 60t-16.5 99v231q0 58 16 97.5t56 60t111 20.5h292q70 0 109.5 -20.5t56 -60t16.5 -97.5v-231q0 -88 -39 -133.5t-143 -45.5h-292zM282 96h235q37 0 57.5 19t20.5 52v255q0 29 -21 49.5t-57 20.5h-235q-36 0 -58 -19t-22 -51v-255
q0 -34 21.5 -52.5t58.5 -18.5zM464 658q0 13 -9.5 36.5t-21.5 47t-19 35.5q-9 14 -22.5 21.5t-37.5 7.5h-11q-39 0 -39 -29q0 -15 18.5 -38t44 -44.5t47.5 -35.5q16 -10 33 -15t17 14z" />
    <glyph glyph-name="Oacute" unicode="&#xd3;" horiz-adv-x="797" 
d="M253 0q-70 0 -110 20t-56.5 60t-16.5 99v231q0 58 16 97.5t56 60t111 20.5h292q70 0 109.5 -20.5t56 -60t16.5 -97.5v-231q0 -88 -39 -133.5t-143 -45.5h-292zM282 96h235q37 0 57.5 19t20.5 52v255q0 29 -21 49.5t-57 20.5h-235q-36 0 -58 -19t-22 -51v-255
q0 -34 21.5 -52.5t58.5 -18.5zM364 658q0 13 9.5 36.5t21.5 47t19 35.5q9 14 22.5 21.5t37.5 7.5h11q39 0 39 -29q0 -15 -18.5 -38t-44 -44.5t-47.5 -35.5q-16 -10 -33 -15t-17 14z" />
    <glyph glyph-name="Ocircumflex" unicode="&#xd4;" horiz-adv-x="797" 
d="M253 0q-70 0 -110 20t-56.5 60t-16.5 99v231q0 58 16 97.5t56 60t111 20.5h292q70 0 109.5 -20.5t56 -60t16.5 -97.5v-231q0 -88 -39 -133.5t-143 -45.5h-292zM282 96h235q37 0 57.5 19t20.5 52v255q0 29 -21 49.5t-57 20.5h-235q-36 0 -58 -19t-22 -51v-255
q0 -34 21.5 -52.5t58.5 -18.5zM255 666q0 9 15 29t33.5 40t28.5 29q13 12 24 17t28 5h30q18 0 30 -7.5t20 -15.5q11 -11 28 -31.5t30.5 -39.5t13.5 -26q0 -11 -15.5 -12t-34.5 12l-87 58l-94 -58q-50 -31 -50 0z" />
    <glyph glyph-name="Otilde" unicode="&#xd5;" horiz-adv-x="797" 
d="M253 0q-70 0 -110 20t-56.5 60t-16.5 99v231q0 58 16 97.5t56 60t111 20.5h292q70 0 109.5 -20.5t56 -60t16.5 -97.5v-231q0 -88 -39 -133.5t-143 -45.5h-292zM282 96h235q37 0 57.5 19t20.5 52v255q0 29 -21 49.5t-57 20.5h-235q-36 0 -58 -19t-22 -51v-255
q0 -34 21.5 -52.5t58.5 -18.5zM469 640q-28 0 -48.5 10.5t-36.5 24.5t-31.5 24.5t-34.5 10.5q-25 0 -34.5 -17.5t-14.5 -32.5q-4 -12 -14 -16.5t-18.5 1.5t-8.5 24q0 44 25.5 77.5t74.5 33.5q28 0 47.5 -10.5t35 -24.5t32 -24.5t37.5 -10.5q23 0 34 17.5t15 32.5
q4 13 13.5 17.5t18.5 -1.5t9 -25q0 -27 -10.5 -52.5t-33 -42t-57.5 -16.5z" />
    <glyph glyph-name="Odieresis" unicode="&#xd6;" horiz-adv-x="797" 
d="M253 0q-70 0 -110 20t-56.5 60t-16.5 99v231q0 58 16 97.5t56 60t111 20.5h292q70 0 109.5 -20.5t56 -60t16.5 -97.5v-231q0 -88 -39 -133.5t-143 -45.5h-292zM282 96h235q37 0 57.5 19t20.5 52v255q0 29 -21 49.5t-57 20.5h-235q-36 0 -58 -19t-22 -51v-255
q0 -34 21.5 -52.5t58.5 -18.5zM477.798 651q-30.5791 0 -44.6299 12.3975q-14.0498 12.3965 -14.0498 41.3232q0 29.7539 13.6367 41.7373q13.6367 11.9844 45.043 11.9844t45.4561 -11.9844q14.0508 -11.9834 14.0508 -41.7373q0 -28.0996 -14.0508 -40.9102
q-14.0498 -12.8105 -45.4561 -12.8105zM319.798 651q-30.5791 0 -44.6299 12.3975q-14.0498 12.3965 -14.0498 41.3232q0 29.7539 13.6367 41.7373q13.6367 11.9844 45.043 11.9844t45.4561 -11.9844q14.0508 -11.9834 14.0508 -41.7373q0 -28.0996 -14.0508 -40.9102
q-14.0498 -12.8105 -45.4561 -12.8105z" />
    <glyph glyph-name="multiply" unicode="&#xd7;" horiz-adv-x="627" 
d="M151 40l-71 71l163 163l-163 163l71 70l163 -162l162 162l71 -71l-162 -162l162 -163l-70 -71l-163 163z" />
    <glyph glyph-name="Oslash" unicode="&#xd8;" horiz-adv-x="797" 
d="M253 0q-70 0 -110 20t-56.5 60t-16.5 99v231q0 58 16 97.5t56 60t111 20.5h292q70 0 109.5 -20.5t56 -60t16.5 -97.5v-231q0 -88 -39 -133.5t-143 -45.5h-292zM282 96h235q37 0 57.5 19t20.5 52v255q0 29 -21 49.5t-57 20.5h-235q-36 0 -58 -19t-22 -51v-255
q0 -34 21.5 -52.5t58.5 -18.5zM146 -45l417 668h90l-418 -668h-89z" />
    <glyph glyph-name="Ugrave" unicode="&#xd9;" horiz-adv-x="766" 
d="M228 -10q-91 0 -127 49t-36 130v419h132v-423q0 -47 23 -63t57 -16h212q32 0 56 16.5t24 62.5v423h132v-419q0 -54 -15 -94t-50 -62.5t-97 -22.5h-311zM450 648q0 13 -9.5 36.5t-21.5 47t-19 35.5q-9 14 -22.5 21.5t-37.5 7.5h-11q-39 0 -39 -29q0 -15 18.5 -38t44 -44.5
t47.5 -35.5q16 -10 33 -15t17 14z" />
    <glyph glyph-name="Uacute" unicode="&#xda;" horiz-adv-x="766" 
d="M228 -10q-91 0 -127 49t-36 130v419h132v-423q0 -47 23 -63t57 -16h212q32 0 56 16.5t24 62.5v423h132v-419q0 -54 -15 -94t-50 -62.5t-97 -22.5h-311zM350 648q0 13 9.5 36.5t21.5 47t19 35.5q9 14 22.5 21.5t37.5 7.5h11q39 0 39 -29q0 -15 -18.5 -38t-44 -44.5
t-47.5 -35.5q-16 -10 -33 -15t-17 14z" />
    <glyph glyph-name="Ucircumflex" unicode="&#xdb;" horiz-adv-x="766" 
d="M228 -10q-91 0 -127 49t-36 130v419h132v-423q0 -47 23 -63t57 -16h212q32 0 56 16.5t24 62.5v423h132v-419q0 -54 -15 -94t-50 -62.5t-97 -22.5h-311zM241 656q0 9 15 29t33.5 40t28.5 29q13 12 24 17t28 5h30q18 0 30 -7.5t20 -15.5q11 -11 28 -31.5t30.5 -39.5
t13.5 -26q0 -11 -15.5 -12t-34.5 12l-87 58l-94 -58q-50 -31 -50 0z" />
    <glyph glyph-name="Udieresis" unicode="&#xdc;" horiz-adv-x="766" 
d="M228 -10q-91 0 -127 49t-36 130v419h132v-423q0 -47 23 -63t57 -16h212q32 0 56 16.5t24 62.5v423h132v-419q0 -54 -15 -94t-50 -62.5t-97 -22.5h-311zM463.798 641q-30.5791 0 -44.6299 12.3975q-14.0498 12.3965 -14.0498 41.3232q0 29.7539 13.6367 41.7373
q13.6367 11.9844 45.043 11.9844t45.4561 -11.9844q14.0508 -11.9834 14.0508 -41.7373q0 -28.0996 -14.0508 -40.9102q-14.0498 -12.8105 -45.4561 -12.8105zM305.798 641q-30.5791 0 -44.6299 12.3975q-14.0498 12.3965 -14.0498 41.3232q0 29.7539 13.6367 41.7373
q13.6367 11.9844 45.043 11.9844t45.4561 -11.9844q14.0508 -11.9834 14.0508 -41.7373q0 -28.0996 -14.0508 -40.9102q-14.0498 -12.8105 -45.4561 -12.8105z" />
    <glyph glyph-name="Yacute" unicode="&#xdd;" horiz-adv-x="738" 
d="M301 0v244l-291 344h160l148 -187l46 -62h10l46 62l148 187h160l-39 -60l-256 -288v-240h-132zM334 658q0 13 9.5 36.5t21.5 47t19 35.5q9 14 22.5 21.5t37.5 7.5h11q39 0 39 -29q0 -15 -18.5 -38t-44 -44.5t-47.5 -35.5q-16 -10 -33 -15t-17 14z" />
    <glyph glyph-name="Thorn" unicode="&#xde;" horiz-adv-x="765" 
d="M90 0v549l-10 80h142v-120h351q50 0 77 -14t38.5 -35t14 -42.5t2.5 -36.5v-110q0 -18 -2.5 -40t-14.5 -42t-39 -33t-76 -13h-152q-63 0 -117.5 3t-81.5 5v-151h-132zM222 239h303q18 0 33 10t15 30v94q0 20 -15.5 30t-32.5 10h-303v-174z" />
    <glyph glyph-name="germandbls" unicode="&#xdf;" horiz-adv-x="691" 
d="M90 0v358h-50v90h50v92q0 18 4 41t19 44.5t45.5 35.5t84.5 14h130q65 0 97.5 -18t43.5 -45.5t11 -54.5v-3q0 -38 -21.5 -69.5t-42.5 -61.5q-40 -56 -40 -74q0 -26 38 -26h50q74 0 103 -30t29 -79v-99q0 -18 -2.5 -38t-14.5 -37.5t-39 -28.5t-76 -11h-96q-67 0 -95 7
t-28 14l30 75q23 -3 62.5 -6.5t78.5 -3.5h20q25 0 31.5 11t6.5 34v60q0 36 -38 36h-60q-54 0 -83 24.5t-29 68.5v5q0 36 14 64t33 59q21 35 34 56.5t13 44.5q0 40 -48 40h-105q-25 0 -31.5 -17t-6.5 -28v-544h-122z" />
    <glyph glyph-name="agrave" unicode="&#xe0;" horiz-adv-x="651" 
d="M189 0q-76 0 -110 35.5t-34 97.5q0 65 35.5 100t108.5 35h51q75 0 135 -4t99 -8v66q0 9 -2 18.5t-12 15.5t-34 6h-50q-109 0 -182 -3.5t-99 -6.5l-11 76q0 14 76 17t254 3h50q50 0 77 -14t38.5 -35t14 -42.5t2.5 -36.5v-320h-82l-39 20q-42 -7 -101 -13.5t-135 -6.5h-50z
M215 86h229q22 0 26 4t4 25v77h-259q-27 0 -37.5 -13t-10.5 -41t12 -40t36 -12zM411 518q0 13 -9.5 36.5t-21.5 47t-19 35.5q-9 14 -22.5 21.5t-37.5 7.5h-11q-39 0 -39 -29q0 -15 18.5 -38t44 -44.5t47.5 -35.5q16 -10 33 -15t17 14z" />
    <glyph glyph-name="aacute" unicode="&#xe1;" horiz-adv-x="651" 
d="M189 0q-76 0 -110 35.5t-34 97.5q0 65 35.5 100t108.5 35h51q75 0 135 -4t99 -8v66q0 9 -2 18.5t-12 15.5t-34 6h-50q-109 0 -182 -3.5t-99 -6.5l-11 76q0 14 76 17t254 3h50q50 0 77 -14t38.5 -35t14 -42.5t2.5 -36.5v-320h-82l-39 20q-42 -7 -101 -13.5t-135 -6.5h-50z
M215 86h229q22 0 26 4t4 25v77h-259q-27 0 -37.5 -13t-10.5 -41t12 -40t36 -12zM311 518q0 13 9.5 36.5t21.5 47t19 35.5q9 14 22.5 21.5t37.5 7.5h11q39 0 39 -29q0 -15 -18.5 -38t-44 -44.5t-47.5 -35.5q-16 -10 -33 -15t-17 14z" />
    <glyph glyph-name="acircumflex" unicode="&#xe2;" horiz-adv-x="651" 
d="M189 0q-76 0 -110 35.5t-34 97.5q0 65 35.5 100t108.5 35h51q75 0 135 -4t99 -8v66q0 9 -2 18.5t-12 15.5t-34 6h-50q-109 0 -182 -3.5t-99 -6.5l-11 76q0 14 76 17t254 3h50q50 0 77 -14t38.5 -35t14 -42.5t2.5 -36.5v-320h-82l-39 20q-42 -7 -101 -13.5t-135 -6.5h-50z
M215 86h229q22 0 26 4t4 25v77h-259q-27 0 -37.5 -13t-10.5 -41t12 -40t36 -12zM202 526q0 9 15 29t33.5 40t28.5 29q13 12 24 17t28 5h30q18 0 30 -7.5t20 -15.5q11 -11 28 -31.5t30.5 -39.5t13.5 -26q0 -11 -15.5 -12t-34.5 12l-87 58l-94 -58q-50 -31 -50 0z" />
    <glyph glyph-name="atilde" unicode="&#xe3;" horiz-adv-x="651" 
d="M189 0q-76 0 -110 35.5t-34 97.5q0 65 35.5 100t108.5 35h51q75 0 135 -4t99 -8v66q0 9 -2 18.5t-12 15.5t-34 6h-50q-109 0 -182 -3.5t-99 -6.5l-11 76q0 14 76 17t254 3h50q50 0 77 -14t38.5 -35t14 -42.5t2.5 -36.5v-320h-82l-39 20q-42 -7 -101 -13.5t-135 -6.5h-50z
M215 86h229q22 0 26 4t4 25v77h-259q-27 0 -37.5 -13t-10.5 -41t12 -40t36 -12zM416 500q-28 0 -48.5 10.5t-36.5 24.5t-31.5 24.5t-34.5 10.5q-25 0 -34.5 -17.5t-14.5 -32.5q-4 -12 -14 -16.5t-18.5 1.5t-8.5 24q0 44 25.5 77.5t74.5 33.5q28 0 47.5 -10.5t35 -24.5
t32 -24.5t37.5 -10.5q23 0 34 17.5t15 32.5q4 13 13.5 17.5t18.5 -1.5t9 -25q0 -27 -10.5 -52.5t-33 -42t-57.5 -16.5z" />
    <glyph glyph-name="adieresis" unicode="&#xe4;" horiz-adv-x="651" 
d="M189 0q-76 0 -110 35.5t-34 97.5q0 65 35.5 100t108.5 35h51q75 0 135 -4t99 -8v66q0 9 -2 18.5t-12 15.5t-34 6h-50q-109 0 -182 -3.5t-99 -6.5l-11 76q0 14 76 17t254 3h50q50 0 77 -14t38.5 -35t14 -42.5t2.5 -36.5v-320h-82l-39 20q-42 -7 -101 -13.5t-135 -6.5h-50z
M215 86h229q22 0 26 4t4 25v77h-259q-27 0 -37.5 -13t-10.5 -41t12 -40t36 -12zM424.798 511q-30.5791 0 -44.6299 12.3975q-14.0498 12.3965 -14.0498 41.3232q0 29.7539 13.6367 41.7373q13.6367 11.9844 45.043 11.9844t45.4561 -11.9844
q14.0508 -11.9834 14.0508 -41.7373q0 -28.0996 -14.0508 -40.9102q-14.0498 -12.8105 -45.4561 -12.8105zM266.798 511q-30.5791 0 -44.6299 12.3975q-14.0498 12.3965 -14.0498 41.3232q0 29.7539 13.6367 41.7373q13.6367 11.9844 45.043 11.9844t45.4561 -11.9844
q14.0508 -11.9834 14.0508 -41.7373q0 -28.0996 -14.0508 -40.9102q-14.0498 -12.8105 -45.4561 -12.8105z" />
    <glyph glyph-name="aring" unicode="&#xe5;" horiz-adv-x="651" 
d="M189 0q-76 0 -110 35.5t-34 97.5q0 65 35.5 100t108.5 35h51q75 0 135 -4t99 -8v66q0 9 -2 18.5t-12 15.5t-34 6h-50q-109 0 -182 -3.5t-99 -6.5l-11 76q0 14 76 17t254 3h50q50 0 77 -14t38.5 -35t14 -42.5t2.5 -36.5v-320h-82l-39 20q-42 -7 -101 -13.5t-135 -6.5h-50z
M215 86h229q22 0 26 4t4 25v77h-259q-27 0 -37.5 -13t-10.5 -41t12 -40t36 -12zM322 510q-44 0 -66 12t-29 32t-7 44v11q0 20 6.5 40.5t28 34t67.5 13.5h47q44 0 66 -13.5t29 -34t7 -40.5v-11q0 -24 -7 -44t-29 -32t-66 -12h-47zM321 576h48q11 0 15.5 6.5t4.5 13.5v14
q0 7 -4.5 13.5t-15.5 6.5h-48q-12 0 -16.5 -6.5t-3.5 -13.5v-14q-1 -7 3.5 -13.5t16.5 -6.5z" />
    <glyph glyph-name="ae" unicode="&#xe6;" horiz-adv-x="1044" 
d="M189 0q-76 0 -110 35.5t-34 97.5q0 65 35.5 100t108.5 35h51q50 0 98.5 -2t85 -9t50.5 -22v37q0 43 -34 66.5t-114 23.5h-20q-72 0 -128.5 -3.5t-82.5 -6.5l-12 79q17 7 68.5 12t142.5 5h32q51 0 94 -10t76 -31q13 17 39 29t71 12h215q66 0 103.5 -12.5t53 -40.5
t15.5 -75v-148h-175q-90 0 -146.5 4t-75.5 5v-55q-1 -40 48 -40h51q54 0 105.5 1.5t94.5 4t69 4.5l40 -65q0 -31 -197 -31h-201q-37 0 -61.5 7.5t-38.5 20.5q-49 -15 -118 -21.5t-149 -6.5h-50zM596 258h275v64q0 20 -4.5 28t-26.5 10t-75 2h-121q-48 0 -48 -40v-64zM214 86
h199q29 0 44.5 4t15.5 25v17q0 26 -28 43t-103 17h-128q-27 0 -37.5 -13t-10.5 -41t12 -40t36 -12z" />
    <glyph glyph-name="ccedilla" unicode="&#xe7;" horiz-adv-x="590" 
d="M182 0q-50 0 -77 13t-38.5 33t-14 42t-2.5 40v192q0 15 2.5 36.5t14 42.5t39 35t76.5 14h139q125 0 177.5 -6.5t52.5 -13.5l-20 -76q-28 2 -71 4.5t-92.5 4t-96.5 1.5h-51q-48 0 -48 -40v-196q-1 -40 48 -40h51q54 0 105.5 1.5t94.5 4t69 4.5l40 -65q0 -31 -197 -31h-201
zM295 -220q-43 0 -71 17t-40 36q-5 8 -5 17q0 8 6 13t16 2q19 -5 39.5 -10t46.5 -5q49 0 49 31q0 22 -29.5 28.5t-67.5 5.5q6 18 18 42.5t24 42.5t27 18t12 -18q-3 -15 -5.5 -27t-4.5 -23q44 -4 67.5 -25.5t23.5 -59.5q0 -36 -28 -60.5t-78 -24.5z" />
    <glyph glyph-name="egrave" unicode="&#xe8;" horiz-adv-x="620" 
d="M182 0q-50 0 -77 13t-38.5 33t-14 42t-2.5 40v192q0 15 2.5 36.5t14 42.5t39 35t76.5 14h215q66 0 103.5 -12.5t53 -40.5t15.5 -75v-148h-175q-90 0 -146.5 4t-75.5 5v-55q-1 -40 48 -40h51q54 0 105.5 1.5t94.5 4t69 4.5l40 -65q0 -31 -197 -31h-201zM172 258h275v64
q0 20 -4.5 28t-26.5 10t-75 2h-121q-48 0 -48 -40v-64zM380 518q0 13 -9.5 36.5t-21.5 47t-19 35.5q-9 14 -22.5 21.5t-37.5 7.5h-11q-39 0 -39 -29q0 -15 18.5 -38t44 -44.5t47.5 -35.5q16 -10 33 -15t17 14z" />
    <glyph glyph-name="eacute" unicode="&#xe9;" horiz-adv-x="620" 
d="M182 0q-50 0 -77 13t-38.5 33t-14 42t-2.5 40v192q0 15 2.5 36.5t14 42.5t39 35t76.5 14h215q66 0 103.5 -12.5t53 -40.5t15.5 -75v-148h-175q-90 0 -146.5 4t-75.5 5v-55q-1 -40 48 -40h51q54 0 105.5 1.5t94.5 4t69 4.5l40 -65q0 -31 -197 -31h-201zM172 258h275v64
q0 20 -4.5 28t-26.5 10t-75 2h-121q-48 0 -48 -40v-64zM280 518q0 13 9.5 36.5t21.5 47t19 35.5q9 14 22.5 21.5t37.5 7.5h11q39 0 39 -29q0 -15 -18.5 -38t-44 -44.5t-47.5 -35.5q-16 -10 -33 -15t-17 14z" />
    <glyph glyph-name="ecircumflex" unicode="&#xea;" horiz-adv-x="620" 
d="M182 0q-50 0 -77 13t-38.5 33t-14 42t-2.5 40v192q0 15 2.5 36.5t14 42.5t39 35t76.5 14h215q66 0 103.5 -12.5t53 -40.5t15.5 -75v-148h-175q-90 0 -146.5 4t-75.5 5v-55q-1 -40 48 -40h51q54 0 105.5 1.5t94.5 4t69 4.5l40 -65q0 -31 -197 -31h-201zM172 258h275v64
q0 20 -4.5 28t-26.5 10t-75 2h-121q-48 0 -48 -40v-64zM171 526q0 9 15 29t33.5 40t28.5 29q13 12 24 17t28 5h30q18 0 30 -7.5t20 -15.5q11 -11 28 -31.5t30.5 -39.5t13.5 -26q0 -11 -15.5 -12t-34.5 12l-87 58l-94 -58q-50 -31 -50 0z" />
    <glyph glyph-name="edieresis" unicode="&#xeb;" horiz-adv-x="620" 
d="M182 0q-50 0 -77 13t-38.5 33t-14 42t-2.5 40v192q0 15 2.5 36.5t14 42.5t39 35t76.5 14h215q66 0 103.5 -12.5t53 -40.5t15.5 -75v-148h-175q-90 0 -146.5 4t-75.5 5v-55q-1 -40 48 -40h51q54 0 105.5 1.5t94.5 4t69 4.5l40 -65q0 -31 -197 -31h-201zM172 258h275v64
q0 20 -4.5 28t-26.5 10t-75 2h-121q-48 0 -48 -40v-64zM393.798 511q-30.5791 0 -44.6299 12.3975q-14.0498 12.3965 -14.0498 41.3232q0 29.7539 13.6367 41.7373q13.6367 11.9844 45.043 11.9844t45.4561 -11.9844q14.0508 -11.9834 14.0508 -41.7373
q0 -28.0996 -14.0508 -40.9102q-14.0498 -12.8105 -45.4561 -12.8105zM235.798 511q-30.5791 0 -44.6299 12.3975q-14.0498 12.3965 -14.0498 41.3232q0 29.7539 13.6367 41.7373q13.6367 11.9844 45.043 11.9844t45.4561 -11.9844q14.0508 -11.9834 14.0508 -41.7373
q0 -28.0996 -14.0508 -40.9102q-14.0498 -12.8105 -45.4561 -12.8105z" />
    <glyph glyph-name="igrave" unicode="&#xec;" horiz-adv-x="242" 
d="M60 0v448h122v-448h-122zM186 518q0 13 -9.5 36.5t-21.5 47t-19 35.5q-9 14 -22.5 21.5t-37.5 7.5h-11q-39 0 -39 -29q0 -15 18.5 -38t44 -44.5t47.5 -35.5q16 -10 33 -15t17 14z" />
    <glyph glyph-name="iacute" unicode="&#xed;" horiz-adv-x="242" 
d="M60 0v448h122v-448h-122zM86 518q0 13 9.5 36.5t21.5 47t19 35.5q9 14 22.5 21.5t37.5 7.5h11q39 0 39 -29q0 -15 -18.5 -38t-44 -44.5t-47.5 -35.5q-16 -10 -33 -15t-17 14z" />
    <glyph glyph-name="icircumflex" unicode="&#xee;" horiz-adv-x="242" 
d="M60 0v448h122v-448h-122zM-23 526q0 9 15 29t33.5 40t28.5 29q13 12 24 17t28 5h30q18 0 30 -7.5t20 -15.5q11 -11 28 -31.5t30.5 -39.5t13.5 -26q0 -11 -15.5 -12t-34.5 12l-87 58l-94 -58q-50 -31 -50 0z" />
    <glyph glyph-name="idieresis" unicode="&#xef;" horiz-adv-x="242" 
d="M60 0v448h122v-448h-122zM199.798 511q-30.5791 0 -44.6299 12.3975q-14.0498 12.3965 -14.0498 41.3232q0 29.7539 13.6367 41.7373q13.6367 11.9844 45.043 11.9844t45.4561 -11.9844q14.0508 -11.9834 14.0508 -41.7373q0 -28.0996 -14.0508 -40.9102
q-14.0498 -12.8105 -45.4561 -12.8105zM41.7979 511q-30.5791 0 -44.6299 12.3975q-14.0498 12.3965 -14.0498 41.3232q0 29.7539 13.6367 41.7373q13.6367 11.9844 45.043 11.9844t45.4561 -11.9844q14.0508 -11.9834 14.0508 -41.7373q0 -28.0996 -14.0508 -40.9102
q-14.0498 -12.8105 -45.4561 -12.8105z" />
    <glyph glyph-name="eth" unicode="&#xf0;" 
d="M203 0q-52 0 -83 14.5t-46 37t-19.5 48.5t-4.5 49v141q0 22 7 49t24.5 52t49.5 41t83 16h11q44 0 72 -4.5t58 -13.5l5 9l-122 118l-61 -62l-55 54l60 61l-63 61l84 85l62 -62l64 63l55 -54l-65 -64q34 -33 65 -64.5t49 -49.5q58 -58 92.5 -108.5t49.5 -99.5t15 -105v-21
q-1 -53 -22 -96.5t-64.5 -69t-111.5 -25.5h-189zM220 86h157q43 0 67 24t24 66v38q0 48 -14.5 81t-54.5 50t-117 17h-41q-33 0 -51 -19t-18 -51v-156q-1 -50 48 -50z" />
    <glyph glyph-name="ntilde" unicode="&#xf1;" horiz-adv-x="655" 
d="M60 0v448h82l40 -20q42 8 101 14t135 6h50q50 0 77 -14t38.5 -35t14 -42.5t2.5 -36.5v-320h-122v322q0 40 -48 40h-218q-19 0 -24.5 -3.5t-5.5 -18.5v-340h-122zM400 500q-28 0 -48.5 10.5t-36.5 24.5t-31.5 24.5t-34.5 10.5q-25 0 -34.5 -17.5t-14.5 -32.5
q-4 -12 -14 -16.5t-18.5 1.5t-8.5 24q0 44 25.5 77.5t74.5 33.5q28 0 47.5 -10.5t35 -24.5t32 -24.5t37.5 -10.5q23 0 34 17.5t15 32.5q4 13 13.5 17.5t18.5 -1.5t9 -25q0 -27 -10.5 -52.5t-33 -42t-57.5 -16.5z" />
    <glyph glyph-name="ograve" unicode="&#xf2;" 
d="M182 0q-67 0 -99.5 27t-32.5 88v205q0 15 2.5 36.5t14 42.5t39 35t76.5 14h276q50 0 77 -14t38.5 -35t14 -42.5t2.5 -36.5v-192q0 -18 -2.5 -40t-14.5 -42t-39 -33t-76 -13h-276zM220 86h200q49 0 49 40v196q0 40 -49 40h-200q-48 0 -48 -40v-196q0 -40 48 -40zM385 518
q0 13 -9.5 36.5t-21.5 47t-19 35.5q-9 14 -22.5 21.5t-37.5 7.5h-11q-39 0 -39 -29q0 -15 18.5 -38t44 -44.5t47.5 -35.5q16 -10 33 -15t17 14z" />
    <glyph glyph-name="oacute" unicode="&#xf3;" 
d="M182 0q-67 0 -99.5 27t-32.5 88v205q0 15 2.5 36.5t14 42.5t39 35t76.5 14h276q50 0 77 -14t38.5 -35t14 -42.5t2.5 -36.5v-192q0 -18 -2.5 -40t-14.5 -42t-39 -33t-76 -13h-276zM220 86h200q49 0 49 40v196q0 40 -49 40h-200q-48 0 -48 -40v-196q0 -40 48 -40zM285 518
q0 13 9.5 36.5t21.5 47t19 35.5q9 14 22.5 21.5t37.5 7.5h11q39 0 39 -29q0 -15 -18.5 -38t-44 -44.5t-47.5 -35.5q-16 -10 -33 -15t-17 14z" />
    <glyph glyph-name="ocircumflex" unicode="&#xf4;" 
d="M182 0q-67 0 -99.5 27t-32.5 88v205q0 15 2.5 36.5t14 42.5t39 35t76.5 14h276q50 0 77 -14t38.5 -35t14 -42.5t2.5 -36.5v-192q0 -18 -2.5 -40t-14.5 -42t-39 -33t-76 -13h-276zM220 86h200q49 0 49 40v196q0 40 -49 40h-200q-48 0 -48 -40v-196q0 -40 48 -40zM176 526
q0 9 15 29t33.5 40t28.5 29q13 12 24 17t28 5h30q18 0 30 -7.5t20 -15.5q11 -11 28 -31.5t30.5 -39.5t13.5 -26q0 -11 -15.5 -12t-34.5 12l-87 58l-94 -58q-50 -31 -50 0z" />
    <glyph glyph-name="otilde" unicode="&#xf5;" 
d="M182 0q-67 0 -99.5 27t-32.5 88v205q0 15 2.5 36.5t14 42.5t39 35t76.5 14h276q50 0 77 -14t38.5 -35t14 -42.5t2.5 -36.5v-192q0 -18 -2.5 -40t-14.5 -42t-39 -33t-76 -13h-276zM220 86h200q49 0 49 40v196q0 40 -49 40h-200q-48 0 -48 -40v-196q0 -40 48 -40zM390 500
q-28 0 -48.5 10.5t-36.5 24.5t-31.5 24.5t-34.5 10.5q-25 0 -34.5 -17.5t-14.5 -32.5q-4 -12 -14 -16.5t-18.5 1.5t-8.5 24q0 44 25.5 77.5t74.5 33.5q28 0 47.5 -10.5t35 -24.5t32 -24.5t37.5 -10.5q23 0 34 17.5t15 32.5q4 13 13.5 17.5t18.5 -1.5t9 -25
q0 -27 -10.5 -52.5t-33 -42t-57.5 -16.5z" />
    <glyph glyph-name="odieresis" unicode="&#xf6;" 
d="M182 0q-67 0 -99.5 27t-32.5 88v205q0 15 2.5 36.5t14 42.5t39 35t76.5 14h276q50 0 77 -14t38.5 -35t14 -42.5t2.5 -36.5v-192q0 -18 -2.5 -40t-14.5 -42t-39 -33t-76 -13h-276zM220 86h200q49 0 49 40v196q0 40 -49 40h-200q-48 0 -48 -40v-196q0 -40 48 -40z
M398.798 511q-30.5791 0 -44.6299 12.3975q-14.0498 12.3965 -14.0498 41.3232q0 29.7539 13.6367 41.7373q13.6367 11.9844 45.043 11.9844t45.4561 -11.9844q14.0508 -11.9834 14.0508 -41.7373q0 -28.0996 -14.0508 -40.9102q-14.0498 -12.8105 -45.4561 -12.8105z
M240.798 511q-30.5791 0 -44.6299 12.3975q-14.0498 12.3965 -14.0498 41.3232q0 29.7539 13.6367 41.7373q13.6367 11.9844 45.043 11.9844t45.4561 -11.9844q14.0508 -11.9834 14.0508 -41.7373q0 -28.0996 -14.0508 -40.9102q-14.0498 -12.8105 -45.4561 -12.8105z" />
    <glyph glyph-name="divide" unicode="&#xf7;" horiz-adv-x="639" 
d="M559 229l-479 1v101l479 -1v-101zM320 40q-37 0 -54 15t-17 50q0 36 16.5 50.5t54.5 14.5t55 -14.5t17 -50.5q0 -34 -17 -49.5t-55 -15.5zM320 390q-37 0 -54 15t-17 50q0 36 16.5 50.5t54.5 14.5t55 -14.5t17 -50.5q0 -34 -17 -49.5t-55 -15.5z" />
    <glyph glyph-name="oslash" unicode="&#xf8;" 
d="M182 0q-67 0 -99.5 27t-32.5 88v205q0 15 2.5 36.5t14 42.5t39 35t76.5 14h276q50 0 77 -14t38.5 -35t14 -42.5t2.5 -36.5v-192q0 -18 -2.5 -40t-14.5 -42t-39 -33t-76 -13h-276zM220 86h200q49 0 49 40v196q0 40 -49 40h-200q-48 0 -48 -40v-196q0 -40 48 -40zM62 -121
l417 668h90l-418 -668h-89z" />
    <glyph glyph-name="ugrave" unicode="&#xf9;" 
d="M192 0q-49 0 -76.5 13t-39 33t-14 42t-2.5 40v320h122v-322q-1 -22 14.5 -31t33.5 -9h198q22 0 26 4t4 26v332h122v-448h-82l-38 20q-40 -8 -94.5 -14t-122.5 -6h-51zM385 518q0 13 -9.5 36.5t-21.5 47t-19 35.5q-9 14 -22.5 21.5t-37.5 7.5h-11q-39 0 -39 -29
q0 -15 18.5 -38t44 -44.5t47.5 -35.5q16 -10 33 -15t17 14z" />
    <glyph glyph-name="uacute" unicode="&#xfa;" 
d="M192 0q-49 0 -76.5 13t-39 33t-14 42t-2.5 40v320h122v-322q-1 -22 14.5 -31t33.5 -9h198q22 0 26 4t4 26v332h122v-448h-82l-38 20q-40 -8 -94.5 -14t-122.5 -6h-51zM285 518q0 13 9.5 36.5t21.5 47t19 35.5q9 14 22.5 21.5t37.5 7.5h11q39 0 39 -29q0 -15 -18.5 -38
t-44 -44.5t-47.5 -35.5q-16 -10 -33 -15t-17 14z" />
    <glyph glyph-name="ucircumflex" unicode="&#xfb;" 
d="M192 0q-49 0 -76.5 13t-39 33t-14 42t-2.5 40v320h122v-322q-1 -22 14.5 -31t33.5 -9h198q22 0 26 4t4 26v332h122v-448h-82l-38 20q-40 -8 -94.5 -14t-122.5 -6h-51zM176 526q0 9 15 29t33.5 40t28.5 29q13 12 24 17t28 5h30q18 0 30 -7.5t20 -15.5q11 -11 28 -31.5
t30.5 -39.5t13.5 -26q0 -11 -15.5 -12t-34.5 12l-87 58l-94 -58q-50 -31 -50 0z" />
    <glyph glyph-name="udieresis" unicode="&#xfc;" 
d="M192 0q-49 0 -76.5 13t-39 33t-14 42t-2.5 40v320h122v-322q-1 -22 14.5 -31t33.5 -9h198q22 0 26 4t4 26v332h122v-448h-82l-38 20q-40 -8 -94.5 -14t-122.5 -6h-51zM398.798 511q-30.5791 0 -44.6299 12.3975q-14.0498 12.3965 -14.0498 41.3232
q0 29.7539 13.6367 41.7373q13.6367 11.9844 45.043 11.9844t45.4561 -11.9844q14.0508 -11.9834 14.0508 -41.7373q0 -28.0996 -14.0508 -40.9102q-14.0498 -12.8105 -45.4561 -12.8105zM240.798 511q-30.5791 0 -44.6299 12.3975q-14.0498 12.3965 -14.0498 41.3232
q0 29.7539 13.6367 41.7373q13.6367 11.9844 45.043 11.9844t45.4561 -11.9844q14.0508 -11.9834 14.0508 -41.7373q0 -28.0996 -14.0508 -40.9102q-14.0498 -12.8105 -45.4561 -12.8105z" />
    <glyph glyph-name="yacute" unicode="&#xfd;" horiz-adv-x="591" 
d="M102 -196q-48 0 -88 11t-54 20l30 90q17 -7 48.5 -16.5t71.5 -9.5h11q46 0 81.5 27.5t54.5 73.5h-50l-196 448h140l115 -276l26 -72h10l26 72l117 276h136l-16 -61q-19 -39 -43.5 -89.5t-50.5 -104.5t-50.5 -104t-43.5 -89q-29 -60 -63.5 -104t-79 -68t-105.5 -24h-27z
M256 518q0 13 9.5 36.5t21.5 47t19 35.5q9 14 22.5 21.5t37.5 7.5h11q39 0 39 -29q0 -15 -18.5 -38t-44 -44.5t-47.5 -35.5q-16 -10 -33 -15t-17 14z" />
    <glyph glyph-name="thorn" unicode="&#xfe;" horiz-adv-x="680" 
d="M80 -244v1000h122v-321q45 5 100 9t135 4h51q50 0 77 -13t38.5 -33t14 -42t2.5 -40v-192q0 -15 -2.5 -36.5t-14 -42.5t-38.5 -35t-77 -14h-51q-76 0 -135 4t-100 8v-256h-122zM233 86h217q19 0 33.5 10t14.5 30v196q1 22 -10.5 31t-37.5 9h-50q-64 0 -113.5 -2.5
t-84.5 -5.5v-237q0 -22 4.5 -26.5t26.5 -4.5z" />
    <glyph glyph-name="ydieresis" unicode="&#xff;" horiz-adv-x="591" 
d="M102 -196q-48 0 -88 11t-54 20l30 90q17 -7 48.5 -16.5t71.5 -9.5h11q46 0 81.5 27.5t54.5 73.5h-50l-196 448h140l115 -276l26 -72h10l26 72l117 276h136l-16 -61q-19 -39 -43.5 -89.5t-50.5 -104.5t-50.5 -104t-43.5 -89q-29 -60 -63.5 -104t-79 -68t-105.5 -24h-27z
M369.798 511q-30.5791 0 -44.6299 12.3975q-14.0498 12.3965 -14.0498 41.3232q0 29.7539 13.6367 41.7373q13.6367 11.9844 45.043 11.9844t45.4561 -11.9844q14.0508 -11.9834 14.0508 -41.7373q0 -28.0996 -14.0508 -40.9102q-14.0498 -12.8105 -45.4561 -12.8105z
M211.798 511q-30.5791 0 -44.6299 12.3975q-14.0498 12.3965 -14.0498 41.3232q0 29.7539 13.6367 41.7373q13.6367 11.9844 45.043 11.9844t45.4561 -11.9844q14.0508 -11.9834 14.0508 -41.7373q0 -28.0996 -14.0508 -40.9102q-14.0498 -12.8105 -45.4561 -12.8105z" />
    <glyph glyph-name="Amacron" unicode="&#x100;" horiz-adv-x="782" 
d="M0 0l293 588h197l292 -588h-154l-59 127h-358l-65 -127h-146zM247 225h285l-137 273h-10zM296 660q-20 0 -30 6.5t-10 26.5v6q0 20 9 25.5t31 5.5h192q20 0 30 -5.5t10 -25.5v-6q0 -20 -11 -26.5t-29 -6.5h-192z" />
    <glyph glyph-name="amacron" unicode="&#x101;" horiz-adv-x="651" 
d="M189 0q-76 0 -110 35.5t-34 97.5q0 65 35.5 100t108.5 35h51q75 0 135 -4t99 -8v66q0 9 -2 18.5t-12 15.5t-34 6h-50q-109 0 -182 -3.5t-99 -6.5l-11 76q0 14 76 17t254 3h50q50 0 77 -14t38.5 -35t14 -42.5t2.5 -36.5v-320h-82l-39 20q-42 -7 -101 -13.5t-135 -6.5h-50z
M215 86h229q22 0 26 4t4 25v77h-259q-27 0 -37.5 -13t-10.5 -41t12 -40t36 -12zM250 520q-20 0 -30 6.5t-10 26.5v6q0 20 9 25.5t31 5.5h192q20 0 30 -5.5t10 -25.5v-6q0 -20 -11 -26.5t-29 -6.5h-192z" />
    <glyph glyph-name="Abreve" unicode="&#x102;" horiz-adv-x="782" 
d="M0 0l293 588h197l292 -588h-154l-59 127h-358l-65 -127h-146zM247 225h285l-137 273h-10zM392 660q-58 0 -90.5 14t-46 39t-13.5 57q0 25 14.5 25t23.5 -14q15 -25 37.5 -38t74.5 -13q53 0 73.5 13t36.5 38q11 16 25.5 15t14.5 -26q0 -54 -31.5 -82t-118.5 -28z" />
    <glyph glyph-name="abreve" unicode="&#x103;" horiz-adv-x="651" 
d="M189 0q-76 0 -110 35.5t-34 97.5q0 65 35.5 100t108.5 35h51q75 0 135 -4t99 -8v66q0 9 -2 18.5t-12 15.5t-34 6h-50q-109 0 -182 -3.5t-99 -6.5l-11 76q0 14 76 17t254 3h50q50 0 77 -14t38.5 -35t14 -42.5t2.5 -36.5v-320h-82l-39 20q-42 -7 -101 -13.5t-135 -6.5h-50z
M215 86h229q22 0 26 4t4 25v77h-259q-27 0 -37.5 -13t-10.5 -41t12 -40t36 -12zM346 520q-58 0 -90.5 14t-46 39t-13.5 57q0 25 14.5 25t23.5 -14q15 -25 37.5 -38t74.5 -13q53 0 73.5 13t36.5 38q11 16 25.5 15t14.5 -26q0 -54 -31.5 -82t-118.5 -28z" />
    <glyph glyph-name="Aogonek" unicode="&#x104;" horiz-adv-x="782" 
d="M0 0l293 588h197l292 -588h-154l-59 127h-358l-65 -127h-146zM247 225h285l-137 273h-10zM668 -167q-46 0 -70.5 26t-24.5 60q0 30 13.5 50.5t31.5 33t31 16.5q26 8 47.5 7t21.5 -10q0 -7 -11 -13t-26 -14.5t-26 -21.5t-11 -33q0 -31 37 -31q33 0 50 9.5t32 9.5
q13 0 11 -13.5t-13 -30.5t-33 -31t-60 -14z" />
    <glyph glyph-name="aogonek" unicode="&#x105;" horiz-adv-x="651" 
d="M189 0q-76 0 -110 35.5t-34 97.5q0 65 35.5 100t108.5 35h51q75 0 135 -4t99 -8v66q0 9 -2 18.5t-12 15.5t-34 6h-50q-109 0 -182 -3.5t-99 -6.5l-11 76q0 14 76 17t254 3h50q50 0 77 -14t38.5 -35t14 -42.5t2.5 -36.5v-320h-82l-39 20q-42 -7 -101 -13.5t-135 -6.5h-50z
M215 86h229q22 0 26 4t4 25v77h-259q-27 0 -37.5 -13t-10.5 -41t12 -40t36 -12zM526 -173q-46 0 -70.5 26t-24.5 60q0 30 13.5 50.5t31.5 33t31 16.5q26 8 47.5 7t21.5 -10q0 -7 -11 -13t-26 -14.5t-26 -21.5t-11 -33q0 -31 37 -31q33 0 50 9.5t32 9.5q13 0 11 -13.5
t-13 -30.5t-33 -31t-60 -14z" />
    <glyph glyph-name="Cacute" unicode="&#x106;" horiz-adv-x="755" 
d="M253 0q-71 0 -111 20t-56 60t-16 99v223q0 96 43 141.5t140 45.5h301q69 0 105.5 -7.5t36.5 -15.5l-20 -83q-17 3 -100.5 6.5t-242.5 3.5h-51q-80 0 -80 -71v-255q0 -34 17.5 -52.5t62.5 -18.5h41q166 0 257.5 3.5t113.5 7.5l41 -66q0 -5 -16.5 -15t-60.5 -18t-127 -8
h-278zM388 658q0 13 9.5 36.5t21.5 47t19 35.5q9 14 22.5 21.5t37.5 7.5h11q39 0 39 -29q0 -15 -18.5 -38t-44 -44.5t-47.5 -35.5q-16 -10 -33 -15t-17 14z" />
    <glyph glyph-name="cacute" unicode="&#x107;" horiz-adv-x="590" 
d="M182 0q-50 0 -77 13t-38.5 33t-14 42t-2.5 40v192q0 15 2.5 36.5t14 42.5t39 35t76.5 14h139q125 0 177.5 -6.5t52.5 -13.5l-20 -76q-28 2 -71 4.5t-92.5 4t-96.5 1.5h-51q-48 0 -48 -40v-196q-1 -40 48 -40h51q54 0 105.5 1.5t94.5 4t69 4.5l40 -65q0 -31 -197 -31h-201
zM285 518q0 13 9.5 36.5t21.5 47t19 35.5q9 14 22.5 21.5t37.5 7.5h11q39 0 39 -29q0 -15 -18.5 -38t-44 -44.5t-47.5 -35.5q-16 -10 -33 -15t-17 14z" />
    <glyph glyph-name="Ccircumflex" unicode="&#x108;" horiz-adv-x="755" 
d="M253 0q-71 0 -111 20t-56 60t-16 99v223q0 96 43 141.5t140 45.5h301q69 0 105.5 -7.5t36.5 -15.5l-20 -83q-17 3 -100.5 6.5t-242.5 3.5h-51q-80 0 -80 -71v-255q0 -34 17.5 -52.5t62.5 -18.5h41q166 0 257.5 3.5t113.5 7.5l41 -66q0 -5 -16.5 -15t-60.5 -18t-127 -8
h-278zM279 666q0 9 15 29t33.5 40t28.5 29q13 12 24 17t28 5h30q18 0 30 -7.5t20 -15.5q11 -11 28 -31.5t30.5 -39.5t13.5 -26q0 -11 -15.5 -12t-34.5 12l-87 58l-94 -58q-50 -31 -50 0z" />
    <glyph glyph-name="ccircumflex" unicode="&#x109;" horiz-adv-x="590" 
d="M182 0q-50 0 -77 13t-38.5 33t-14 42t-2.5 40v192q0 15 2.5 36.5t14 42.5t39 35t76.5 14h139q125 0 177.5 -6.5t52.5 -13.5l-20 -76q-28 2 -71 4.5t-92.5 4t-96.5 1.5h-51q-48 0 -48 -40v-196q-1 -40 48 -40h51q54 0 105.5 1.5t94.5 4t69 4.5l40 -65q0 -31 -197 -31h-201
zM176 526q0 9 15 29t33.5 40t28.5 29q13 12 24 17t28 5h30q18 0 30 -7.5t20 -15.5q11 -11 28 -31.5t30.5 -39.5t13.5 -26q0 -11 -15.5 -12t-34.5 12l-87 58l-94 -58q-50 -31 -50 0z" />
    <glyph glyph-name="Cdotaccent" unicode="&#x10a;" horiz-adv-x="755" 
d="M253 0q-71 0 -111 20t-56 60t-16 99v223q0 96 43 141.5t140 45.5h301q69 0 105.5 -7.5t36.5 -15.5l-20 -83q-17 3 -100.5 6.5t-242.5 3.5h-51q-80 0 -80 -71v-255q0 -34 17.5 -52.5t62.5 -18.5h41q166 0 257.5 3.5t113.5 7.5l41 -66q0 -5 -16.5 -15t-60.5 -18t-127 -8
h-278zM422.798 651q-30.5791 0 -44.6299 12.3975q-14.0498 12.3965 -14.0498 41.3232q0 29.7539 13.6367 41.7373q13.6367 11.9844 45.043 11.9844t45.4561 -11.9844q14.0508 -11.9834 14.0508 -41.7373q0 -28.0996 -14.0508 -40.9102q-14.0498 -12.8105 -45.4561 -12.8105z
" />
    <glyph glyph-name="cdotaccent" unicode="&#x10b;" horiz-adv-x="590" 
d="M182 0q-50 0 -77 13t-38.5 33t-14 42t-2.5 40v192q0 15 2.5 36.5t14 42.5t39 35t76.5 14h139q125 0 177.5 -6.5t52.5 -13.5l-20 -76q-28 2 -71 4.5t-92.5 4t-96.5 1.5h-51q-48 0 -48 -40v-196q-1 -40 48 -40h51q54 0 105.5 1.5t94.5 4t69 4.5l40 -65q0 -31 -197 -31h-201
zM319.798 511q-30.5791 0 -44.6299 12.3975q-14.0498 12.3965 -14.0498 41.3232q0 29.7539 13.6367 41.7373q13.6367 11.9844 45.043 11.9844t45.4561 -11.9844q14.0508 -11.9834 14.0508 -41.7373q0 -28.0996 -14.0508 -40.9102q-14.0498 -12.8105 -45.4561 -12.8105z" />
    <glyph glyph-name="Ccaron" unicode="&#x10c;" horiz-adv-x="755" 
d="M253 0q-71 0 -111 20t-56 60t-16 99v223q0 96 43 141.5t140 45.5h301q69 0 105.5 -7.5t36.5 -15.5l-20 -83q-17 3 -100.5 6.5t-242.5 3.5h-51q-80 0 -80 -71v-255q0 -34 17.5 -52.5t62.5 -18.5h41q166 0 257.5 3.5t113.5 7.5l41 -66q0 -5 -16.5 -15t-60.5 -18t-127 -8
h-278zM280 770q0 -9 15 -29t33.5 -40t28.5 -29q13 -12 24 -17t28 -5h30q18 0 30 7.5t20 15.5q11 11 28 31.5t30.5 39.5t13.5 26q0 11 -15.5 12t-34.5 -12l-87 -58l-94 58q-50 31 -50 0z" />
    <glyph glyph-name="ccaron" unicode="&#x10d;" horiz-adv-x="590" 
d="M182 0q-50 0 -77 13t-38.5 33t-14 42t-2.5 40v192q0 15 2.5 36.5t14 42.5t39 35t76.5 14h139q125 0 177.5 -6.5t52.5 -13.5l-20 -76q-28 2 -71 4.5t-92.5 4t-96.5 1.5h-51q-48 0 -48 -40v-196q-1 -40 48 -40h51q54 0 105.5 1.5t94.5 4t69 4.5l40 -65q0 -31 -197 -31h-201
zM177 630q0 -9 15 -29t33.5 -40t28.5 -29q13 -12 24 -17t28 -5h30q18 0 30 7.5t20 15.5q11 11 28 31.5t30.5 39.5t13.5 26q0 11 -15.5 12t-34.5 -12l-87 -58l-94 58q-50 31 -50 0z" />
    <glyph glyph-name="Dcaron" unicode="&#x10e;" horiz-adv-x="806" 
d="M90 0v508l-10 80h464q81 0 124.5 -20t60.5 -59.5t17 -98.5v-231q0 -60 -16.5 -99.5t-60 -59.5t-125.5 -20h-454zM222 96h314q77 0 78 71v255q0 29 -17 49.5t-61 20.5h-314v-396zM270 770q0 -9 15 -29t33.5 -40t28.5 -29q13 -12 24 -17t28 -5h30q18 0 30 7.5t20 15.5
q11 11 28 31.5t30.5 39.5t13.5 26q0 11 -15.5 12t-34.5 -12l-87 -58l-94 58q-50 31 -50 0z" />
    <glyph glyph-name="dcaron" unicode="&#x10f;" horiz-adv-x="732" 
d="M182 0q-50 0 -77 13t-38.5 33t-14 42t-2.5 40v192q0 15 2.5 36.5t14 42.5t39 35t76.5 14h51q92 0 148.5 -3.5t86.5 -7.5v197h122v-634h-82l-39 20q-42 -7 -101 -13.5t-136 -6.5h-50zM220 86h217q21 0 26 5t5 25v239q-34 2 -86 4.5t-111 2.5h-51q-48 0 -48 -40v-196
q0 -40 48 -40zM680 397q-16 -16 -25 -9t-8 28q3 31 6 66t7 66.5t8 50.5q12 54 65 53q24 -1 34 -12t10 -32t-10.5 -51.5t-26 -62.5t-32 -58.5t-28.5 -38.5z" />
    <glyph glyph-name="Dcroat" unicode="&#x110;" horiz-adv-x="806" 
d="M90 0v508l-10 80h464q81 0 124.5 -20t60.5 -59.5t17 -98.5v-231q0 -60 -16.5 -99.5t-60 -59.5t-125.5 -20h-454zM222 96h314q77 0 78 71v255q0 29 -17 49.5t-61 20.5h-314v-396zM-2 256v75h412v-75h-412z" />
    <glyph glyph-name="dcroat" unicode="&#x111;" horiz-adv-x="660" 
d="M182 0q-50 0 -77 13t-38.5 33t-14 42t-2.5 40v192q0 15 2.5 36.5t14 42.5t39 35t76.5 14h51q92 0 148.5 -3.5t86.5 -7.5v197h122v-634h-82l-39 20q-42 -7 -101 -13.5t-136 -6.5h-50zM220 86h217q21 0 26 5t5 25v239q-34 2 -86 4.5t-111 2.5h-51q-48 0 -48 -40v-196
q0 -40 48 -40zM280 496v75h412v-75h-412z" />
    <glyph glyph-name="Emacron" unicode="&#x112;" horiz-adv-x="766" 
d="M80 0v588h622v-96h-490v-138h374v-99h-374v-159h494l40 -85q0 -4 -27 -7.5t-93 -3.5h-546zM307 660q-20 0 -30 6.5t-10 26.5v6q0 20 9 25.5t31 5.5h192q20 0 30 -5.5t10 -25.5v-6q0 -20 -11 -26.5t-29 -6.5h-192z" />
    <glyph glyph-name="emacron" unicode="&#x113;" horiz-adv-x="620" 
d="M182 0q-50 0 -77 13t-38.5 33t-14 42t-2.5 40v192q0 15 2.5 36.5t14 42.5t39 35t76.5 14h215q66 0 103.5 -12.5t53 -40.5t15.5 -75v-148h-175q-90 0 -146.5 4t-75.5 5v-55q-1 -40 48 -40h51q54 0 105.5 1.5t94.5 4t69 4.5l40 -65q0 -31 -197 -31h-201zM172 258h275v64
q0 20 -4.5 28t-26.5 10t-75 2h-121q-48 0 -48 -40v-64zM219 520q-20 0 -30 6.5t-10 26.5v6q0 20 9 25.5t31 5.5h192q20 0 30 -5.5t10 -25.5v-6q0 -20 -11 -26.5t-29 -6.5h-192z" />
    <glyph glyph-name="Ebreve" unicode="&#x114;" horiz-adv-x="766" 
d="M80 0v588h622v-96h-490v-138h374v-99h-374v-159h494l40 -85q0 -4 -27 -7.5t-93 -3.5h-546zM403 660q-58 0 -90.5 14t-46 39t-13.5 57q0 25 14.5 25t23.5 -14q15 -25 37.5 -38t74.5 -13q53 0 73.5 13t36.5 38q11 16 25.5 15t14.5 -26q0 -54 -31.5 -82t-118.5 -28z" />
    <glyph glyph-name="ebreve" unicode="&#x115;" horiz-adv-x="620" 
d="M182 0q-50 0 -77 13t-38.5 33t-14 42t-2.5 40v192q0 15 2.5 36.5t14 42.5t39 35t76.5 14h215q66 0 103.5 -12.5t53 -40.5t15.5 -75v-148h-175q-90 0 -146.5 4t-75.5 5v-55q-1 -40 48 -40h51q54 0 105.5 1.5t94.5 4t69 4.5l40 -65q0 -31 -197 -31h-201zM172 258h275v64
q0 20 -4.5 28t-26.5 10t-75 2h-121q-48 0 -48 -40v-64zM315 520q-58 0 -90.5 14t-46 39t-13.5 57q0 25 14.5 25t23.5 -14q15 -25 37.5 -38t74.5 -13q53 0 73.5 13t36.5 38q11 16 25.5 15t14.5 -26q0 -54 -31.5 -82t-118.5 -28z" />
    <glyph glyph-name="Edotaccent" unicode="&#x116;" horiz-adv-x="766" 
d="M80 0v588h622v-96h-490v-138h374v-99h-374v-159h494l40 -85q0 -4 -27 -7.5t-93 -3.5h-546zM402.798 651q-30.5791 0 -44.6299 12.3975q-14.0498 12.3965 -14.0498 41.3232q0 29.7539 13.6367 41.7373q13.6367 11.9844 45.043 11.9844t45.4561 -11.9844
q14.0508 -11.9834 14.0508 -41.7373q0 -28.0996 -14.0508 -40.9102q-14.0498 -12.8105 -45.4561 -12.8105z" />
    <glyph glyph-name="edotaccent" unicode="&#x117;" horiz-adv-x="620" 
d="M182 0q-50 0 -77 13t-38.5 33t-14 42t-2.5 40v192q0 15 2.5 36.5t14 42.5t39 35t76.5 14h215q66 0 103.5 -12.5t53 -40.5t15.5 -75v-148h-175q-90 0 -146.5 4t-75.5 5v-55q-1 -40 48 -40h51q54 0 105.5 1.5t94.5 4t69 4.5l40 -65q0 -31 -197 -31h-201zM172 258h275v64
q0 20 -4.5 28t-26.5 10t-75 2h-121q-48 0 -48 -40v-64zM314.798 511q-30.5791 0 -44.6299 12.3975q-14.0498 12.3965 -14.0498 41.3232q0 29.7539 13.6367 41.7373q13.6367 11.9844 45.043 11.9844t45.4561 -11.9844q14.0508 -11.9834 14.0508 -41.7373
q0 -28.0996 -14.0508 -40.9102q-14.0498 -12.8105 -45.4561 -12.8105z" />
    <glyph glyph-name="Eogonek" unicode="&#x118;" horiz-adv-x="766" 
d="M80 0v588h622v-96h-490v-138h374v-99h-374v-159h494l40 -85q0 -4 -27 -7.5t-93 -3.5h-546zM615 -163q-46 0 -70.5 26t-24.5 60q0 30 13.5 50.5t31.5 33t31 16.5q26 8 47.5 7t21.5 -10q0 -7 -11 -13t-26 -14.5t-26 -21.5t-11 -33q0 -31 37 -31q33 0 50 9.5t32 9.5
q13 0 11 -13.5t-13 -30.5t-33 -31t-60 -14z" />
    <glyph glyph-name="eogonek" unicode="&#x119;" horiz-adv-x="620" 
d="M182 0q-50 0 -77 13t-38.5 33t-14 42t-2.5 40v192q0 15 2.5 36.5t14 42.5t39 35t76.5 14h215q66 0 103.5 -12.5t53 -40.5t15.5 -75v-148h-175q-90 0 -146.5 4t-75.5 5v-55q-1 -40 48 -40h51q54 0 105.5 1.5t94.5 4t69 4.5l40 -65q0 -31 -197 -31h-201zM172 258h275v64
q0 20 -4.5 28t-26.5 10t-75 2h-121q-48 0 -48 -40v-64zM470 -160q-46 0 -70.5 26t-24.5 60q0 30 13.5 50.5t31.5 33t31 16.5q26 8 47.5 7t21.5 -10q0 -7 -11 -13t-26 -14.5t-26 -21.5t-11 -33q0 -31 37 -31q33 0 50 9.5t32 9.5q13 0 11 -13.5t-13 -30.5t-33 -31t-60 -14z
" />
    <glyph glyph-name="Ecaron" unicode="&#x11a;" horiz-adv-x="766" 
d="M80 0v588h622v-96h-490v-138h374v-99h-374v-159h494l40 -85q0 -4 -27 -7.5t-93 -3.5h-546zM260 770q0 -9 15 -29t33.5 -40t28.5 -29q13 -12 24 -17t28 -5h30q18 0 30 7.5t20 15.5q11 11 28 31.5t30.5 39.5t13.5 26q0 11 -15.5 12t-34.5 -12l-87 -58l-94 58q-50 31 -50 0z
" />
    <glyph glyph-name="ecaron" unicode="&#x11b;" horiz-adv-x="620" 
d="M182 0q-50 0 -77 13t-38.5 33t-14 42t-2.5 40v192q0 15 2.5 36.5t14 42.5t39 35t76.5 14h215q66 0 103.5 -12.5t53 -40.5t15.5 -75v-148h-175q-90 0 -146.5 4t-75.5 5v-55q-1 -40 48 -40h51q54 0 105.5 1.5t94.5 4t69 4.5l40 -65q0 -31 -197 -31h-201zM172 258h275v64
q0 20 -4.5 28t-26.5 10t-75 2h-121q-48 0 -48 -40v-64zM172 630q0 -9 15 -29t33.5 -40t28.5 -29q13 -12 24 -17t28 -5h30q18 0 30 7.5t20 15.5q11 11 28 31.5t30.5 39.5t13.5 26q0 11 -15.5 12t-34.5 -12l-87 -58l-94 58q-50 31 -50 0z" />
    <glyph glyph-name="Gcircumflex" unicode="&#x11c;" horiz-adv-x="795" 
d="M253 0q-71 0 -111 20t-56 60t-16 99v223q0 96 43 141.5t140 45.5h301q69 0 105.5 -7.5t36.5 -15.5l-20 -83q-17 3 -100.5 6.5t-242.5 3.5h-51q-80 0 -80 -71v-255q0 -34 17.5 -52.5t62.5 -18.5h41q96 0 162 1.5t109 2.5v136l-60 -1l-131 -10v98h322v-281l10 -21
q0 -8 -42 -14.5t-142 -6.5h-298zM309 666q0 9 15 29t33.5 40t28.5 29q13 12 24 17t28 5h30q18 0 30 -7.5t20 -15.5q11 -11 28 -31.5t30.5 -39.5t13.5 -26q0 -11 -15.5 -12t-34.5 12l-87 58l-94 -58q-50 -31 -50 0z" />
    <glyph glyph-name="gcircumflex" unicode="&#x11d;" horiz-adv-x="651" 
d="M389 -176q-110 0 -179 2t-106 6t-50.5 10t-13.5 13l30 75q16 -5 56.5 -12.5t103.5 -7.5h171q37 0 52.5 11t15.5 39v60q-43 -8 -101.5 -14t-134.5 -6h-50q-50 0 -77 13t-38.5 33t-14 42t-2.5 40v192q0 15 2.5 36.5t14 42.5t39 35t76.5 14h51q105 0 163.5 -4t85.5 -9l26 13
h82v-496q0 -18 -5.5 -40t-21.5 -42t-46 -33t-79 -13h-50zM221 86h217q23 0 27 4t4 26v239q-34 2 -86 4.5t-111 2.5h-51q-48 0 -48 -40v-196q-1 -40 48 -40zM177 526q0 9 15 29t33.5 40t28.5 29q13 12 24 17t28 5h30q18 0 30 -7.5t20 -15.5q11 -11 28 -31.5t30.5 -39.5
t13.5 -26q0 -11 -15.5 -12t-34.5 12l-87 58l-94 -58q-50 -31 -50 0z" />
    <glyph glyph-name="Gbreve" unicode="&#x11e;" horiz-adv-x="795" 
d="M253 0q-71 0 -111 20t-56 60t-16 99v223q0 96 43 141.5t140 45.5h301q69 0 105.5 -7.5t36.5 -15.5l-20 -83q-17 3 -100.5 6.5t-242.5 3.5h-51q-80 0 -80 -71v-255q0 -34 17.5 -52.5t62.5 -18.5h41q96 0 162 1.5t109 2.5v136l-60 -1l-131 -10v98h322v-281l10 -21
q0 -8 -42 -14.5t-142 -6.5h-298zM453 660q-58 0 -90.5 14t-46 39t-13.5 57q0 25 14.5 25t23.5 -14q15 -25 37.5 -38t74.5 -13q53 0 73.5 13t36.5 38q11 16 25.5 15t14.5 -26q0 -54 -31.5 -82t-118.5 -28z" />
    <glyph glyph-name="gbreve" unicode="&#x11f;" horiz-adv-x="651" 
d="M389 -176q-110 0 -179 2t-106 6t-50.5 10t-13.5 13l30 75q16 -5 56.5 -12.5t103.5 -7.5h171q37 0 52.5 11t15.5 39v60q-43 -8 -101.5 -14t-134.5 -6h-50q-50 0 -77 13t-38.5 33t-14 42t-2.5 40v192q0 15 2.5 36.5t14 42.5t39 35t76.5 14h51q105 0 163.5 -4t85.5 -9l26 13
h82v-496q0 -18 -5.5 -40t-21.5 -42t-46 -33t-79 -13h-50zM221 86h217q23 0 27 4t4 26v239q-34 2 -86 4.5t-111 2.5h-51q-48 0 -48 -40v-196q-1 -40 48 -40zM321 520q-58 0 -90.5 14t-46 39t-13.5 57q0 25 14.5 25t23.5 -14q15 -25 37.5 -38t74.5 -13q53 0 73.5 13t36.5 38
q11 16 25.5 15t14.5 -26q0 -54 -31.5 -82t-118.5 -28z" />
    <glyph glyph-name="Gdotaccent" unicode="&#x120;" horiz-adv-x="795" 
d="M253 0q-71 0 -111 20t-56 60t-16 99v223q0 96 43 141.5t140 45.5h301q69 0 105.5 -7.5t36.5 -15.5l-20 -83q-17 3 -100.5 6.5t-242.5 3.5h-51q-80 0 -80 -71v-255q0 -34 17.5 -52.5t62.5 -18.5h41q96 0 162 1.5t109 2.5v136l-60 -1l-131 -10v98h322v-281l10 -21
q0 -8 -42 -14.5t-142 -6.5h-298zM452.798 651q-30.5791 0 -44.6299 12.3975q-14.0498 12.3965 -14.0498 41.3232q0 29.7539 13.6367 41.7373q13.6367 11.9844 45.043 11.9844t45.4561 -11.9844q14.0508 -11.9834 14.0508 -41.7373q0 -28.0996 -14.0508 -40.9102
q-14.0498 -12.8105 -45.4561 -12.8105z" />
    <glyph glyph-name="gdotaccent" unicode="&#x121;" horiz-adv-x="651" 
d="M389 -176q-110 0 -179 2t-106 6t-50.5 10t-13.5 13l30 75q16 -5 56.5 -12.5t103.5 -7.5h171q37 0 52.5 11t15.5 39v60q-43 -8 -101.5 -14t-134.5 -6h-50q-50 0 -77 13t-38.5 33t-14 42t-2.5 40v192q0 15 2.5 36.5t14 42.5t39 35t76.5 14h51q105 0 163.5 -4t85.5 -9l26 13
h82v-496q0 -18 -5.5 -40t-21.5 -42t-46 -33t-79 -13h-50zM221 86h217q23 0 27 4t4 26v239q-34 2 -86 4.5t-111 2.5h-51q-48 0 -48 -40v-196q-1 -40 48 -40zM320.798 511q-30.5791 0 -44.6299 12.3975q-14.0498 12.3965 -14.0498 41.3232q0 29.7539 13.6367 41.7373
q13.6367 11.9844 45.043 11.9844t45.4561 -11.9844q14.0508 -11.9834 14.0508 -41.7373q0 -28.0996 -14.0508 -40.9102q-14.0498 -12.8105 -45.4561 -12.8105z" />
    <glyph glyph-name="uni0122" unicode="&#x122;" horiz-adv-x="795" 
d="M253 0q-71 0 -111 20t-56 60t-16 99v223q0 96 43 141.5t140 45.5h301q69 0 105.5 -7.5t36.5 -15.5l-20 -83q-17 3 -100.5 6.5t-242.5 3.5h-51q-80 0 -80 -71v-255q0 -34 17.5 -52.5t62.5 -18.5h41q96 0 162 1.5t109 2.5v136l-60 -1l-131 -10v98h322v-281l10 -21
q0 -8 -42 -14.5t-142 -6.5h-298zM402.077 -274.054q-17.3564 -4.95898 -20.249 4.5459q-2.89258 9.50391 2.89258 19.4219q4.95898 6.61133 13.6367 21.4883q8.67871 14.877 16.9434 33.4727t10.7441 37.6045q-21.4883 3.30566 -31.4062 15.7031t-9.91797 38.0176
q0 28.9268 13.6367 40.9111q13.6377 11.9834 45.043 11.9834q33.8857 0 50.8291 -14.4629q16.9424 -14.4639 16.9424 -47.5225q0 -23.9678 -10.3311 -50.415t-26.8604 -50.002t-35.5381 -39.6709q-19.0098 -16.1162 -36.3652 -21.0752z" />
    <glyph glyph-name="uni0123" unicode="&#x123;" horiz-adv-x="651" 
d="M389 -176q-110 0 -179 2t-106 6t-50.5 10t-13.5 13l30 75q16 -5 56.5 -12.5t103.5 -7.5h171q37 0 52.5 11t15.5 39v60q-43 -8 -101.5 -14t-134.5 -6h-50q-50 0 -77 13t-38.5 33t-14 42t-2.5 40v192q0 15 2.5 36.5t14 42.5t39 35t76.5 14h51q105 0 163.5 -4t85.5 -9l26 13
h82v-496q0 -18 -5.5 -40t-21.5 -42t-46 -33t-79 -13h-50zM221 86h217q23 0 27 4t4 26v239q-34 2 -86 4.5t-111 2.5h-51q-48 0 -48 -40v-196q-1 -40 48 -40zM391 776q21 6 24.5 -5.5t-3.5 -23.5q-6 -8 -16.5 -26t-20.5 -40.5t-13 -45.5q26 -4 38 -19t12 -46
q0 -35 -16.5 -49.5t-54.5 -14.5q-41 0 -61.5 17.5t-20.5 57.5q0 29 12.5 61t32.5 60.5t43 48t44 25.5z" />
    <glyph glyph-name="Hcircumflex" unicode="&#x124;" horiz-adv-x="816" 
d="M80 0v588h132v-244h392v244h132v-588h-132v248h-392v-248h-132zM264 666q0 9 15 29t33.5 40t28.5 29q13 12 24 17t28 5h30q18 0 30 -7.5t20 -15.5q11 -11 28 -31.5t30.5 -39.5t13.5 -26q0 -11 -15.5 -12t-34.5 12l-87 58l-94 -58q-50 -31 -50 0z" />
    <glyph glyph-name="hcircumflex" unicode="&#x125;" horiz-adv-x="655" 
d="M60 0v648h122v-220q42 8 101 14t135 6h50q50 0 77 -14t38.5 -35t14 -42.5t2.5 -36.5v-320h-122v322q0 40 -48 40h-218q-19 0 -24.5 -3.5t-5.5 -18.5v-340h-122zM261 586q0 9 15 29t33.5 40t28.5 29q13 12 24 17t28 5h30q18 0 30 -7.5t20 -15.5q11 -11 28 -31.5
t30.5 -39.5t13.5 -26q0 -11 -15.5 -12t-34.5 12l-87 58l-94 -58q-50 -31 -50 0z" />
    <glyph glyph-name="Hbar" unicode="&#x126;" horiz-adv-x="816" 
d="M80 0v588h132v-244h392v244h132v-588h-132v248h-392v-248h-132zM158 416v76h501v-76h-501z" />
    <glyph glyph-name="hbar" unicode="&#x127;" horiz-adv-x="655" 
d="M60 0v648h122v-220q42 8 101 14t135 6h50q50 0 77 -14t38.5 -35t14 -42.5t2.5 -36.5v-320h-122v322q0 40 -48 40h-218q-19 0 -24.5 -3.5t-5.5 -18.5v-340h-122zM-5 508v75h412v-75h-412z" />
    <glyph glyph-name="Itilde" unicode="&#x128;" horiz-adv-x="292" 
d="M80 0v588h132v-588h-132zM216 640q-28 0 -48.5 10.5t-36.5 24.5t-31.5 24.5t-34.5 10.5q-25 0 -34.5 -17.5t-14.5 -32.5q-4 -12 -14 -16.5t-18.5 1.5t-8.5 24q0 44 25.5 77.5t74.5 33.5q28 0 47.5 -10.5t35 -24.5t32 -24.5t37.5 -10.5q23 0 34 17.5t15 32.5
q4 13 13.5 17.5t18.5 -1.5t9 -25q0 -27 -10.5 -52.5t-33 -42t-57.5 -16.5z" />
    <glyph glyph-name="itilde" unicode="&#x129;" horiz-adv-x="242" 
d="M60 0v448h122v-448h-122zM191 500q-28 0 -48.5 10.5t-36.5 24.5t-31.5 24.5t-34.5 10.5q-25 0 -34.5 -17.5t-14.5 -32.5q-4 -12 -14 -16.5t-18.5 1.5t-8.5 24q0 44 25.5 77.5t74.5 33.5q28 0 47.5 -10.5t35 -24.5t32 -24.5t37.5 -10.5q23 0 34 17.5t15 32.5
q4 13 13.5 17.5t18.5 -1.5t9 -25q0 -27 -10.5 -52.5t-33 -42t-57.5 -16.5z" />
    <glyph glyph-name="Imacron" unicode="&#x12a;" horiz-adv-x="292" 
d="M80 0v588h132v-588h-132zM50 660q-20 0 -30 6.5t-10 26.5v6q0 20 9 25.5t31 5.5h192q20 0 30 -5.5t10 -25.5v-6q0 -20 -11 -26.5t-29 -6.5h-192z" />
    <glyph glyph-name="imacron" unicode="&#x12b;" horiz-adv-x="242" 
d="M60 0v448h122v-448h-122zM25 520q-20 0 -30 6.5t-10 26.5v6q0 20 9 25.5t31 5.5h192q20 0 30 -5.5t10 -25.5v-6q0 -20 -11 -26.5t-29 -6.5h-192z" />
    <glyph glyph-name="Ibreve" unicode="&#x12c;" horiz-adv-x="292" 
d="M80 0v588h132v-588h-132zM146 660q-58 0 -90.5 14t-46 39t-13.5 57q0 25 14.5 25t23.5 -14q15 -25 37.5 -38t74.5 -13q53 0 73.5 13t36.5 38q11 16 25.5 15t14.5 -26q0 -54 -31.5 -82t-118.5 -28z" />
    <glyph glyph-name="ibreve" unicode="&#x12d;" horiz-adv-x="242" 
d="M60 0v448h122v-448h-122zM121 520q-58 0 -90.5 14t-46 39t-13.5 57q0 25 14.5 25t23.5 -14q15 -25 37.5 -38t74.5 -13q53 0 73.5 13t36.5 38q11 16 25.5 15t14.5 -26q0 -54 -31.5 -82t-118.5 -28z" />
    <glyph glyph-name="Iogonek" unicode="&#x12e;" horiz-adv-x="292" 
d="M80 0v588h132v-588h-132zM155 -169q-46 0 -70.5 26t-24.5 60q0 30 13.5 50.5t31.5 33t31 16.5q26 8 47.5 7t21.5 -10q0 -7 -11 -13t-26 -14.5t-26 -21.5t-11 -33q0 -31 37 -31q33 0 50 9.5t32 9.5q13 0 11 -13.5t-13 -30.5t-33 -31t-60 -14z" />
    <glyph glyph-name="iogonek" unicode="&#x12f;" horiz-adv-x="242" 
d="M60 0v448h122v-448h-122zM120.798 511q-30.5791 0 -44.6299 12.3975q-14.0498 12.3965 -14.0498 41.3232q0 29.7539 13.6367 41.7373q13.6367 11.9844 45.043 11.9844t45.4561 -11.9844q14.0508 -11.9834 14.0508 -41.7373q0 -28.0996 -14.0508 -40.9102
q-14.0498 -12.8105 -45.4561 -12.8105zM109 -168q-46 0 -70.5 26t-24.5 60q0 30 13.5 50.5t31.5 33t31 16.5q26 8 47.5 7t21.5 -10q0 -7 -11 -13t-26 -14.5t-26 -21.5t-11 -33q0 -31 37 -31q33 0 50 9.5t32 9.5q13 0 11 -13.5t-13 -30.5t-33 -31t-60 -14z" />
    <glyph glyph-name="Idotaccent" unicode="&#x130;" horiz-adv-x="292" 
d="M80 0v588h132v-588h-132zM145.798 651q-30.5791 0 -44.6299 12.3975q-14.0498 12.3965 -14.0498 41.3232q0 29.7539 13.6367 41.7373q13.6367 11.9844 45.043 11.9844t45.4561 -11.9844q14.0508 -11.9834 14.0508 -41.7373q0 -28.0996 -14.0508 -40.9102
q-14.0498 -12.8105 -45.4561 -12.8105z" />
    <glyph glyph-name="dotlessi" unicode="&#x131;" horiz-adv-x="242" 
d="M60 0v448h122v-448h-122z" />
    <glyph glyph-name="IJ" unicode="&#x132;" horiz-adv-x="954" 
d="M80 0v588h132v-588h-132zM564 0q-72 0 -131.5 3.5t-95 12.5t-35.5 25l50 77q29 -13 80.5 -17.5t136.5 -4.5h96q47 0 62 22.5t15 48.5v341l-8 80h140v-409q0 -50 -12.5 -91t-51 -64.5t-117.5 -23.5h-129z" />
    <glyph glyph-name="ij" unicode="&#x133;" horiz-adv-x="518" 
d="M131 511q-37 0 -54 15t-17 50q0 36 16.5 50.5t54.5 14.5t55 -14.5t17 -50.5q0 -34 -17 -49.5t-55 -15.5zM70 0v448h122v-448h-122zM386 511q-37 0 -54 15t-17 51q0 35 16.5 49.5t54.5 14.5t55 -14.5t17 -49.5t-17 -50.5t-55 -15.5zM282 -176q-29 0 -56.5 4.5t-45 11.5
t-17.5 14l20 60q12 -3 34.5 -6.5t47.5 -3.5q27 0 43.5 13t16.5 53v478h122v-478q0 -55 -20.5 -87t-54.5 -45.5t-77 -13.5h-13z" />
    <glyph glyph-name="Jcircumflex" unicode="&#x134;" horiz-adv-x="662" 
d="M272 0q-72 0 -131.5 3.5t-95 12.5t-35.5 25l50 77q29 -13 80.5 -17.5t136.5 -4.5h96q47 0 62 22.5t15 48.5v341l-8 80h140v-409q0 -50 -12.5 -91t-51 -64.5t-117.5 -23.5h-129zM362 666q0 9 15 29t33.5 40t28.5 29q13 12 24 17t28 5h30q18 0 30 -7.5t20 -15.5
q11 -11 28 -31.5t30.5 -39.5t13.5 -26q0 -11 -15.5 -12t-34.5 12l-87 58l-94 -58q-50 -31 -50 0z" />
    <glyph glyph-name="jcircumflex" unicode="&#x135;" horiz-adv-x="264" 
d="M39 -176q-29 0 -56.5 4.5t-45 11.5t-17.5 14l20 60q12 -3 34.5 -6.5t47.5 -3.5q27 0 43.5 13t16.5 53v478h122v-478q0 -55 -20.5 -87t-54.5 -45.5t-77 -13.5h-13zM-2 526q0 9 15 29t33.5 40t28.5 29q13 12 24 17t28 5h30q18 0 30 -7.5t20 -15.5q11 -11 28 -31.5
t30.5 -39.5t13.5 -26q0 -11 -15.5 -12t-34.5 12l-87 58l-94 -58q-50 -31 -50 0z" />
    <glyph glyph-name="uni0136" unicode="&#x136;" horiz-adv-x="798" 
d="M707 -10q-49 0 -85 20t-71 54q-38 40 -92 92q-25 26 -51 43t-58.5 26t-80.5 9h-47v-234h-132v508l-10 80h142v-256h56q20 0 33 5t24 16q28 28 64 70t70.5 86.5t59.5 78.5h162l-41 -60q-28 -29 -60 -63t-63 -66.5t-56 -57t-37 -35.5q27 -9 49.5 -23t55.5 -41
q25 -20 48.5 -41t54.5 -50q35 -32 66 -47t52.5 -19t27.5 -4l-20 -81q-3 -3 -18 -6.5t-43 -3.5zM332.077 -204.054q-17.3564 -4.95898 -20.249 4.5459q-2.89258 9.50391 2.89258 19.4219q4.95898 6.61133 13.6367 21.4883q8.67871 14.877 16.9434 33.4727t10.7441 37.6045
q-21.4883 3.30566 -31.4062 15.7031t-9.91797 38.0176q0 28.9268 13.6367 40.9111q13.6377 11.9834 45.043 11.9834q33.8857 0 50.8291 -14.4629q16.9424 -14.4639 16.9424 -47.5225q0 -23.9678 -10.3311 -50.415t-26.8604 -50.002t-35.5381 -39.6709
q-19.0098 -16.1162 -36.3652 -21.0752z" />
    <glyph glyph-name="uni0137" unicode="&#x137;" horiz-adv-x="618" 
d="M539 -10q-42 0 -71.5 10t-62.5 43l-16 16t-28.5 29t-28.5 29l-17 17q-25 25 -47.5 39t-55.5 14q-22 0 -26 -4t-4 -27v-156h-122v633h122v-360h32q18 0 32 14q9 9 34 36t56.5 61t57.5 63h147l-16 -31q-23 -24 -50 -50.5t-52.5 -51t-46.5 -43t-32 -24.5q30 -16 54 -36.5
t52 -46t67 -57.5q35 -28 65 -32.5t36 -4.5l-18 -70q-10 -3 -27 -6.5t-34 -3.5zM249.077 -264.054q-17.3564 -4.95898 -20.249 4.5459q-2.89258 9.50391 2.89258 19.4219q4.95898 6.61133 13.6367 21.4883q8.67871 14.877 16.9434 33.4727t10.7441 37.6045
q-21.4883 3.30566 -31.4062 15.7031t-9.91797 38.0176q0 28.9268 13.6367 40.9111q13.6377 11.9834 45.043 11.9834q33.8857 0 50.8291 -14.4629q16.9424 -14.4639 16.9424 -47.5225q0 -23.9678 -10.3311 -50.415t-26.8604 -50.002t-35.5381 -39.6709
q-19.0098 -16.1162 -36.3652 -21.0752z" />
    <glyph glyph-name="kgreenlandic" unicode="&#x138;" horiz-adv-x="618" 
d="M539 -10q-42 0 -71.5 10t-62.5 43l-16 16t-28.5 29t-28.5 29l-17 17q-25 25 -47.5 39t-55.5 14q-22 0 -26 -4t-4 -27v-156h-122v447h122v-174h32q18 0 32 14q9 9 34 36t56.5 61t57.5 63h147l-16 -31q-23 -24 -50 -50.5t-52.5 -51t-46.5 -43t-32 -24.5q30 -16 54 -36.5
t52 -46t67 -57.5q35 -28 65 -32.5t36 -4.5l-18 -70q-10 -3 -27 -6.5t-34 -3.5z" />
    <glyph glyph-name="Lacute" unicode="&#x139;" horiz-adv-x="686" 
d="M80 0l10 80v508h132v-492h414l40 -85q0 -4 -27 -7.5t-93 -3.5h-476zM338 658q0 13 9.5 36.5t21.5 47t19 35.5q9 14 22.5 21.5t37.5 7.5h11q39 0 39 -29q0 -15 -18.5 -38t-44 -44.5t-47.5 -35.5q-16 -10 -33 -15t-17 14z" />
    <glyph glyph-name="lacute" unicode="&#x13a;" horiz-adv-x="252" 
d="M70 0v554l-10 80h132v-634h-122zM96 698q0 13 9.5 36.5t21.5 47t19 35.5q9 14 22.5 21.5t37.5 7.5h11q39 0 39 -29q0 -15 -18.5 -38t-44 -44.5t-47.5 -35.5q-16 -10 -33 -15t-17 14z" />
    <glyph glyph-name="uni013B" unicode="&#x13b;" horiz-adv-x="686" 
d="M80 0l10 80v508h132v-492h414l40 -85q0 -4 -27 -7.5t-93 -3.5h-476zM352.077 -274.054q-17.3564 -4.95898 -20.249 4.5459q-2.89258 9.50391 2.89258 19.4219q4.95898 6.61133 13.6367 21.4883q8.67871 14.877 16.9434 33.4727t10.7441 37.6045
q-21.4883 3.30566 -31.4062 15.7031t-9.91797 38.0176q0 28.9268 13.6367 40.9111q13.6377 11.9834 45.043 11.9834q33.8857 0 50.8291 -14.4629q16.9424 -14.4639 16.9424 -47.5225q0 -23.9678 -10.3311 -50.415t-26.8604 -50.002t-35.5381 -39.6709
q-19.0098 -16.1162 -36.3652 -21.0752z" />
    <glyph glyph-name="uni013C" unicode="&#x13c;" horiz-adv-x="252" 
d="M70 0v554l-10 80h132v-634h-122zM80.0771 -274.054q-17.3564 -4.95898 -20.249 4.5459q-2.89258 9.50391 2.89258 19.4219q4.95898 6.61133 13.6367 21.4883q8.67871 14.877 16.9434 33.4727t10.7441 37.6045q-21.4883 3.30566 -31.4062 15.7031t-9.91797 38.0176
q0 28.9268 13.6367 40.9111q13.6377 11.9834 45.043 11.9834q33.8857 0 50.8291 -14.4629q16.9424 -14.4639 16.9424 -47.5225q0 -23.9678 -10.3311 -50.415t-26.8604 -50.002t-35.5381 -39.6709q-19.0098 -16.1162 -36.3652 -21.0752z" />
    <glyph glyph-name="Lcaron" unicode="&#x13d;" horiz-adv-x="686" 
d="M80 0l10 80v508h132v-492h414l40 -85q0 -4 -27 -7.5t-93 -3.5h-476zM493 397q-16 -16 -25 -9t-8 28q3 31 6 66t7 66.5t8 50.5q12 54 65 53q24 -1 34 -12t10 -32t-10.5 -51.5t-26 -62.5t-32 -58.5t-28.5 -38.5z" />
    <glyph glyph-name="lcaron" unicode="&#x13e;" horiz-adv-x="324" 
d="M70 0v554l-10 80h132v-634h-122zM282 397q-16 -16 -25 -9t-8 28q3 31 6 66t7 66.5t8 50.5q12 54 65 53q24 -1 34 -12t10 -32t-10.5 -51.5t-26 -62.5t-32 -58.5t-28.5 -38.5z" />
    <glyph glyph-name="Ldot" unicode="&#x13f;" horiz-adv-x="600" 
d="M80 0l10 80v508h132v-492h414l40 -85q0 -4 -27 -7.5t-93 -3.5h-476zM431 250q-37 0 -54 15t-17 50q0 36 16.5 50.5t54.5 14.5t55 -14.5t17 -50.5q0 -34 -17 -49.5t-55 -15.5z" />
    <glyph glyph-name="ldot" unicode="&#x140;" horiz-adv-x="433" 
d="M70 0v554l-10 80h132v-634h-122zM301 250q-37 0 -54 15t-17 50q0 36 16.5 50.5t54.5 14.5t55 -14.5t17 -50.5q0 -34 -17 -49.5t-55 -15.5z" />
    <glyph glyph-name="Lslash" unicode="&#x141;" horiz-adv-x="686" 
d="M80 0l10 80v508h132v-492h414l40 -85q0 -4 -27 -7.5t-93 -3.5h-476zM-13 192l1 83l347 157v-83z" />
    <glyph glyph-name="lslash" unicode="&#x142;" horiz-adv-x="252" 
d="M70 0v554l-10 80h132v-634h-122zM-43 192l1 83l347 157v-83z" />
    <glyph glyph-name="Nacute" unicode="&#x143;" horiz-adv-x="826" 
d="M90 0v508l-10 80h144l340 -356l39 -54h11v410h132v-588h-127l-348 362l-39 47h-10v-409h-132zM378 658q0 13 9.5 36.5t21.5 47t19 35.5q9 14 22.5 21.5t37.5 7.5h11q39 0 39 -29q0 -15 -18.5 -38t-44 -44.5t-47.5 -35.5q-16 -10 -33 -15t-17 14z" />
    <glyph glyph-name="nacute" unicode="&#x144;" horiz-adv-x="655" 
d="M60 0v448h82l40 -20q42 8 101 14t135 6h50q50 0 77 -14t38.5 -35t14 -42.5t2.5 -36.5v-320h-122v322q0 40 -48 40h-218q-19 0 -24.5 -3.5t-5.5 -18.5v-340h-122zM295 518q0 13 9.5 36.5t21.5 47t19 35.5q9 14 22.5 21.5t37.5 7.5h11q39 0 39 -29q0 -15 -18.5 -38
t-44 -44.5t-47.5 -35.5q-16 -10 -33 -15t-17 14z" />
    <glyph glyph-name="uni0145" unicode="&#x145;" horiz-adv-x="826" 
d="M90 0v508l-10 80h144l340 -356l39 -54h11v410h132v-588h-127l-348 362l-39 47h-10v-409h-132zM372.077 -274.054q-17.3564 -4.95898 -20.249 4.5459q-2.89258 9.50391 2.89258 19.4219q4.95898 6.61133 13.6367 21.4883q8.67871 14.877 16.9434 33.4727t10.7441 37.6045
q-21.4883 3.30566 -31.4062 15.7031t-9.91797 38.0176q0 28.9268 13.6367 40.9111q13.6377 11.9834 45.043 11.9834q33.8857 0 50.8291 -14.4629q16.9424 -14.4639 16.9424 -47.5225q0 -23.9678 -10.3311 -50.415t-26.8604 -50.002t-35.5381 -39.6709
q-19.0098 -16.1162 -36.3652 -21.0752z" />
    <glyph glyph-name="uni0146" unicode="&#x146;" horiz-adv-x="655" 
d="M60 0v448h82l40 -20q42 8 101 14t135 6h50q50 0 77 -14t38.5 -35t14 -42.5t2.5 -36.5v-320h-122v322q0 40 -48 40h-218q-19 0 -24.5 -3.5t-5.5 -18.5v-340h-122zM259.077 -274.054q-17.3564 -4.95898 -20.249 4.5459q-2.89258 9.50391 2.89258 19.4219
q4.95898 6.61133 13.6367 21.4883q8.67871 14.877 16.9434 33.4727t10.7441 37.6045q-21.4883 3.30566 -31.4062 15.7031t-9.91797 38.0176q0 28.9268 13.6367 40.9111q13.6377 11.9834 45.043 11.9834q33.8857 0 50.8291 -14.4629q16.9424 -14.4639 16.9424 -47.5225
q0 -23.9678 -10.3311 -50.415t-26.8604 -50.002t-35.5381 -39.6709q-19.0098 -16.1162 -36.3652 -21.0752z" />
    <glyph glyph-name="Ncaron" unicode="&#x147;" horiz-adv-x="826" 
d="M90 0v508l-10 80h144l340 -356l39 -54h11v410h132v-588h-127l-348 362l-39 47h-10v-409h-132zM270 770q0 -9 15 -29t33.5 -40t28.5 -29q13 -12 24 -17t28 -5h30q18 0 30 7.5t20 15.5q11 11 28 31.5t30.5 39.5t13.5 26q0 11 -15.5 12t-34.5 -12l-87 -58l-94 58
q-50 31 -50 0z" />
    <glyph glyph-name="ncaron" unicode="&#x148;" horiz-adv-x="655" 
d="M60 0v448h82l40 -20q42 8 101 14t135 6h50q50 0 77 -14t38.5 -35t14 -42.5t2.5 -36.5v-320h-122v322q0 40 -48 40h-218q-19 0 -24.5 -3.5t-5.5 -18.5v-340h-122zM187 630q0 -9 15 -29t33.5 -40t28.5 -29q13 -12 24 -17t28 -5h30q18 0 30 7.5t20 15.5q11 11 28 31.5
t30.5 39.5t13.5 26q0 11 -15.5 12t-34.5 -12l-87 -58l-94 58q-50 31 -50 0z" />
    <glyph glyph-name="Eng" unicode="&#x14a;" horiz-adv-x="826" 
d="M571 -176q-37 0 -69.5 8.5t-50.5 18.5l21 66q14 -4 37 -8.5t48 -4.5q27 0 43.5 14t16.5 44q0 25 -12.5 46t-32.5 41l-301 313l-39 47h-10v-409h-132v508l-10 80h144l340 -356l39 -54h11v410h132v-618q0 -55 -23 -87t-59.5 -45.5t-79.5 -13.5h-13z" />
    <glyph glyph-name="eng" unicode="&#x14b;" horiz-adv-x="655" 
d="M435 -176q-29 0 -56.5 4.5t-45 11.5t-17.5 14l20 60q12 -3 34.5 -6.5t47.5 -3.5q27 0 43.5 13t16.5 53v352q0 40 -48 40h-218q-19 0 -24.5 -4t-5.5 -18v-340h-122v448h82l40 -20q42 8 101 14t135 6h50q50 0 77 -14t38.5 -35t14 -42.5t2.5 -36.5v-350q0 -55 -20.5 -87
t-54.5 -45.5t-77 -13.5h-13z" />
    <glyph glyph-name="Omacron" unicode="&#x14c;" horiz-adv-x="797" 
d="M253 0q-70 0 -110 20t-56.5 60t-16.5 99v231q0 58 16 97.5t56 60t111 20.5h292q70 0 109.5 -20.5t56 -60t16.5 -97.5v-231q0 -88 -39 -133.5t-143 -45.5h-292zM282 96h235q37 0 57.5 19t20.5 52v255q0 29 -21 49.5t-57 20.5h-235q-36 0 -58 -19t-22 -51v-255
q0 -34 21.5 -52.5t58.5 -18.5zM303 660q-20 0 -30 6.5t-10 26.5v6q0 20 9 25.5t31 5.5h192q20 0 30 -5.5t10 -25.5v-6q0 -20 -11 -26.5t-29 -6.5h-192z" />
    <glyph glyph-name="omacron" unicode="&#x14d;" 
d="M182 0q-67 0 -99.5 27t-32.5 88v205q0 15 2.5 36.5t14 42.5t39 35t76.5 14h276q50 0 77 -14t38.5 -35t14 -42.5t2.5 -36.5v-192q0 -18 -2.5 -40t-14.5 -42t-39 -33t-76 -13h-276zM220 86h200q49 0 49 40v196q0 40 -49 40h-200q-48 0 -48 -40v-196q0 -40 48 -40zM224 520
q-20 0 -30 6.5t-10 26.5v6q0 20 9 25.5t31 5.5h192q20 0 30 -5.5t10 -25.5v-6q0 -20 -11 -26.5t-29 -6.5h-192z" />
    <glyph glyph-name="Obreve" unicode="&#x14e;" horiz-adv-x="797" 
d="M253 0q-70 0 -110 20t-56.5 60t-16.5 99v231q0 58 16 97.5t56 60t111 20.5h292q70 0 109.5 -20.5t56 -60t16.5 -97.5v-231q0 -88 -39 -133.5t-143 -45.5h-292zM282 96h235q37 0 57.5 19t20.5 52v255q0 29 -21 49.5t-57 20.5h-235q-36 0 -58 -19t-22 -51v-255
q0 -34 21.5 -52.5t58.5 -18.5zM399 660q-58 0 -90.5 14t-46 39t-13.5 57q0 25 14.5 25t23.5 -14q15 -25 37.5 -38t74.5 -13q53 0 73.5 13t36.5 38q11 16 25.5 15t14.5 -26q0 -54 -31.5 -82t-118.5 -28z" />
    <glyph glyph-name="obreve" unicode="&#x14f;" 
d="M182 0q-67 0 -99.5 27t-32.5 88v205q0 15 2.5 36.5t14 42.5t39 35t76.5 14h276q50 0 77 -14t38.5 -35t14 -42.5t2.5 -36.5v-192q0 -18 -2.5 -40t-14.5 -42t-39 -33t-76 -13h-276zM220 86h200q49 0 49 40v196q0 40 -49 40h-200q-48 0 -48 -40v-196q0 -40 48 -40zM320 520
q-58 0 -90.5 14t-46 39t-13.5 57q0 25 14.5 25t23.5 -14q15 -25 37.5 -38t74.5 -13q53 0 73.5 13t36.5 38q11 16 25.5 15t14.5 -26q0 -54 -31.5 -82t-118.5 -28z" />
    <glyph glyph-name="Ohungarumlaut" unicode="&#x150;" horiz-adv-x="797" 
d="M253 0q-70 0 -110 20t-56.5 60t-16.5 99v231q0 58 16 97.5t56 60t111 20.5h292q70 0 109.5 -20.5t56 -60t16.5 -97.5v-231q0 -88 -39 -133.5t-143 -45.5h-292zM282 96h235q37 0 57.5 19t20.5 52v255q0 29 -21 49.5t-57 20.5h-235q-36 0 -58 -19t-22 -51v-255
q0 -34 21.5 -52.5t58.5 -18.5zM444 648q0 13 9.5 36.5t21.5 47t19 35.5q9 14 22.5 21.5t37.5 7.5h11q39 0 39 -29q0 -15 -18.5 -38t-44 -44.5t-47.5 -35.5q-16 -10 -33 -15t-17 14zM284 646q0 13 9.5 36.5t21.5 47t19 35.5q9 14 22.5 21.5t37.5 7.5h11q39 0 39 -29
q0 -15 -18.5 -38t-44 -44.5t-47.5 -35.5q-16 -10 -33 -15t-17 14z" />
    <glyph glyph-name="ohungarumlaut" unicode="&#x151;" 
d="M182 0q-67 0 -99.5 27t-32.5 88v205q0 15 2.5 36.5t14 42.5t39 35t76.5 14h276q50 0 77 -14t38.5 -35t14 -42.5t2.5 -36.5v-192q0 -18 -2.5 -40t-14.5 -42t-39 -33t-76 -13h-276zM220 86h200q49 0 49 40v196q0 40 -49 40h-200q-48 0 -48 -40v-196q0 -40 48 -40zM365 508
q0 13 9.5 36.5t21.5 47t19 35.5q9 14 22.5 21.5t37.5 7.5h11q39 0 39 -29q0 -15 -18.5 -38t-44 -44.5t-47.5 -35.5q-16 -10 -33 -15t-17 14zM205 506q0 13 9.5 36.5t21.5 47t19 35.5q9 14 22.5 21.5t37.5 7.5h11q39 0 39 -29q0 -15 -18.5 -38t-44 -44.5t-47.5 -35.5
q-16 -10 -33 -15t-17 14z" />
    <glyph glyph-name="OE" unicode="&#x152;" horiz-adv-x="1281" 
d="M253 0q-70 0 -110 20t-56.5 60t-16.5 99v231q0 58 16 97.5t56 60t111 20.5h212q79 0 130 -36v36h622v-96h-490v-138h374v-99h-374v-159h494l40 -85q0 -4 -27 -7.5t-93 -3.5h-546v37q-52 -37 -130 -37h-212zM282 96h175q51 0 81.5 10t43.5 36.5t13 74.5v155q0 68 -30.5 94
t-107.5 26h-175q-36 0 -58 -19t-22 -51v-255q0 -34 21.5 -52.5t58.5 -18.5z" />
    <glyph glyph-name="oe" unicode="&#x153;" horiz-adv-x="1036" 
d="M183 0q-50 0 -77.5 13t-39 33t-14 42t-2.5 40v192q0 15 2.5 36.5t14 42.5t39 35t77.5 14h192q41 0 72 -7.5t54 -19.5q15 12 38.5 19.5t58.5 7.5h215q66 0 103.5 -12.5t53 -40.5t15.5 -75v-148h-175q-90 0 -146.5 4t-75.5 5v-55q-1 -40 48 -40h51q54 0 105.5 1.5t94.5 4
t69 4.5l40 -65q0 -31 -197 -31h-201q-34 0 -57 6.5t-38 17.5q-23 -12 -55 -18t-73 -6h-192zM220 86h178q34 0 49 10t19 33v187q-4 23 -18 34.5t-50 11.5h-177q-26 0 -37 -10t-11 -30v-196q-1 -40 47 -40zM588 258h275v64q0 20 -4.5 28t-26.5 10t-75 2h-121q-48 0 -48 -40
v-64z" />
    <glyph glyph-name="Racute" unicode="&#x154;" horiz-adv-x="828" 
d="M719 -10q-40 0 -78.5 12.5t-87.5 61.5l-72 72q-44 45 -96.5 66t-131.5 21h-31v-223h-132v508l-10 81h443q64 0 100.5 -17t54 -44.5t22.5 -58.5t5 -59v-19q0 -22 -6 -49t-23 -53t-48.5 -44t-82.5 -21q13 -7 33 -21.5t41.5 -31.5t39.5 -31t28 -20q36 -21 64 -29t46 -9
t21 -1l-20 -81q-9 -3 -30 -6.5t-49 -3.5zM372 314q38 0 68 1.5t54 3.5q44 5 61.5 24.5t17.5 50.5v23q0 32 -17 54t-61 22h-273v-174q44 -3 81 -4t69 -1zM349 658q0 13 9.5 36.5t21.5 47t19 35.5q9 14 22.5 21.5t37.5 7.5h11q39 0 39 -29q0 -15 -18.5 -38t-44 -44.5
t-47.5 -35.5q-16 -10 -33 -15t-17 14z" />
    <glyph glyph-name="racute" unicode="&#x155;" horiz-adv-x="501" 
d="M60 0v448h82l38 -20q26 14 56 22t76 8q73 0 118.5 -16t60.5 -24l-35 -87q-12 6 -39.5 15.5t-64.5 17.5t-81 8h-11q-48 0 -62.5 -19t-15.5 -63v-290h-122zM251 528q0 13 9.5 36.5t21.5 47t19 35.5q9 14 22.5 21.5t37.5 7.5h11q39 0 39 -29q0 -15 -18.5 -38t-44 -44.5
t-47.5 -35.5q-16 -10 -33 -15t-17 14z" />
    <glyph glyph-name="uni0156" unicode="&#x156;" horiz-adv-x="828" 
d="M719 -10q-40 0 -78.5 12.5t-87.5 61.5l-72 72q-44 45 -96.5 66t-131.5 21h-31v-223h-132v508l-10 81h443q64 0 100.5 -17t54 -44.5t22.5 -58.5t5 -59v-19q0 -22 -6 -49t-23 -53t-48.5 -44t-82.5 -21q13 -7 33 -21.5t41.5 -31.5t39.5 -31t28 -20q36 -21 64 -29t46 -9
t21 -1l-20 -81q-9 -3 -30 -6.5t-49 -3.5zM372 314q38 0 68 1.5t54 3.5q44 5 61.5 24.5t17.5 50.5v23q0 32 -17 54t-61 22h-273v-174q44 -3 81 -4t69 -1zM373.077 -274.054q-17.3564 -4.95898 -20.249 4.5459q-2.89258 9.50391 2.89258 19.4219
q4.95898 6.61133 13.6367 21.4883q8.67871 14.877 16.9434 33.4727t10.7441 37.6045q-21.4883 3.30566 -31.4062 15.7031t-9.91797 38.0176q0 28.9268 13.6367 40.9111q13.6377 11.9834 45.043 11.9834q33.8857 0 50.8291 -14.4629q16.9424 -14.4639 16.9424 -47.5225
q0 -23.9678 -10.3311 -50.415t-26.8604 -50.002t-35.5381 -39.6709q-19.0098 -16.1162 -36.3652 -21.0752z" />
    <glyph glyph-name="uni0157" unicode="&#x157;" horiz-adv-x="501" 
d="M60 0v448h82l38 -20q26 14 56 22t76 8q73 0 118.5 -16t60.5 -24l-35 -87q-12 6 -39.5 15.5t-64.5 17.5t-81 8h-11q-48 0 -62.5 -19t-15.5 -63v-290h-122zM205.077 -274.054q-17.3564 -4.95898 -20.249 4.5459q-2.89258 9.50391 2.89258 19.4219
q4.95898 6.61133 13.6367 21.4883q8.67871 14.877 16.9434 33.4727t10.7441 37.6045q-21.4883 3.30566 -31.4062 15.7031t-9.91797 38.0176q0 28.9268 13.6367 40.9111q13.6377 11.9834 45.043 11.9834q33.8857 0 50.8291 -14.4629q16.9424 -14.4639 16.9424 -47.5225
q0 -23.9678 -10.3311 -50.415t-26.8604 -50.002t-35.5381 -39.6709q-19.0098 -16.1162 -36.3652 -21.0752z" />
    <glyph glyph-name="Rcaron" unicode="&#x158;" horiz-adv-x="828" 
d="M719 -10q-40 0 -78.5 12.5t-87.5 61.5l-72 72q-44 45 -96.5 66t-131.5 21h-31v-223h-132v508l-10 81h443q64 0 100.5 -17t54 -44.5t22.5 -58.5t5 -59v-19q0 -22 -6 -49t-23 -53t-48.5 -44t-82.5 -21q13 -7 33 -21.5t41.5 -31.5t39.5 -31t28 -20q36 -21 64 -29t46 -9
t21 -1l-20 -81q-9 -3 -30 -6.5t-49 -3.5zM372 314q38 0 68 1.5t54 3.5q44 5 61.5 24.5t17.5 50.5v23q0 32 -17 54t-61 22h-273v-174q44 -3 81 -4t69 -1zM241 770q0 -9 15 -29t33.5 -40t28.5 -29q13 -12 24 -17t28 -5h30q18 0 30 7.5t20 15.5q11 11 28 31.5t30.5 39.5
t13.5 26q0 11 -15.5 12t-34.5 -12l-87 -58l-94 58q-50 31 -50 0z" />
    <glyph glyph-name="rcaron" unicode="&#x159;" horiz-adv-x="501" 
d="M60 0v448h82l38 -20q26 14 56 22t76 8q73 0 118.5 -16t60.5 -24l-35 -87q-12 6 -39.5 15.5t-64.5 17.5t-81 8h-11q-48 0 -62.5 -19t-15.5 -63v-290h-122zM143 640q0 -9 15 -29t33.5 -40t28.5 -29q13 -12 24 -17t28 -5h30q18 0 30 7.5t20 15.5q11 11 28 31.5t30.5 39.5
t13.5 26q0 11 -15.5 12t-34.5 -12l-87 -58l-94 58q-50 31 -50 0z" />
    <glyph glyph-name="Sacute" unicode="&#x15a;" horiz-adv-x="756" 
d="M192 0q-68 0 -100 6t-32 14l40 87q23 -4 114.5 -7.5t251.5 -3.5h19q43 0 61 15.5t18 52.5v20q0 35 -14.5 50t-64.5 15h-232q-101 0 -147 37.5t-46 122.5v16q0 44 16.5 81t56.5 59.5t110 22.5h272q68 0 110 -7t42 -15l-20 -84q-26 3 -118 6.5t-247 3.5l-11 1
q-46 0 -62 -18.5t-17 -46.5v-17q0 -33 18.5 -49.5t61.5 -16.5h222q64 0 109 -13t69 -47.5t24 -101.5v-16q0 -75 -38.5 -121t-133.5 -46h-332zM353 658q0 13 9.5 36.5t21.5 47t19 35.5q9 14 22.5 21.5t37.5 7.5h11q39 0 39 -29q0 -15 -18.5 -38t-44 -44.5t-47.5 -35.5
q-16 -10 -33 -15t-17 14z" />
    <glyph glyph-name="sacute" unicode="&#x15b;" horiz-adv-x="638" 
d="M173 0q-67 0 -95 7t-28 14l30 75q29 -3 106.5 -6.5t191.5 -3.5h50q25 0 31.5 13.5t6.5 36.5t-7.5 37t-30.5 14h-246q-70 0 -101 26.5t-31 79.5v40q0 14 3 33t15 38t39 31.5t75 12.5h276q60 0 85 -7t25 -14l-10 -75q-29 3 -107 6.5t-191 3.5h-50q-25 0 -31.5 -13.5
t-6.5 -31.5q0 -19 6.5 -31.5t31.5 -12.5h246q68 0 100 -28t32 -71v-59q0 -18 -2.5 -38t-14.5 -37.5t-39 -28.5t-76 -11h-283zM304 518q0 13 9.5 36.5t21.5 47t19 35.5q9 14 22.5 21.5t37.5 7.5h11q39 0 39 -29q0 -15 -18.5 -38t-44 -44.5t-47.5 -35.5q-16 -10 -33 -15
t-17 14z" />
    <glyph glyph-name="Scircumflex" unicode="&#x15c;" horiz-adv-x="756" 
d="M192 0q-68 0 -100 6t-32 14l40 87q23 -4 114.5 -7.5t251.5 -3.5h19q43 0 61 15.5t18 52.5v20q0 35 -14.5 50t-64.5 15h-232q-101 0 -147 37.5t-46 122.5v16q0 44 16.5 81t56.5 59.5t110 22.5h272q68 0 110 -7t42 -15l-20 -84q-26 3 -118 6.5t-247 3.5l-11 1
q-46 0 -62 -18.5t-17 -46.5v-17q0 -33 18.5 -49.5t61.5 -16.5h222q64 0 109 -13t69 -47.5t24 -101.5v-16q0 -75 -38.5 -121t-133.5 -46h-332zM244 666q0 9 15 29t33.5 40t28.5 29q13 12 24 17t28 5h30q18 0 30 -7.5t20 -15.5q11 -11 28 -31.5t30.5 -39.5t13.5 -26
q0 -11 -15.5 -12t-34.5 12l-87 58l-94 -58q-50 -31 -50 0z" />
    <glyph glyph-name="scircumflex" unicode="&#x15d;" horiz-adv-x="638" 
d="M173 0q-67 0 -95 7t-28 14l30 75q29 -3 106.5 -6.5t191.5 -3.5h50q25 0 31.5 13.5t6.5 36.5t-7.5 37t-30.5 14h-246q-70 0 -101 26.5t-31 79.5v40q0 14 3 33t15 38t39 31.5t75 12.5h276q60 0 85 -7t25 -14l-10 -75q-29 3 -107 6.5t-191 3.5h-50q-25 0 -31.5 -13.5
t-6.5 -31.5q0 -19 6.5 -31.5t31.5 -12.5h246q68 0 100 -28t32 -71v-59q0 -18 -2.5 -38t-14.5 -37.5t-39 -28.5t-76 -11h-283zM195 526q0 9 15 29t33.5 40t28.5 29q13 12 24 17t28 5h30q18 0 30 -7.5t20 -15.5q11 -11 28 -31.5t30.5 -39.5t13.5 -26q0 -11 -15.5 -12t-34.5 12
l-87 58l-94 -58q-50 -31 -50 0z" />
    <glyph glyph-name="Scedilla" unicode="&#x15e;" horiz-adv-x="756" 
d="M192 0q-68 0 -100 6t-32 14l40 87q23 -4 114.5 -7.5t251.5 -3.5h19q43 0 61 15.5t18 52.5v20q0 35 -14.5 50t-64.5 15h-232q-101 0 -147 37.5t-46 122.5v16q0 44 16.5 81t56.5 59.5t110 22.5h272q68 0 110 -7t42 -15l-20 -84q-26 3 -118 6.5t-247 3.5l-11 1
q-46 0 -62 -18.5t-17 -46.5v-17q0 -33 18.5 -49.5t61.5 -16.5h222q64 0 109 -13t69 -47.5t24 -101.5v-16q0 -75 -38.5 -121t-133.5 -46h-332zM383 -220q-43 0 -71 17t-40 36q-5 8 -5 17q0 8 6 13t16 2q19 -5 39.5 -10t46.5 -5q49 0 49 31q0 22 -29.5 28.5t-67.5 5.5
q6 18 18 42.5t24 42.5t27 18t12 -18q-3 -15 -5.5 -27t-4.5 -23q44 -4 67.5 -25.5t23.5 -59.5q0 -36 -28 -60.5t-78 -24.5z" />
    <glyph glyph-name="scedilla" unicode="&#x15f;" horiz-adv-x="638" 
d="M173 0q-67 0 -95 7t-28 14l30 75q29 -3 106.5 -6.5t191.5 -3.5h50q25 0 31.5 13.5t6.5 36.5t-7.5 37t-30.5 14h-246q-70 0 -101 26.5t-31 79.5v40q0 14 3 33t15 38t39 31.5t75 12.5h276q60 0 85 -7t25 -14l-10 -75q-29 3 -107 6.5t-191 3.5h-50q-25 0 -31.5 -13.5
t-6.5 -31.5q0 -19 6.5 -31.5t31.5 -12.5h246q68 0 100 -28t32 -71v-59q0 -18 -2.5 -38t-14.5 -37.5t-39 -28.5t-76 -11h-283zM314 -220q-43 0 -71 17t-40 36q-5 8 -5 17q0 8 6 13t16 2q19 -5 39.5 -10t46.5 -5q49 0 49 31q0 22 -29.5 28.5t-67.5 5.5q6 18 18 42.5t24 42.5
t27 18t12 -18q-3 -15 -5.5 -27t-4.5 -23q44 -4 67.5 -25.5t23.5 -59.5q0 -36 -28 -60.5t-78 -24.5z" />
    <glyph glyph-name="Scaron" unicode="&#x160;" horiz-adv-x="756" 
d="M192 0q-68 0 -100 6t-32 14l40 87q23 -4 114.5 -7.5t251.5 -3.5h19q43 0 61 15.5t18 52.5v20q0 35 -14.5 50t-64.5 15h-232q-101 0 -147 37.5t-46 122.5v16q0 44 16.5 81t56.5 59.5t110 22.5h272q68 0 110 -7t42 -15l-20 -84q-26 3 -118 6.5t-247 3.5l-11 1
q-46 0 -62 -18.5t-17 -46.5v-17q0 -33 18.5 -49.5t61.5 -16.5h222q64 0 109 -13t69 -47.5t24 -101.5v-16q0 -75 -38.5 -121t-133.5 -46h-332zM245 770q0 -9 15 -29t33.5 -40t28.5 -29q13 -12 24 -17t28 -5h30q18 0 30 7.5t20 15.5q11 11 28 31.5t30.5 39.5t13.5 26
q0 11 -15.5 12t-34.5 -12l-87 -58l-94 58q-50 31 -50 0z" />
    <glyph glyph-name="scaron" unicode="&#x161;" horiz-adv-x="638" 
d="M173 0q-67 0 -95 7t-28 14l30 75q29 -3 106.5 -6.5t191.5 -3.5h50q25 0 31.5 13.5t6.5 36.5t-7.5 37t-30.5 14h-246q-70 0 -101 26.5t-31 79.5v40q0 14 3 33t15 38t39 31.5t75 12.5h276q60 0 85 -7t25 -14l-10 -75q-29 3 -107 6.5t-191 3.5h-50q-25 0 -31.5 -13.5
t-6.5 -31.5q0 -19 6.5 -31.5t31.5 -12.5h246q68 0 100 -28t32 -71v-59q0 -18 -2.5 -38t-14.5 -37.5t-39 -28.5t-76 -11h-283zM196 630q0 -9 15 -29t33.5 -40t28.5 -29q13 -12 24 -17t28 -5h30q18 0 30 7.5t20 15.5q11 11 28 31.5t30.5 39.5t13.5 26q0 11 -15.5 12t-34.5 -12
l-87 -58l-94 58q-50 31 -50 0z" />
    <glyph glyph-name="uni0162" unicode="&#x162;" horiz-adv-x="694" 
d="M281 0l-1 493h-260v96h654v-96h-261v-493h-132zM343 -220q-43 0 -71 17t-40 36q-5 8 -5 17q0 8 6 13t16 2q19 -5 39.5 -10t46.5 -5q49 0 49 31q0 22 -29.5 28.5t-67.5 5.5q6 18 18 42.5t24 42.5t27 18t12 -18q-3 -15 -5.5 -27t-4.5 -23q44 -4 67.5 -25.5t23.5 -59.5
q0 -36 -28 -60.5t-78 -24.5z" />
    <glyph glyph-name="uni0163" unicode="&#x163;" horiz-adv-x="452" 
d="M234 0q-76 0 -104 32t-28 96v234h-82v86h42q19 0 27.5 6t12.5 24l20 107h102v-137h208v-86h-208v-235q0 -25 12 -33t36 -8h141l10 -76q-21 -3 -64 -6.5t-94 -3.5h-31zM212 -220q-43 0 -71 17t-40 36q-5 8 -5 17q0 8 6 13t16 2q19 -5 39.5 -10t46.5 -5q49 0 49 31
q0 22 -29.5 28.5t-67.5 5.5q6 18 18 42.5t24 42.5t27 18t12 -18q-3 -15 -5.5 -27t-4.5 -23q44 -4 67.5 -25.5t23.5 -59.5q0 -36 -28 -60.5t-78 -24.5z" />
    <glyph glyph-name="Tcaron" unicode="&#x164;" horiz-adv-x="694" 
d="M281 0l-1 493h-260v96h654v-96h-261v-493h-132zM204 770q0 -9 15 -29t33.5 -40t28.5 -29q13 -12 24 -17t28 -5h30q18 0 30 7.5t20 15.5q11 11 28 31.5t30.5 39.5t13.5 26q0 11 -15.5 12t-34.5 -12l-87 -58l-94 58q-50 31 -50 0z" />
    <glyph glyph-name="tcaron" unicode="&#x165;" horiz-adv-x="452" 
d="M234 0q-76 0 -104 32t-28 96v234h-82v86h42q19 0 27.5 6t12.5 24l20 107h102v-137h208v-86h-208v-235q0 -25 12 -33t36 -8h141l10 -76q-21 -3 -64 -6.5t-94 -3.5h-31zM325 519q-16 -16 -25 -9t-8 28q3 31 6 66t7 66.5t8 50.5q12 54 65 53q24 -1 34 -12t10 -32
t-10.5 -51.5t-26 -62.5t-32 -58.5t-28.5 -38.5z" />
    <glyph glyph-name="Tbar" unicode="&#x166;" horiz-adv-x="694" 
d="M281 0l-1 493h-260v96h654v-96h-261v-493h-132zM137 256v75h412v-75h-412z" />
    <glyph glyph-name="tbar" unicode="&#x167;" horiz-adv-x="452" 
d="M234 0q-76 0 -104 32t-28 96v234h-82v86h42q19 0 27.5 6t12.5 24l20 107h102v-137h208v-86h-208v-235q0 -25 12 -33t36 -8h141l10 -76q-21 -3 -64 -6.5t-94 -3.5h-31zM21 226v75h412v-75h-412z" />
    <glyph glyph-name="Utilde" unicode="&#x168;" horiz-adv-x="766" 
d="M228 -10q-91 0 -127 49t-36 130v419h132v-423q0 -47 23 -63t57 -16h212q32 0 56 16.5t24 62.5v423h132v-419q0 -54 -15 -94t-50 -62.5t-97 -22.5h-311zM455 630q-28 0 -48.5 10.5t-36.5 24.5t-31.5 24.5t-34.5 10.5q-25 0 -34.5 -17.5t-14.5 -32.5q-4 -12 -14 -16.5
t-18.5 1.5t-8.5 24q0 44 25.5 77.5t74.5 33.5q28 0 47.5 -10.5t35 -24.5t32 -24.5t37.5 -10.5q23 0 34 17.5t15 32.5q4 13 13.5 17.5t18.5 -1.5t9 -25q0 -27 -10.5 -52.5t-33 -42t-57.5 -16.5z" />
    <glyph glyph-name="utilde" unicode="&#x169;" 
d="M192 0q-49 0 -76.5 13t-39 33t-14 42t-2.5 40v320h122v-322q-1 -22 14.5 -31t33.5 -9h198q22 0 26 4t4 26v332h122v-448h-82l-38 20q-40 -8 -94.5 -14t-122.5 -6h-51zM390 500q-28 0 -48.5 10.5t-36.5 24.5t-31.5 24.5t-34.5 10.5q-25 0 -34.5 -17.5t-14.5 -32.5
q-4 -12 -14 -16.5t-18.5 1.5t-8.5 24q0 44 25.5 77.5t74.5 33.5q28 0 47.5 -10.5t35 -24.5t32 -24.5t37.5 -10.5q23 0 34 17.5t15 32.5q4 13 13.5 17.5t18.5 -1.5t9 -25q0 -27 -10.5 -52.5t-33 -42t-57.5 -16.5z" />
    <glyph glyph-name="Umacron" unicode="&#x16a;" horiz-adv-x="766" 
d="M228 -10q-91 0 -127 49t-36 130v419h132v-423q0 -47 23 -63t57 -16h212q32 0 56 16.5t24 62.5v423h132v-419q0 -54 -15 -94t-50 -62.5t-97 -22.5h-311zM289 650q-20 0 -30 6.5t-10 26.5v6q0 20 9 25.5t31 5.5h192q20 0 30 -5.5t10 -25.5v-6q0 -20 -11 -26.5t-29 -6.5
h-192z" />
    <glyph glyph-name="umacron" unicode="&#x16b;" 
d="M192 0q-49 0 -76.5 13t-39 33t-14 42t-2.5 40v320h122v-322q-1 -22 14.5 -31t33.5 -9h198q22 0 26 4t4 26v332h122v-448h-82l-38 20q-40 -8 -94.5 -14t-122.5 -6h-51zM224 520q-20 0 -30 6.5t-10 26.5v6q0 20 9 25.5t31 5.5h192q20 0 30 -5.5t10 -25.5v-6
q0 -20 -11 -26.5t-29 -6.5h-192z" />
    <glyph glyph-name="Ubreve" unicode="&#x16c;" horiz-adv-x="766" 
d="M228 -10q-91 0 -127 49t-36 130v419h132v-423q0 -47 23 -63t57 -16h212q32 0 56 16.5t24 62.5v423h132v-419q0 -54 -15 -94t-50 -62.5t-97 -22.5h-311zM385 650q-58 0 -90.5 14t-46 39t-13.5 57q0 25 14.5 25t23.5 -14q15 -25 37.5 -38t74.5 -13q53 0 73.5 13t36.5 38
q11 16 25.5 15t14.5 -26q0 -54 -31.5 -82t-118.5 -28z" />
    <glyph glyph-name="ubreve" unicode="&#x16d;" 
d="M192 0q-49 0 -76.5 13t-39 33t-14 42t-2.5 40v320h122v-322q-1 -22 14.5 -31t33.5 -9h198q22 0 26 4t4 26v332h122v-448h-82l-38 20q-40 -8 -94.5 -14t-122.5 -6h-51zM320 520q-58 0 -90.5 14t-46 39t-13.5 57q0 25 14.5 25t23.5 -14q15 -25 37.5 -38t74.5 -13
q53 0 73.5 13t36.5 38q11 16 25.5 15t14.5 -26q0 -54 -31.5 -82t-118.5 -28z" />
    <glyph glyph-name="Uring" unicode="&#x16e;" horiz-adv-x="766" 
d="M228 -10q-91 0 -127 49t-36 130v419h132v-423q0 -47 23 -63t57 -16h212q32 0 56 16.5t24 62.5v423h132v-419q0 -54 -15 -94t-50 -62.5t-97 -22.5h-311zM361 640q-44 0 -66 12t-29 32t-7 44v11q0 20 6.5 40.5t28 34t67.5 13.5h47q44 0 66 -13.5t29 -34t7 -40.5v-11
q0 -24 -7 -44t-29 -32t-66 -12h-47zM360 706h48q11 0 15.5 6.5t4.5 13.5v14q0 7 -4.5 13.5t-15.5 6.5h-48q-12 0 -16.5 -6.5t-3.5 -13.5v-14q-1 -7 3.5 -13.5t16.5 -6.5z" />
    <glyph glyph-name="uring" unicode="&#x16f;" 
d="M192 0q-49 0 -76.5 13t-39 33t-14 42t-2.5 40v320h122v-322q-1 -22 14.5 -31t33.5 -9h198q22 0 26 4t4 26v332h122v-448h-82l-38 20q-40 -8 -94.5 -14t-122.5 -6h-51zM296 510q-44 0 -66 12t-29 32t-7 44v11q0 20 6.5 40.5t28 34t67.5 13.5h47q44 0 66 -13.5t29 -34
t7 -40.5v-11q0 -24 -7 -44t-29 -32t-66 -12h-47zM295 576h48q11 0 15.5 6.5t4.5 13.5v14q0 7 -4.5 13.5t-15.5 6.5h-48q-12 0 -16.5 -6.5t-3.5 -13.5v-14q-1 -7 3.5 -13.5t16.5 -6.5z" />
    <glyph glyph-name="Uhungarumlaut" unicode="&#x170;" horiz-adv-x="766" 
d="M228 -10q-91 0 -127 49t-36 130v419h132v-423q0 -47 23 -63t57 -16h212q32 0 56 16.5t24 62.5v423h132v-419q0 -54 -15 -94t-50 -62.5t-97 -22.5h-311zM430 638q0 13 9.5 36.5t21.5 47t19 35.5q9 14 22.5 21.5t37.5 7.5h11q39 0 39 -29q0 -15 -18.5 -38t-44 -44.5
t-47.5 -35.5q-16 -10 -33 -15t-17 14zM270 636q0 13 9.5 36.5t21.5 47t19 35.5q9 14 22.5 21.5t37.5 7.5h11q39 0 39 -29q0 -15 -18.5 -38t-44 -44.5t-47.5 -35.5q-16 -10 -33 -15t-17 14z" />
    <glyph glyph-name="uhungarumlaut" unicode="&#x171;" 
d="M192 0q-49 0 -76.5 13t-39 33t-14 42t-2.5 40v320h122v-322q-1 -22 14.5 -31t33.5 -9h198q22 0 26 4t4 26v332h122v-448h-82l-38 20q-40 -8 -94.5 -14t-122.5 -6h-51zM365 508q0 13 9.5 36.5t21.5 47t19 35.5q9 14 22.5 21.5t37.5 7.5h11q39 0 39 -29q0 -15 -18.5 -38
t-44 -44.5t-47.5 -35.5q-16 -10 -33 -15t-17 14zM205 506q0 13 9.5 36.5t21.5 47t19 35.5q9 14 22.5 21.5t37.5 7.5h11q39 0 39 -29q0 -15 -18.5 -38t-44 -44.5t-47.5 -35.5q-16 -10 -33 -15t-17 14z" />
    <glyph glyph-name="Uogonek" unicode="&#x172;" horiz-adv-x="766" 
d="M228 -10q-91 0 -127 49t-36 130v419h132v-423q0 -47 23 -63t57 -16h212q32 0 56 16.5t24 62.5v423h132v-419q0 -54 -15 -94t-50 -62.5t-97 -22.5h-311zM396 -175q-46 0 -70.5 26t-24.5 60q0 30 13.5 50.5t31.5 33t31 16.5q26 8 47.5 7t21.5 -10q0 -7 -11 -13t-26 -14.5
t-26 -21.5t-11 -33q0 -31 37 -31q33 0 50 9.5t32 9.5q13 0 11 -13.5t-13 -30.5t-33 -31t-60 -14z" />
    <glyph glyph-name="uogonek" unicode="&#x173;" 
d="M192 0q-49 0 -76.5 13t-39 33t-14 42t-2.5 40v320h122v-322q-1 -22 14.5 -31t33.5 -9h198q22 0 26 4t4 26v332h122v-448h-82l-38 20q-40 -8 -94.5 -14t-122.5 -6h-51zM512 -173q-46 0 -70.5 26t-24.5 60q0 30 13.5 50.5t31.5 33t31 16.5q26 8 47.5 7t21.5 -10
q0 -7 -11 -13t-26 -14.5t-26 -21.5t-11 -33q0 -31 37 -31q33 0 50 9.5t32 9.5q13 0 11 -13.5t-13 -30.5t-33 -31t-60 -14z" />
    <glyph glyph-name="Wcircumflex" unicode="&#x174;" horiz-adv-x="1111" 
d="M225 0l-215 587h140l141 -384l23 -97h10l13 68l133 413h170l139 -413l18 -68h10l23 97l131 384h140l-10 -60l-206 -527h-170l-136 393l-20 64h-10l-19 -64l-135 -393h-170zM412 666q0 9 15 29t33.5 40t28.5 29q13 12 24 17t28 5h30q18 0 30 -7.5t20 -15.5
q11 -11 28 -31.5t30.5 -39.5t13.5 -26q0 -11 -15.5 -12t-34.5 12l-87 58l-94 -58q-50 -31 -50 0z" />
    <glyph glyph-name="wcircumflex" unicode="&#x175;" horiz-adv-x="861" 
d="M171 0l-161 448h140l81 -254l26 -89h10l15 79l69 264h160l73 -264l14 -79h10l27 91l76 252h140l-16 -61l-144 -387h-160l-83 275l-10 47h-10l-12 -47l-85 -275h-160zM287 526q0 9 15 29t33.5 40t28.5 29q13 12 24 17t28 5h30q18 0 30 -7.5t20 -15.5q11 -11 28 -31.5
t30.5 -39.5t13.5 -26q0 -11 -15.5 -12t-34.5 12l-87 58l-94 -58q-50 -31 -50 0z" />
    <glyph glyph-name="Ycircumflex" unicode="&#x176;" horiz-adv-x="738" 
d="M301 0v244l-291 344h160l148 -187l46 -62h10l46 62l148 187h160l-39 -60l-256 -288v-240h-132zM225 666q0 9 15 29t33.5 40t28.5 29q13 12 24 17t28 5h30q18 0 30 -7.5t20 -15.5q11 -11 28 -31.5t30.5 -39.5t13.5 -26q0 -11 -15.5 -12t-34.5 12l-87 58l-94 -58
q-50 -31 -50 0z" />
    <glyph glyph-name="ycircumflex" unicode="&#x177;" horiz-adv-x="591" 
d="M102 -196q-48 0 -88 11t-54 20l30 90q17 -7 48.5 -16.5t71.5 -9.5h11q46 0 81.5 27.5t54.5 73.5h-50l-196 448h140l115 -276l26 -72h10l26 72l117 276h136l-16 -61q-19 -39 -43.5 -89.5t-50.5 -104.5t-50.5 -104t-43.5 -89q-29 -60 -63.5 -104t-79 -68t-105.5 -24h-27z
M147 526q0 9 15 29t33.5 40t28.5 29q13 12 24 17t28 5h30q18 0 30 -7.5t20 -15.5q11 -11 28 -31.5t30.5 -39.5t13.5 -26q0 -11 -15.5 -12t-34.5 12l-87 58l-94 -58q-50 -31 -50 0z" />
    <glyph glyph-name="Ydieresis" unicode="&#x178;" horiz-adv-x="738" 
d="M301 0v244l-291 344h160l148 -187l46 -62h10l46 62l148 187h160l-39 -60l-256 -288v-240h-132zM447.798 651q-30.5791 0 -44.6299 12.3975q-14.0498 12.3965 -14.0498 41.3232q0 29.7539 13.6367 41.7373q13.6367 11.9844 45.043 11.9844t45.4561 -11.9844
q14.0508 -11.9834 14.0508 -41.7373q0 -28.0996 -14.0508 -40.9102q-14.0498 -12.8105 -45.4561 -12.8105zM289.798 651q-30.5791 0 -44.6299 12.3975q-14.0498 12.3965 -14.0498 41.3232q0 29.7539 13.6367 41.7373q13.6367 11.9844 45.043 11.9844t45.4561 -11.9844
q14.0508 -11.9834 14.0508 -41.7373q0 -28.0996 -14.0508 -40.9102q-14.0498 -12.8105 -45.4561 -12.8105z" />
    <glyph glyph-name="Zacute" unicode="&#x179;" horiz-adv-x="732" 
d="M50 0v97l444 395h-444v96h621v-96l-453 -396h448l40 -85q0 -4 -27 -7.5t-93 -3.5h-536zM348 658q0 13 9.5 36.5t21.5 47t19 35.5q9 14 22.5 21.5t37.5 7.5h11q39 0 39 -29q0 -15 -18.5 -38t-44 -44.5t-47.5 -35.5q-16 -10 -33 -15t-17 14z" />
    <glyph glyph-name="zacute" unicode="&#x17a;" horiz-adv-x="609" 
d="M40 0v60l323 301h-303v87h490v-60l-332 -302h341l30 -75q0 -4 -30 -7.5t-101 -3.5h-418zM280 518q0 13 9.5 36.5t21.5 47t19 35.5q9 14 22.5 21.5t37.5 7.5h11q39 0 39 -29q0 -15 -18.5 -38t-44 -44.5t-47.5 -35.5q-16 -10 -33 -15t-17 14z" />
    <glyph glyph-name="Zdotaccent" unicode="&#x17b;" horiz-adv-x="732" 
d="M50 0v97l444 395h-444v96h621v-96l-453 -396h448l40 -85q0 -4 -27 -7.5t-93 -3.5h-536zM382.798 651q-30.5791 0 -44.6299 12.3975q-14.0498 12.3965 -14.0498 41.3232q0 29.7539 13.6367 41.7373q13.6367 11.9844 45.043 11.9844t45.4561 -11.9844
q14.0508 -11.9834 14.0508 -41.7373q0 -28.0996 -14.0508 -40.9102q-14.0498 -12.8105 -45.4561 -12.8105z" />
    <glyph glyph-name="zdotaccent" unicode="&#x17c;" horiz-adv-x="609" 
d="M40 0v60l323 301h-303v87h490v-60l-332 -302h341l30 -75q0 -4 -30 -7.5t-101 -3.5h-418zM314.798 511q-30.5791 0 -44.6299 12.3975q-14.0498 12.3965 -14.0498 41.3232q0 29.7539 13.6367 41.7373q13.6367 11.9844 45.043 11.9844t45.4561 -11.9844
q14.0508 -11.9834 14.0508 -41.7373q0 -28.0996 -14.0508 -40.9102q-14.0498 -12.8105 -45.4561 -12.8105z" />
    <glyph glyph-name="Zcaron" unicode="&#x17d;" horiz-adv-x="732" 
d="M50 0v97l444 395h-444v96h621v-96l-453 -396h448l40 -85q0 -4 -27 -7.5t-93 -3.5h-536zM240 770q0 -9 15 -29t33.5 -40t28.5 -29q13 -12 24 -17t28 -5h30q18 0 30 7.5t20 15.5q11 11 28 31.5t30.5 39.5t13.5 26q0 11 -15.5 12t-34.5 -12l-87 -58l-94 58q-50 31 -50 0z
" />
    <glyph glyph-name="zcaron" unicode="&#x17e;" horiz-adv-x="609" 
d="M40 0v60l323 301h-303v87h490v-60l-332 -302h341l30 -75q0 -4 -30 -7.5t-101 -3.5h-418zM172 630q0 -9 15 -29t33.5 -40t28.5 -29q13 -12 24 -17t28 -5h30q18 0 30 7.5t20 15.5q11 11 28 31.5t30.5 39.5t13.5 26q0 11 -15.5 12t-34.5 -12l-87 -58l-94 58q-50 31 -50 0z
" />
    <glyph glyph-name="uni018F" unicode="&#x18f;" horiz-adv-x="719" 
d="M194 0q-76 0 -110 35.5t-34 97.5v186h247q83 0 138.5 -1.5t95.5 -6.5v141q0 13 -11 26.5t-37 13.5h-39q-109 0 -182 -3.5t-99 -6.5l-11 86q0 14 76 17t254 3h50q50 0 77 -15.5t38.5 -38.5t14 -46t2.5 -38v-288q0 -49 -19 -79.5t-57 -50.5q-45 -24 -105 -28t-116 -4h-173z
M230 96h210q42 0 66.5 17.5t24.5 72.5v47h-349v-85q0 -28 12.5 -40t35.5 -12z" />
    <glyph glyph-name="florin" unicode="&#x192;" horiz-adv-x="629" 
d="M159 -85q-29 0 -56.5 4.5t-45 11.5t-17.5 14l20 60q12 -3 34.5 -6.5t47.5 -3.5q32 0 51.5 14t29 50t9.5 102v201h-62v85h62v146q0 34 13.5 63t45 47t83.5 18h10q67 0 112.5 -15t69 -33.5t23.5 -31.5l-40 -56q-17 18 -57 34t-80 16h-10q-25 0 -36.5 -9t-11.5 -31v-147h128
v-86h-128v-201q0 -95 -22.5 -149t-63 -75.5t-96.5 -21.5h-13z" />
    <glyph glyph-name="uni019D" unicode="&#x19d;" horiz-adv-x="908" 
d="M129 -176q-29 0 -56.5 4.5t-45 11.5t-17.5 14l20 60q12 -3 34.5 -6.5t47.5 -3.5q27 0 43.5 13t16.5 53v538l-10 80h144l340 -356l39 -54h11v410h132v-588h-127l-348 362l-39 47h-10v-439q0 -55 -23 -87t-59.5 -45.5t-79.5 -13.5h-13z" />
    <glyph glyph-name="Ohorn" unicode="&#x1a0;" horiz-adv-x="797" 
d="M253 0q-70 0 -110 20t-56.5 60t-16.5 99v231q0 58 16 97.5t56 60t111 20.5h292q70 0 109.5 -20.5t56 -60t16.5 -97.5v-231q0 -88 -39 -133.5t-143 -45.5h-292zM282 96h235q37 0 57.5 19t20.5 52v255q0 29 -21 49.5t-57 20.5h-235q-36 0 -58 -19t-22 -51v-255
q0 -34 21.5 -52.5t58.5 -18.5zM767 408q-31 0 -57 9t-37 17t-13 21t13 13h52q37 0 48 14.5t11 48.5v39q0 30 30 30h31q30 0 30 -30v-24q0 -138 -108 -138z" />
    <glyph glyph-name="ohorn" unicode="&#x1a1;" 
d="M182 0q-67 0 -99.5 27t-32.5 88v205q0 15 2.5 36.5t14 42.5t39 35t76.5 14h276q50 0 77 -14t38.5 -35t14 -42.5t2.5 -36.5v-192q0 -18 -2.5 -40t-14.5 -42t-39 -33t-76 -13h-276zM220 86h200q49 0 49 40v196q0 40 -49 40h-200q-48 0 -48 -40v-196q0 -40 48 -40zM620 288
q-31 0 -57 9t-37 17t-13 21t13 13h52q37 0 48 14.5t11 48.5v39q0 30 30 30h31q30 0 30 -30v-24q0 -138 -108 -138z" />
    <glyph glyph-name="Uhorn" unicode="&#x1af;" horiz-adv-x="766" 
d="M228 -10q-91 0 -127 49t-36 130v419h132v-423q0 -47 23 -63t57 -16h212q32 0 56 16.5t24 62.5v423h132v-419q0 -54 -15 -94t-50 -62.5t-97 -22.5h-311zM751 528q-31 0 -57 9t-37 17t-13 21t13 13h52q37 0 48 14.5t11 48.5v39q0 30 30 30h31q30 0 30 -30v-24
q0 -138 -108 -138z" />
    <glyph glyph-name="uhorn" unicode="&#x1b0;" 
d="M192 0q-49 0 -76.5 13t-39 33t-14 42t-2.5 40v320h122v-322q-1 -22 14.5 -31t33.5 -9h198q22 0 26 4t4 26v332h122v-448h-82l-38 20q-40 -8 -94.5 -14t-122.5 -6h-51zM620 388q-31 0 -57 9t-37 17t-13 21t13 13h52q37 0 48 14.5t11 48.5v39q0 30 30 30h31q30 0 30 -30
v-24q0 -138 -108 -138z" />
    <glyph glyph-name="uni01C4" unicode="&#x1c4;" horiz-adv-x="1520" 
d="M90 0v508l-10 80h464q81 0 124.5 -20t60.5 -59.5t17 -98.5v-231q0 -60 -16.5 -99.5t-60 -59.5t-125.5 -20h-454zM222 96h314q77 0 78 71v255q0 29 -17 49.5t-61 20.5h-314v-396zM838 0v97l444 395h-444v96h621v-96l-453 -396h448l40 -85q0 -4 -27 -7.5t-93 -3.5h-536z
M633 770q0 -9 15 -29t33.5 -40t28.5 -29q13 -12 24 -17t28 -5h30q18 0 30 7.5t20 15.5q11 11 28 31.5t30.5 39.5t13.5 26q0 11 -15.5 12t-34.5 -12l-87 -58l-94 58q-50 31 -50 0z" />
    <glyph glyph-name="uni01C5" unicode="&#x1c5;" horiz-adv-x="1415" 
d="M90 0v508l-10 80h464q81 0 124.5 -20t60.5 -59.5t17 -98.5v-231q0 -60 -16.5 -99.5t-60 -59.5t-125.5 -20h-454zM222 96h314q77 0 78 71v255q0 29 -17 49.5t-61 20.5h-314v-396zM846 0v60l323 301h-303v87h490v-60l-332 -302h341l30 -75q0 -4 -30 -7.5t-101 -3.5h-418z
M978 630q0 -9 15 -29t33.5 -40t28.5 -29q13 -12 24 -17t28 -5h30q18 0 30 7.5t20 15.5q11 11 28 31.5t30.5 39.5t13.5 26q0 11 -15.5 12t-34.5 -12l-87 -58l-94 58q-50 31 -50 0z" />
    <glyph glyph-name="uni01C6" unicode="&#x1c6;" horiz-adv-x="1269" 
d="M182 0q-50 0 -77 13t-38.5 33t-14 42t-2.5 40v192q0 15 2.5 36.5t14 42.5t39 35t76.5 14h51q92 0 148.5 -3.5t86.5 -7.5v197h122v-634h-82l-39 20q-42 -7 -101 -13.5t-136 -6.5h-50zM220 86h217q21 0 26 5t5 25v239q-34 2 -86 4.5t-111 2.5h-51q-48 0 -48 -40v-196
q0 -40 48 -40zM700 0v60l323 301h-303v87h490v-60l-332 -302h341l30 -75q0 -4 -30 -7.5t-101 -3.5h-418zM832 630q0 -9 15 -29t33.5 -40t28.5 -29q13 -12 24 -17t28 -5h30q18 0 30 7.5t20 15.5q11 11 28 31.5t30.5 39.5t13.5 26q0 11 -15.5 12t-34.5 -12l-87 -58l-94 58
q-50 31 -50 0z" />
    <glyph glyph-name="uni01C7" unicode="&#x1c7;" horiz-adv-x="1348" 
d="M80 0l10 80v508h132v-492h414l40 -85q0 -4 -27 -7.5t-93 -3.5h-476zM958 0q-72 0 -131.5 3.5t-95 12.5t-35.5 25l50 77q29 -13 80.5 -17.5t136.5 -4.5h96q47 0 62 22.5t15 48.5v341l-8 80h140v-409q0 -50 -12.5 -91t-51 -64.5t-117.5 -23.5h-129z" />
    <glyph glyph-name="uni01C8" unicode="&#x1c8;" horiz-adv-x="961" 
d="M80 0l10 80v508h132v-492h414l40 -85q0 -4 -27 -7.5t-93 -3.5h-476zM829 511q-37 0 -54 15t-17 51q0 35 16.5 49.5t54.5 14.5t55 -14.5t17 -49.5t-17 -50.5t-55 -15.5zM725 -176q-29 0 -56.5 4.5t-45 11.5t-17.5 14l20 60q12 -3 34.5 -6.5t47.5 -3.5q27 0 43.5 13
t16.5 53v478h122v-478q0 -55 -20.5 -87t-54.5 -45.5t-77 -13.5h-13z" />
    <glyph glyph-name="uni01C9" unicode="&#x1c9;" horiz-adv-x="527" 
d="M70 0v554l-10 80h132v-634h-122zM395 511q-37 0 -54 15t-17 51q0 35 16.5 49.5t54.5 14.5t55 -14.5t17 -49.5t-17 -50.5t-55 -15.5zM291 -176q-29 0 -56.5 4.5t-45 11.5t-17.5 14l20 60q12 -3 34.5 -6.5t47.5 -3.5q27 0 43.5 13t16.5 53v478h122v-478q0 -55 -20.5 -87
t-54.5 -45.5t-77 -13.5h-13z" />
    <glyph glyph-name="uni01CA" unicode="&#x1ca;" horiz-adv-x="1488" 
d="M90 0v508l-10 80h144l340 -356l39 -54h11v410h132v-588h-127l-348 362l-39 47h-10v-409h-132zM1098 0q-72 0 -131.5 3.5t-95 12.5t-35.5 25l50 77q29 -13 80.5 -17.5t136.5 -4.5h96q47 0 62 22.5t15 48.5v341l-8 80h140v-409q0 -50 -12.5 -91t-51 -64.5t-117.5 -23.5
h-129z" />
    <glyph glyph-name="uni01CB" unicode="&#x1cb;" horiz-adv-x="1101" 
d="M90 0v508l-10 80h144l340 -356l39 -54h11v410h132v-588h-127l-348 362l-39 47h-10v-409h-132zM969 511q-37 0 -54 15t-17 51q0 35 16.5 49.5t54.5 14.5t55 -14.5t17 -49.5t-17 -50.5t-55 -15.5zM865 -176q-29 0 -56.5 4.5t-45 11.5t-17.5 14l20 60q12 -3 34.5 -6.5
t47.5 -3.5q27 0 43.5 13t16.5 53v478h122v-478q0 -55 -20.5 -87t-54.5 -45.5t-77 -13.5h-13z" />
    <glyph glyph-name="uni01CC" unicode="&#x1cc;" horiz-adv-x="930" 
d="M60 0v448h82l40 -20q42 8 101 14t135 6h50q50 0 77 -14t38.5 -35t14 -42.5t2.5 -36.5v-320h-122v322q0 40 -48 40h-218q-19 0 -24.5 -3.5t-5.5 -18.5v-340h-122zM798 511q-37 0 -54 15t-17 51q0 35 16.5 49.5t54.5 14.5t55 -14.5t17 -49.5t-17 -50.5t-55 -15.5zM694 -176
q-29 0 -56.5 4.5t-45 11.5t-17.5 14l20 60q12 -3 34.5 -6.5t47.5 -3.5q27 0 43.5 13t16.5 53v478h122v-478q0 -55 -20.5 -87t-54.5 -45.5t-77 -13.5h-13z" />
    <glyph glyph-name="Gcaron" unicode="&#x1e6;" horiz-adv-x="795" 
d="M253 0q-71 0 -111 20t-56 60t-16 99v223q0 96 43 141.5t140 45.5h301q69 0 105.5 -7.5t36.5 -15.5l-20 -83q-17 3 -100.5 6.5t-242.5 3.5h-51q-80 0 -80 -71v-255q0 -34 17.5 -52.5t62.5 -18.5h41q96 0 162 1.5t109 2.5v136l-60 -1l-131 -10v98h322v-281l10 -21
q0 -8 -42 -14.5t-142 -6.5h-298zM310 770q0 -9 15 -29t33.5 -40t28.5 -29q13 -12 24 -17t28 -5h30q18 0 30 7.5t20 15.5q11 11 28 31.5t30.5 39.5t13.5 26q0 11 -15.5 12t-34.5 -12l-87 -58l-94 58q-50 31 -50 0z" />
    <glyph glyph-name="gcaron" unicode="&#x1e7;" horiz-adv-x="651" 
d="M389 -176q-110 0 -179 2t-106 6t-50.5 10t-13.5 13l30 75q16 -5 56.5 -12.5t103.5 -7.5h171q37 0 52.5 11t15.5 39v60q-43 -8 -101.5 -14t-134.5 -6h-50q-50 0 -77 13t-38.5 33t-14 42t-2.5 40v192q0 15 2.5 36.5t14 42.5t39 35t76.5 14h51q105 0 163.5 -4t85.5 -9l26 13
h82v-496q0 -18 -5.5 -40t-21.5 -42t-46 -33t-79 -13h-50zM221 86h217q23 0 27 4t4 26v239q-34 2 -86 4.5t-111 2.5h-51q-48 0 -48 -40v-196q-1 -40 48 -40zM178 630q0 -9 15 -29t33.5 -40t28.5 -29q13 -12 24 -17t28 -5h30q18 0 30 7.5t20 15.5q11 11 28 31.5t30.5 39.5
t13.5 26q0 11 -15.5 12t-34.5 -12l-87 -58l-94 58q-50 31 -50 0z" />
    <glyph glyph-name="uni01EA" unicode="&#x1ea;" horiz-adv-x="797" 
d="M253 0q-70 0 -110 20t-56.5 60t-16.5 99v231q0 58 16 97.5t56 60t111 20.5h292q70 0 109.5 -20.5t56 -60t16.5 -97.5v-231q0 -88 -39 -133.5t-143 -45.5h-292zM282 96h235q37 0 57.5 19t20.5 52v255q0 29 -21 49.5t-57 20.5h-235q-36 0 -58 -19t-22 -51v-255
q0 -34 21.5 -52.5t58.5 -18.5zM403 -162q-46 0 -70.5 26t-24.5 60q0 30 13.5 50.5t31.5 33t31 16.5q26 8 47.5 7t21.5 -10q0 -7 -11 -13t-26 -14.5t-26 -21.5t-11 -33q0 -31 37 -31q33 0 50 9.5t32 9.5q13 0 11 -13.5t-13 -30.5t-33 -31t-60 -14z" />
    <glyph glyph-name="uni01EB" unicode="&#x1eb;" 
d="M182 0q-67 0 -99.5 27t-32.5 88v205q0 15 2.5 36.5t14 42.5t39 35t76.5 14h276q50 0 77 -14t38.5 -35t14 -42.5t2.5 -36.5v-192q0 -18 -2.5 -40t-14.5 -42t-39 -33t-76 -13h-276zM220 86h200q49 0 49 40v196q0 40 -49 40h-200q-48 0 -48 -40v-196q0 -40 48 -40zM496 -157
q-46 0 -70.5 26t-24.5 60q0 30 13.5 50.5t31.5 33t31 16.5q26 8 47.5 7t21.5 -10q0 -7 -11 -13t-26 -14.5t-26 -21.5t-11 -33q0 -31 37 -31q33 0 50 9.5t32 9.5q13 0 11 -13.5t-13 -30.5t-33 -31t-60 -14z" />
    <glyph glyph-name="uni01F1" unicode="&#x1f1;" horiz-adv-x="1520" 
d="M90 0v508l-10 80h464q81 0 124.5 -20t60.5 -59.5t17 -98.5v-231q0 -60 -16.5 -99.5t-60 -59.5t-125.5 -20h-454zM222 96h314q77 0 78 71v255q0 29 -17 49.5t-61 20.5h-314v-396zM838 0v97l444 395h-444v96h621v-96l-453 -396h448l40 -85q0 -4 -27 -7.5t-93 -3.5h-536z
" />
    <glyph glyph-name="uni01F2" unicode="&#x1f2;" horiz-adv-x="1415" 
d="M90 0v508l-10 80h464q81 0 124.5 -20t60.5 -59.5t17 -98.5v-231q0 -60 -16.5 -99.5t-60 -59.5t-125.5 -20h-454zM222 96h314q77 0 78 71v255q0 29 -17 49.5t-61 20.5h-314v-396zM846 0v60l323 301h-303v87h490v-60l-332 -302h341l30 -75q0 -4 -30 -7.5t-101 -3.5h-418z
" />
    <glyph glyph-name="uni01F3" unicode="&#x1f3;" horiz-adv-x="1269" 
d="M182 0q-50 0 -77 13t-38.5 33t-14 42t-2.5 40v192q0 15 2.5 36.5t14 42.5t39 35t76.5 14h51q92 0 148.5 -3.5t86.5 -7.5v197h122v-634h-82l-39 20q-42 -7 -101 -13.5t-136 -6.5h-50zM220 86h217q21 0 26 5t5 25v239q-34 2 -86 4.5t-111 2.5h-51q-48 0 -48 -40v-196
q0 -40 48 -40zM700 0v60l323 301h-303v87h490v-60l-332 -302h341l30 -75q0 -4 -30 -7.5t-101 -3.5h-418z" />
    <glyph glyph-name="Aringacute" unicode="&#x1fa;" horiz-adv-x="782" 
d="M0 0l293 588h197l292 -588h-154l-59 127h-358l-65 -127h-146zM247 225h285l-137 273h-10zM368 650q-44 0 -66 12t-29 32t-7 44v11q0 20 6.5 40.5t28 34t67.5 13.5h47q44 0 66 -13.5t29 -34t7 -40.5v-11q0 -24 -7 -44t-29 -32t-66 -12h-47zM367 716h48q11 0 15.5 6.5
t4.5 13.5v14q0 7 -4.5 13.5t-15.5 6.5h-48q-12 0 -16.5 -6.5t-3.5 -13.5v-14q-1 -7 3.5 -13.5t16.5 -6.5zM357 906q0 13 9.5 36.5t21.5 47t19 35.5q9 14 22.5 21.5t37.5 7.5h11q39 0 39 -29q0 -15 -18.5 -38t-44 -44.5t-47.5 -35.5q-16 -10 -33 -15t-17 14z" />
    <glyph glyph-name="aringacute" unicode="&#x1fb;" horiz-adv-x="651" 
d="M189 0q-76 0 -110 35.5t-34 97.5q0 65 35.5 100t108.5 35h51q75 0 135 -4t99 -8v66q0 9 -2 18.5t-12 15.5t-34 6h-50q-109 0 -182 -3.5t-99 -6.5l-11 76q0 14 76 17t254 3h50q50 0 77 -14t38.5 -35t14 -42.5t2.5 -36.5v-320h-82l-39 20q-42 -7 -101 -13.5t-135 -6.5h-50z
M215 86h229q22 0 26 4t4 25v77h-259q-27 0 -37.5 -13t-10.5 -41t12 -40t36 -12zM322 510q-44 0 -66 12t-29 32t-7 44v11q0 20 6.5 40.5t28 34t67.5 13.5h47q44 0 66 -13.5t29 -34t7 -40.5v-11q0 -24 -7 -44t-29 -32t-66 -12h-47zM321 576h48q11 0 15.5 6.5t4.5 13.5v14
q0 7 -4.5 13.5t-15.5 6.5h-48q-12 0 -16.5 -6.5t-3.5 -13.5v-14q-1 -7 3.5 -13.5t16.5 -6.5zM311 766q0 13 9.5 36.5t21.5 47t19 35.5q9 14 22.5 21.5t37.5 7.5h11q39 0 39 -29q0 -15 -18.5 -38t-44 -44.5t-47.5 -35.5q-16 -10 -33 -15t-17 14z" />
    <glyph glyph-name="AEacute" unicode="&#x1fc;" horiz-adv-x="1196" 
d="M10 0l272 588h850v-96h-490v-138h374v-99h-374v-159h494l40 -85q0 -4 -27 -7.5t-93 -3.5h-546v137h-292l-62 -137h-146zM252 225h258v283h-136zM553 658q0 13 9.5 36.5t21.5 47t19 35.5q9 14 22.5 21.5t37.5 7.5h11q39 0 39 -29q0 -15 -18.5 -38t-44 -44.5t-47.5 -35.5
q-16 -10 -33 -15t-17 14z" />
    <glyph glyph-name="aeacute" unicode="&#x1fd;" horiz-adv-x="1044" 
d="M189 0q-76 0 -110 35.5t-34 97.5q0 65 35.5 100t108.5 35h51q50 0 98.5 -2t85 -9t50.5 -22v37q0 43 -34 66.5t-114 23.5h-20q-72 0 -128.5 -3.5t-82.5 -6.5l-12 79q17 7 68.5 12t142.5 5h32q51 0 94 -10t76 -31q13 17 39 29t71 12h215q66 0 103.5 -12.5t53 -40.5
t15.5 -75v-148h-175q-90 0 -146.5 4t-75.5 5v-55q-1 -40 48 -40h51q54 0 105.5 1.5t94.5 4t69 4.5l40 -65q0 -31 -197 -31h-201q-37 0 -61.5 7.5t-38.5 20.5q-49 -15 -118 -21.5t-149 -6.5h-50zM596 258h275v64q0 20 -4.5 28t-26.5 10t-75 2h-121q-48 0 -48 -40v-64zM214 86
h199q29 0 44.5 4t15.5 25v17q0 26 -28 43t-103 17h-128q-27 0 -37.5 -13t-10.5 -41t12 -40t36 -12zM494 518q0 13 9.5 36.5t21.5 47t19 35.5q9 14 22.5 21.5t37.5 7.5h11q39 0 39 -29q0 -15 -18.5 -38t-44 -44.5t-47.5 -35.5q-16 -10 -33 -15t-17 14z" />
    <glyph glyph-name="Oslashacute" unicode="&#x1fe;" horiz-adv-x="797" 
d="M253 0q-70 0 -110 20t-56.5 60t-16.5 99v231q0 58 16 97.5t56 60t111 20.5h292q70 0 109.5 -20.5t56 -60t16.5 -97.5v-231q0 -88 -39 -133.5t-143 -45.5h-292zM282 96h235q37 0 57.5 19t20.5 52v255q0 29 -21 49.5t-57 20.5h-235q-36 0 -58 -19t-22 -51v-255
q0 -34 21.5 -52.5t58.5 -18.5zM146 -45l417 668h90l-418 -668h-89zM354 658q0 13 9.5 36.5t21.5 47t19 35.5q9 14 22.5 21.5t37.5 7.5h11q39 0 39 -29q0 -15 -18.5 -38t-44 -44.5t-47.5 -35.5q-16 -10 -33 -15t-17 14z" />
    <glyph glyph-name="oslashacute" unicode="&#x1ff;" 
d="M182 0q-67 0 -99.5 27t-32.5 88v205q0 15 2.5 36.5t14 42.5t39 35t76.5 14h276q50 0 77 -14t38.5 -35t14 -42.5t2.5 -36.5v-192q0 -18 -2.5 -40t-14.5 -42t-39 -33t-76 -13h-276zM220 86h200q49 0 49 40v196q0 40 -49 40h-200q-48 0 -48 -40v-196q0 -40 48 -40zM62 -121
l417 668h90l-418 -668h-89zM275 518q0 13 9.5 36.5t21.5 47t19 35.5q9 14 22.5 21.5t37.5 7.5h11q39 0 39 -29q0 -15 -18.5 -38t-44 -44.5t-47.5 -35.5q-16 -10 -33 -15t-17 14z" />
    <glyph glyph-name="uni0200" unicode="&#x200;" horiz-adv-x="782" 
d="M0 0l293 588h197l292 -588h-154l-59 127h-358l-65 -127h-146zM247 225h285l-137 273h-10zM347 658q0 13 -9.5 36.5t-21.5 47t-19 35.5q-9 14 -22.5 21.5t-37.5 7.5h-11q-39 0 -39 -29q0 -15 18.5 -38t44 -44.5t47.5 -35.5q16 -10 33 -15t17 14zM507 656q0 13 -9.5 36.5
t-21.5 47t-19 35.5q-9 14 -22.5 21.5t-37.5 7.5h-11q-39 0 -39 -29q0 -15 18.5 -38t44 -44.5t47.5 -35.5q16 -10 33 -15t17 14z" />
    <glyph glyph-name="uni0201" unicode="&#x201;" horiz-adv-x="651" 
d="M189 0q-76 0 -110 35.5t-34 97.5q0 65 35.5 100t108.5 35h51q75 0 135 -4t99 -8v66q0 9 -2 18.5t-12 15.5t-34 6h-50q-109 0 -182 -3.5t-99 -6.5l-11 76q0 14 76 17t254 3h50q50 0 77 -14t38.5 -35t14 -42.5t2.5 -36.5v-320h-82l-39 20q-42 -7 -101 -13.5t-135 -6.5h-50z
M215 86h229q22 0 26 4t4 25v77h-259q-27 0 -37.5 -13t-10.5 -41t12 -40t36 -12zM301 518q0 13 -9.5 36.5t-21.5 47t-19 35.5q-9 14 -22.5 21.5t-37.5 7.5h-11q-39 0 -39 -29q0 -15 18.5 -38t44 -44.5t47.5 -35.5q16 -10 33 -15t17 14zM461 516q0 13 -9.5 36.5t-21.5 47
t-19 35.5q-9 14 -22.5 21.5t-37.5 7.5h-11q-39 0 -39 -29q0 -15 18.5 -38t44 -44.5t47.5 -35.5q16 -10 33 -15t17 14z" />
    <glyph glyph-name="uni0202" unicode="&#x202;" horiz-adv-x="782" 
d="M0 0l293 588h197l292 -588h-154l-59 127h-358l-65 -127h-146zM247 225h285l-137 273h-10zM392 776q-58 0 -90.5 -14t-46 -39t-13.5 -57q0 -25 14.5 -25t23.5 14q15 25 37.5 38t74.5 13q53 0 73.5 -13t36.5 -38q11 -16 25.5 -15t14.5 26q0 54 -31.5 82t-118.5 28z" />
    <glyph glyph-name="uni0203" unicode="&#x203;" horiz-adv-x="651" 
d="M189 0q-76 0 -110 35.5t-34 97.5q0 65 35.5 100t108.5 35h51q75 0 135 -4t99 -8v66q0 9 -2 18.5t-12 15.5t-34 6h-50q-109 0 -182 -3.5t-99 -6.5l-11 76q0 14 76 17t254 3h50q50 0 77 -14t38.5 -35t14 -42.5t2.5 -36.5v-320h-82l-39 20q-42 -7 -101 -13.5t-135 -6.5h-50z
M215 86h229q22 0 26 4t4 25v77h-259q-27 0 -37.5 -13t-10.5 -41t12 -40t36 -12zM346 636q-58 0 -90.5 -14t-46 -39t-13.5 -57q0 -25 14.5 -25t23.5 14q15 25 37.5 38t74.5 13q53 0 73.5 -13t36.5 -38q11 -16 25.5 -15t14.5 26q0 54 -31.5 82t-118.5 28z" />
    <glyph glyph-name="uni0204" unicode="&#x204;" horiz-adv-x="766" 
d="M80 0v588h622v-96h-490v-138h374v-99h-374v-159h494l40 -85q0 -4 -27 -7.5t-93 -3.5h-546zM358 658q0 13 -9.5 36.5t-21.5 47t-19 35.5q-9 14 -22.5 21.5t-37.5 7.5h-11q-39 0 -39 -29q0 -15 18.5 -38t44 -44.5t47.5 -35.5q16 -10 33 -15t17 14zM518 656q0 13 -9.5 36.5
t-21.5 47t-19 35.5q-9 14 -22.5 21.5t-37.5 7.5h-11q-39 0 -39 -29q0 -15 18.5 -38t44 -44.5t47.5 -35.5q16 -10 33 -15t17 14z" />
    <glyph glyph-name="uni0205" unicode="&#x205;" horiz-adv-x="620" 
d="M182 0q-50 0 -77 13t-38.5 33t-14 42t-2.5 40v192q0 15 2.5 36.5t14 42.5t39 35t76.5 14h215q66 0 103.5 -12.5t53 -40.5t15.5 -75v-148h-175q-90 0 -146.5 4t-75.5 5v-55q-1 -40 48 -40h51q54 0 105.5 1.5t94.5 4t69 4.5l40 -65q0 -31 -197 -31h-201zM172 258h275v64
q0 20 -4.5 28t-26.5 10t-75 2h-121q-48 0 -48 -40v-64zM270 518q0 13 -9.5 36.5t-21.5 47t-19 35.5q-9 14 -22.5 21.5t-37.5 7.5h-11q-39 0 -39 -29q0 -15 18.5 -38t44 -44.5t47.5 -35.5q16 -10 33 -15t17 14zM430 516q0 13 -9.5 36.5t-21.5 47t-19 35.5q-9 14 -22.5 21.5
t-37.5 7.5h-11q-39 0 -39 -29q0 -15 18.5 -38t44 -44.5t47.5 -35.5q16 -10 33 -15t17 14z" />
    <glyph glyph-name="uni0206" unicode="&#x206;" horiz-adv-x="766" 
d="M80 0v588h622v-96h-490v-138h374v-99h-374v-159h494l40 -85q0 -4 -27 -7.5t-93 -3.5h-546zM403 776q-58 0 -90.5 -14t-46 -39t-13.5 -57q0 -25 14.5 -25t23.5 14q15 25 37.5 38t74.5 13q53 0 73.5 -13t36.5 -38q11 -16 25.5 -15t14.5 26q0 54 -31.5 82t-118.5 28z" />
    <glyph glyph-name="uni0207" unicode="&#x207;" horiz-adv-x="620" 
d="M182 0q-50 0 -77 13t-38.5 33t-14 42t-2.5 40v192q0 15 2.5 36.5t14 42.5t39 35t76.5 14h215q66 0 103.5 -12.5t53 -40.5t15.5 -75v-148h-175q-90 0 -146.5 4t-75.5 5v-55q-1 -40 48 -40h51q54 0 105.5 1.5t94.5 4t69 4.5l40 -65q0 -31 -197 -31h-201zM172 258h275v64
q0 20 -4.5 28t-26.5 10t-75 2h-121q-48 0 -48 -40v-64zM315 636q-58 0 -90.5 -14t-46 -39t-13.5 -57q0 -25 14.5 -25t23.5 14q15 25 37.5 38t74.5 13q53 0 73.5 -13t36.5 -38q11 -16 25.5 -15t14.5 26q0 54 -31.5 82t-118.5 28z" />
    <glyph glyph-name="uni0208" unicode="&#x208;" horiz-adv-x="292" 
d="M80 0v588h132v-588h-132zM101 658q0 13 -9.5 36.5t-21.5 47t-19 35.5q-9 14 -22.5 21.5t-37.5 7.5h-11q-39 0 -39 -29q0 -15 18.5 -38t44 -44.5t47.5 -35.5q16 -10 33 -15t17 14zM261 656q0 13 -9.5 36.5t-21.5 47t-19 35.5q-9 14 -22.5 21.5t-37.5 7.5h-11
q-39 0 -39 -29q0 -15 18.5 -38t44 -44.5t47.5 -35.5q16 -10 33 -15t17 14z" />
    <glyph glyph-name="uni0209" unicode="&#x209;" horiz-adv-x="242" 
d="M60 0v448h122v-448h-122zM76 518q0 13 -9.5 36.5t-21.5 47t-19 35.5q-9 14 -22.5 21.5t-37.5 7.5h-11q-39 0 -39 -29q0 -15 18.5 -38t44 -44.5t47.5 -35.5q16 -10 33 -15t17 14zM236 516q0 13 -9.5 36.5t-21.5 47t-19 35.5q-9 14 -22.5 21.5t-37.5 7.5h-11q-39 0 -39 -29
q0 -15 18.5 -38t44 -44.5t47.5 -35.5q16 -10 33 -15t17 14z" />
    <glyph glyph-name="uni020A" unicode="&#x20a;" horiz-adv-x="292" 
d="M80 0v588h132v-588h-132zM146 776q-58 0 -90.5 -14t-46 -39t-13.5 -57q0 -25 14.5 -25t23.5 14q15 25 37.5 38t74.5 13q53 0 73.5 -13t36.5 -38q11 -16 25.5 -15t14.5 26q0 54 -31.5 82t-118.5 28z" />
    <glyph glyph-name="uni020B" unicode="&#x20b;" horiz-adv-x="242" 
d="M60 0v448h122v-448h-122zM121 636q-58 0 -90.5 -14t-46 -39t-13.5 -57q0 -25 14.5 -25t23.5 14q15 25 37.5 38t74.5 13q53 0 73.5 -13t36.5 -38q11 -16 25.5 -15t14.5 26q0 54 -31.5 82t-118.5 28z" />
    <glyph glyph-name="uni020C" unicode="&#x20c;" horiz-adv-x="797" 
d="M253 0q-70 0 -110 20t-56.5 60t-16.5 99v231q0 58 16 97.5t56 60t111 20.5h292q70 0 109.5 -20.5t56 -60t16.5 -97.5v-231q0 -88 -39 -133.5t-143 -45.5h-292zM282 96h235q37 0 57.5 19t20.5 52v255q0 29 -21 49.5t-57 20.5h-235q-36 0 -58 -19t-22 -51v-255
q0 -34 21.5 -52.5t58.5 -18.5zM354 658q0 13 -9.5 36.5t-21.5 47t-19 35.5q-9 14 -22.5 21.5t-37.5 7.5h-11q-39 0 -39 -29q0 -15 18.5 -38t44 -44.5t47.5 -35.5q16 -10 33 -15t17 14zM514 656q0 13 -9.5 36.5t-21.5 47t-19 35.5q-9 14 -22.5 21.5t-37.5 7.5h-11
q-39 0 -39 -29q0 -15 18.5 -38t44 -44.5t47.5 -35.5q16 -10 33 -15t17 14z" />
    <glyph glyph-name="uni020D" unicode="&#x20d;" 
d="M182 0q-67 0 -99.5 27t-32.5 88v205q0 15 2.5 36.5t14 42.5t39 35t76.5 14h276q50 0 77 -14t38.5 -35t14 -42.5t2.5 -36.5v-192q0 -18 -2.5 -40t-14.5 -42t-39 -33t-76 -13h-276zM220 86h200q49 0 49 40v196q0 40 -49 40h-200q-48 0 -48 -40v-196q0 -40 48 -40zM275 518
q0 13 -9.5 36.5t-21.5 47t-19 35.5q-9 14 -22.5 21.5t-37.5 7.5h-11q-39 0 -39 -29q0 -15 18.5 -38t44 -44.5t47.5 -35.5q16 -10 33 -15t17 14zM435 516q0 13 -9.5 36.5t-21.5 47t-19 35.5q-9 14 -22.5 21.5t-37.5 7.5h-11q-39 0 -39 -29q0 -15 18.5 -38t44 -44.5
t47.5 -35.5q16 -10 33 -15t17 14z" />
    <glyph glyph-name="uni020E" unicode="&#x20e;" horiz-adv-x="797" 
d="M253 0q-70 0 -110 20t-56.5 60t-16.5 99v231q0 58 16 97.5t56 60t111 20.5h292q70 0 109.5 -20.5t56 -60t16.5 -97.5v-231q0 -88 -39 -133.5t-143 -45.5h-292zM282 96h235q37 0 57.5 19t20.5 52v255q0 29 -21 49.5t-57 20.5h-235q-36 0 -58 -19t-22 -51v-255
q0 -34 21.5 -52.5t58.5 -18.5zM399 776q-58 0 -90.5 -14t-46 -39t-13.5 -57q0 -25 14.5 -25t23.5 14q15 25 37.5 38t74.5 13q53 0 73.5 -13t36.5 -38q11 -16 25.5 -15t14.5 26q0 54 -31.5 82t-118.5 28z" />
    <glyph glyph-name="uni020F" unicode="&#x20f;" 
d="M182 0q-67 0 -99.5 27t-32.5 88v205q0 15 2.5 36.5t14 42.5t39 35t76.5 14h276q50 0 77 -14t38.5 -35t14 -42.5t2.5 -36.5v-192q0 -18 -2.5 -40t-14.5 -42t-39 -33t-76 -13h-276zM220 86h200q49 0 49 40v196q0 40 -49 40h-200q-48 0 -48 -40v-196q0 -40 48 -40zM320 636
q-58 0 -90.5 -14t-46 -39t-13.5 -57q0 -25 14.5 -25t23.5 14q15 25 37.5 38t74.5 13q53 0 73.5 -13t36.5 -38q11 -16 25.5 -15t14.5 26q0 54 -31.5 82t-118.5 28z" />
    <glyph glyph-name="uni0210" unicode="&#x210;" horiz-adv-x="828" 
d="M719 -10q-40 0 -78.5 12.5t-87.5 61.5l-72 72q-44 45 -96.5 66t-131.5 21h-31v-223h-132v508l-10 81h443q64 0 100.5 -17t54 -44.5t22.5 -58.5t5 -59v-19q0 -22 -6 -49t-23 -53t-48.5 -44t-82.5 -21q13 -7 33 -21.5t41.5 -31.5t39.5 -31t28 -20q36 -21 64 -29t46 -9
t21 -1l-20 -81q-9 -3 -30 -6.5t-49 -3.5zM372 314q38 0 68 1.5t54 3.5q44 5 61.5 24.5t17.5 50.5v23q0 32 -17 54t-61 22h-273v-174q44 -3 81 -4t69 -1zM339 658q0 13 -9.5 36.5t-21.5 47t-19 35.5q-9 14 -22.5 21.5t-37.5 7.5h-11q-39 0 -39 -29q0 -15 18.5 -38t44 -44.5
t47.5 -35.5q16 -10 33 -15t17 14zM499 656q0 13 -9.5 36.5t-21.5 47t-19 35.5q-9 14 -22.5 21.5t-37.5 7.5h-11q-39 0 -39 -29q0 -15 18.5 -38t44 -44.5t47.5 -35.5q16 -10 33 -15t17 14z" />
    <glyph glyph-name="uni0211" unicode="&#x211;" horiz-adv-x="501" 
d="M60 0v448h82l38 -20q26 14 56 22t76 8q73 0 118.5 -16t60.5 -24l-35 -87q-12 6 -39.5 15.5t-64.5 17.5t-81 8h-11q-48 0 -62.5 -19t-15.5 -63v-290h-122zM241 528q0 13 -9.5 36.5t-21.5 47t-19 35.5q-9 14 -22.5 21.5t-37.5 7.5h-11q-39 0 -39 -29q0 -15 18.5 -38
t44 -44.5t47.5 -35.5q16 -10 33 -15t17 14zM401 526q0 13 -9.5 36.5t-21.5 47t-19 35.5q-9 14 -22.5 21.5t-37.5 7.5h-11q-39 0 -39 -29q0 -15 18.5 -38t44 -44.5t47.5 -35.5q16 -10 33 -15t17 14z" />
    <glyph glyph-name="uni0212" unicode="&#x212;" horiz-adv-x="828" 
d="M719 -10q-40 0 -78.5 12.5t-87.5 61.5l-72 72q-44 45 -96.5 66t-131.5 21h-31v-223h-132v508l-10 81h443q64 0 100.5 -17t54 -44.5t22.5 -58.5t5 -59v-19q0 -22 -6 -49t-23 -53t-48.5 -44t-82.5 -21q13 -7 33 -21.5t41.5 -31.5t39.5 -31t28 -20q36 -21 64 -29t46 -9
t21 -1l-20 -81q-9 -3 -30 -6.5t-49 -3.5zM372 314q38 0 68 1.5t54 3.5q44 5 61.5 24.5t17.5 50.5v23q0 32 -17 54t-61 22h-273v-174q44 -3 81 -4t69 -1zM384 776q-58 0 -90.5 -14t-46 -39t-13.5 -57q0 -25 14.5 -25t23.5 14q15 25 37.5 38t74.5 13q53 0 73.5 -13t36.5 -38
q11 -16 25.5 -15t14.5 26q0 54 -31.5 82t-118.5 28z" />
    <glyph glyph-name="uni0213" unicode="&#x213;" horiz-adv-x="501" 
d="M60 0v448h82l38 -20q26 14 56 22t76 8q73 0 118.5 -16t60.5 -24l-35 -87q-12 6 -39.5 15.5t-64.5 17.5t-81 8h-11q-48 0 -62.5 -19t-15.5 -63v-290h-122zM286 646q-58 0 -90.5 -14t-46 -39t-13.5 -57q0 -25 14.5 -25t23.5 14q15 25 37.5 38t74.5 13q53 0 73.5 -13
t36.5 -38q11 -16 25.5 -15t14.5 26q0 54 -31.5 82t-118.5 28z" />
    <glyph glyph-name="uni0214" unicode="&#x214;" horiz-adv-x="766" 
d="M228 -10q-91 0 -127 49t-36 130v419h132v-423q0 -47 23 -63t57 -16h212q32 0 56 16.5t24 62.5v423h132v-419q0 -54 -15 -94t-50 -62.5t-97 -22.5h-311zM340 648q0 13 -9.5 36.5t-21.5 47t-19 35.5q-9 14 -22.5 21.5t-37.5 7.5h-11q-39 0 -39 -29q0 -15 18.5 -38t44 -44.5
t47.5 -35.5q16 -10 33 -15t17 14zM500 646q0 13 -9.5 36.5t-21.5 47t-19 35.5q-9 14 -22.5 21.5t-37.5 7.5h-11q-39 0 -39 -29q0 -15 18.5 -38t44 -44.5t47.5 -35.5q16 -10 33 -15t17 14z" />
    <glyph glyph-name="uni0215" unicode="&#x215;" 
d="M192 0q-49 0 -76.5 13t-39 33t-14 42t-2.5 40v320h122v-322q-1 -22 14.5 -31t33.5 -9h198q22 0 26 4t4 26v332h122v-448h-82l-38 20q-40 -8 -94.5 -14t-122.5 -6h-51zM275 518q0 13 -9.5 36.5t-21.5 47t-19 35.5q-9 14 -22.5 21.5t-37.5 7.5h-11q-39 0 -39 -29
q0 -15 18.5 -38t44 -44.5t47.5 -35.5q16 -10 33 -15t17 14zM435 516q0 13 -9.5 36.5t-21.5 47t-19 35.5q-9 14 -22.5 21.5t-37.5 7.5h-11q-39 0 -39 -29q0 -15 18.5 -38t44 -44.5t47.5 -35.5q16 -10 33 -15t17 14z" />
    <glyph glyph-name="uni0216" unicode="&#x216;" horiz-adv-x="766" 
d="M228 -10q-91 0 -127 49t-36 130v419h132v-423q0 -47 23 -63t57 -16h212q32 0 56 16.5t24 62.5v423h132v-419q0 -54 -15 -94t-50 -62.5t-97 -22.5h-311zM385 766q-58 0 -90.5 -14t-46 -39t-13.5 -57q0 -25 14.5 -25t23.5 14q15 25 37.5 38t74.5 13q53 0 73.5 -13t36.5 -38
q11 -16 25.5 -15t14.5 26q0 54 -31.5 82t-118.5 28z" />
    <glyph glyph-name="uni0217" unicode="&#x217;" 
d="M192 0q-49 0 -76.5 13t-39 33t-14 42t-2.5 40v320h122v-322q-1 -22 14.5 -31t33.5 -9h198q22 0 26 4t4 26v332h122v-448h-82l-38 20q-40 -8 -94.5 -14t-122.5 -6h-51zM320 636q-58 0 -90.5 -14t-46 -39t-13.5 -57q0 -25 14.5 -25t23.5 14q15 25 37.5 38t74.5 13
q53 0 73.5 -13t36.5 -38q11 -16 25.5 -15t14.5 26q0 54 -31.5 82t-118.5 28z" />
    <glyph glyph-name="uni0218" unicode="&#x218;" horiz-adv-x="756" 
d="M192 0q-68 0 -100 6t-32 14l40 87q23 -4 114.5 -7.5t251.5 -3.5h19q43 0 61 15.5t18 52.5v20q0 35 -14.5 50t-64.5 15h-232q-101 0 -147 37.5t-46 122.5v16q0 44 16.5 81t56.5 59.5t110 22.5h272q68 0 110 -7t42 -15l-20 -84q-26 3 -118 6.5t-247 3.5l-11 1
q-46 0 -62 -18.5t-17 -46.5v-17q0 -33 18.5 -49.5t61.5 -16.5h222q64 0 109 -13t69 -47.5t24 -101.5v-16q0 -75 -38.5 -121t-133.5 -46h-332zM337.077 -274.054q-17.3564 -4.95898 -20.249 4.5459q-2.89258 9.50391 2.89258 19.4219q4.95898 6.61133 13.6367 21.4883
q8.67871 14.877 16.9434 33.4727t10.7441 37.6045q-21.4883 3.30566 -31.4062 15.7031t-9.91797 38.0176q0 28.9268 13.6367 40.9111q13.6377 11.9834 45.043 11.9834q33.8857 0 50.8291 -14.4629q16.9424 -14.4639 16.9424 -47.5225q0 -23.9678 -10.3311 -50.415
t-26.8604 -50.002t-35.5381 -39.6709q-19.0098 -16.1162 -36.3652 -21.0752z" />
    <glyph glyph-name="uni0219" unicode="&#x219;" horiz-adv-x="638" 
d="M173 0q-67 0 -95 7t-28 14l30 75q29 -3 106.5 -6.5t191.5 -3.5h50q25 0 31.5 13.5t6.5 36.5t-7.5 37t-30.5 14h-246q-70 0 -101 26.5t-31 79.5v40q0 14 3 33t15 38t39 31.5t75 12.5h276q60 0 85 -7t25 -14l-10 -75q-29 3 -107 6.5t-191 3.5h-50q-25 0 -31.5 -13.5
t-6.5 -31.5q0 -19 6.5 -31.5t31.5 -12.5h246q68 0 100 -28t32 -71v-59q0 -18 -2.5 -38t-14.5 -37.5t-39 -28.5t-76 -11h-283zM268.077 -274.054q-17.3564 -4.95898 -20.249 4.5459q-2.89258 9.50391 2.89258 19.4219q4.95898 6.61133 13.6367 21.4883
q8.67871 14.877 16.9434 33.4727t10.7441 37.6045q-21.4883 3.30566 -31.4062 15.7031t-9.91797 38.0176q0 28.9268 13.6367 40.9111q13.6377 11.9834 45.043 11.9834q33.8857 0 50.8291 -14.4629q16.9424 -14.4639 16.9424 -47.5225q0 -23.9678 -10.3311 -50.415
t-26.8604 -50.002t-35.5381 -39.6709q-19.0098 -16.1162 -36.3652 -21.0752z" />
    <glyph glyph-name="uni021A" unicode="&#x21a;" horiz-adv-x="694" 
d="M281 0l-1 493h-260v96h654v-96h-261v-493h-132zM297.077 -274.054q-17.3564 -4.95898 -20.249 4.5459q-2.89258 9.50391 2.89258 19.4219q4.95898 6.61133 13.6367 21.4883q8.67871 14.877 16.9434 33.4727t10.7441 37.6045q-21.4883 3.30566 -31.4062 15.7031
t-9.91797 38.0176q0 28.9268 13.6367 40.9111q13.6377 11.9834 45.043 11.9834q33.8857 0 50.8291 -14.4629q16.9424 -14.4639 16.9424 -47.5225q0 -23.9678 -10.3311 -50.415t-26.8604 -50.002t-35.5381 -39.6709q-19.0098 -16.1162 -36.3652 -21.0752z" />
    <glyph glyph-name="uni021B" unicode="&#x21b;" horiz-adv-x="452" 
d="M234 0q-76 0 -104 32t-28 96v234h-82v86h42q19 0 27.5 6t12.5 24l20 107h102v-137h208v-86h-208v-235q0 -25 12 -33t36 -8h141l10 -76q-21 -3 -64 -6.5t-94 -3.5h-31zM166.077 -274.054q-17.3564 -4.95898 -20.249 4.5459q-2.89258 9.50391 2.89258 19.4219
q4.95898 6.61133 13.6367 21.4883q8.67871 14.877 16.9434 33.4727t10.7441 37.6045q-21.4883 3.30566 -31.4062 15.7031t-9.91797 38.0176q0 28.9268 13.6367 40.9111q13.6377 11.9834 45.043 11.9834q33.8857 0 50.8291 -14.4629q16.9424 -14.4639 16.9424 -47.5225
q0 -23.9678 -10.3311 -50.415t-26.8604 -50.002t-35.5381 -39.6709q-19.0098 -16.1162 -36.3652 -21.0752z" />
    <glyph glyph-name="uni022A" unicode="&#x22a;" horiz-adv-x="797" 
d="M253 0q-70 0 -110 20t-56.5 60t-16.5 99v231q0 58 16 97.5t56 60t111 20.5h292q70 0 109.5 -20.5t56 -60t16.5 -97.5v-231q0 -88 -39 -133.5t-143 -45.5h-292zM282 96h235q37 0 57.5 19t20.5 52v255q0 29 -21 49.5t-57 20.5h-235q-36 0 -58 -19t-22 -51v-255
q0 -34 21.5 -52.5t58.5 -18.5zM477.798 651q-30.5791 0 -44.6299 12.3975q-14.0498 12.3965 -14.0498 41.3232q0 29.7539 13.6367 41.7373q13.6367 11.9844 45.043 11.9844t45.4561 -11.9844q14.0508 -11.9834 14.0508 -41.7373q0 -28.0996 -14.0508 -40.9102
q-14.0498 -12.8105 -45.4561 -12.8105zM319.798 651q-30.5791 0 -44.6299 12.3975q-14.0498 12.3965 -14.0498 41.3232q0 29.7539 13.6367 41.7373q13.6367 11.9844 45.043 11.9844t45.4561 -11.9844q14.0508 -11.9834 14.0508 -41.7373q0 -28.0996 -14.0508 -40.9102
q-14.0498 -12.8105 -45.4561 -12.8105zM303 812q-20 0 -30 6.5t-10 26.5v6q0 20 9 25.5t31 5.5h192q20 0 30 -5.5t10 -25.5v-6q0 -20 -11 -26.5t-29 -6.5h-192z" />
    <glyph glyph-name="uni022B" unicode="&#x22b;" 
d="M182 0q-67 0 -99.5 27t-32.5 88v205q0 15 2.5 36.5t14 42.5t39 35t76.5 14h276q50 0 77 -14t38.5 -35t14 -42.5t2.5 -36.5v-192q0 -18 -2.5 -40t-14.5 -42t-39 -33t-76 -13h-276zM220 86h200q49 0 49 40v196q0 40 -49 40h-200q-48 0 -48 -40v-196q0 -40 48 -40z
M398.798 511q-30.5791 0 -44.6299 12.3975q-14.0498 12.3965 -14.0498 41.3232q0 29.7539 13.6367 41.7373q13.6367 11.9844 45.043 11.9844t45.4561 -11.9844q14.0508 -11.9834 14.0508 -41.7373q0 -28.0996 -14.0508 -40.9102q-14.0498 -12.8105 -45.4561 -12.8105z
M240.798 511q-30.5791 0 -44.6299 12.3975q-14.0498 12.3965 -14.0498 41.3232q0 29.7539 13.6367 41.7373q13.6367 11.9844 45.043 11.9844t45.4561 -11.9844q14.0508 -11.9834 14.0508 -41.7373q0 -28.0996 -14.0508 -40.9102q-14.0498 -12.8105 -45.4561 -12.8105z
M224 672q-20 0 -30 6.5t-10 26.5v6q0 20 9 25.5t31 5.5h192q20 0 30 -5.5t10 -25.5v-6q0 -20 -11 -26.5t-29 -6.5h-192z" />
    <glyph glyph-name="uni022C" unicode="&#x22c;" horiz-adv-x="797" 
d="M253 0q-70 0 -110 20t-56.5 60t-16.5 99v231q0 58 16 97.5t56 60t111 20.5h292q70 0 109.5 -20.5t56 -60t16.5 -97.5v-231q0 -88 -39 -133.5t-143 -45.5h-292zM282 96h235q37 0 57.5 19t20.5 52v255q0 29 -21 49.5t-57 20.5h-235q-36 0 -58 -19t-22 -51v-255
q0 -34 21.5 -52.5t58.5 -18.5zM469 640q-28 0 -48.5 10.5t-36.5 24.5t-31.5 24.5t-34.5 10.5q-25 0 -34.5 -17.5t-14.5 -32.5q-4 -12 -14 -16.5t-18.5 1.5t-8.5 24q0 44 25.5 77.5t74.5 33.5q28 0 47.5 -10.5t35 -24.5t32 -24.5t37.5 -10.5q23 0 34 17.5t15 32.5
q4 13 13.5 17.5t18.5 -1.5t9 -25q0 -27 -10.5 -52.5t-33 -42t-57.5 -16.5zM303 852q-20 0 -30 6.5t-10 26.5v6q0 20 9 25.5t31 5.5h192q20 0 30 -5.5t10 -25.5v-6q0 -20 -11 -26.5t-29 -6.5h-192z" />
    <glyph glyph-name="uni022D" unicode="&#x22d;" 
d="M182 0q-67 0 -99.5 27t-32.5 88v205q0 15 2.5 36.5t14 42.5t39 35t76.5 14h276q50 0 77 -14t38.5 -35t14 -42.5t2.5 -36.5v-192q0 -18 -2.5 -40t-14.5 -42t-39 -33t-76 -13h-276zM220 86h200q49 0 49 40v196q0 40 -49 40h-200q-48 0 -48 -40v-196q0 -40 48 -40zM390 500
q-28 0 -48.5 10.5t-36.5 24.5t-31.5 24.5t-34.5 10.5q-25 0 -34.5 -17.5t-14.5 -32.5q-4 -12 -14 -16.5t-18.5 1.5t-8.5 24q0 44 25.5 77.5t74.5 33.5q28 0 47.5 -10.5t35 -24.5t32 -24.5t37.5 -10.5q23 0 34 17.5t15 32.5q4 13 13.5 17.5t18.5 -1.5t9 -25
q0 -27 -10.5 -52.5t-33 -42t-57.5 -16.5zM224 712q-20 0 -30 6.5t-10 26.5v6q0 20 9 25.5t31 5.5h192q20 0 30 -5.5t10 -25.5v-6q0 -20 -11 -26.5t-29 -6.5h-192z" />
    <glyph glyph-name="uni0230" unicode="&#x230;" horiz-adv-x="797" 
d="M253 0q-70 0 -110 20t-56.5 60t-16.5 99v231q0 58 16 97.5t56 60t111 20.5h292q70 0 109.5 -20.5t56 -60t16.5 -97.5v-231q0 -88 -39 -133.5t-143 -45.5h-292zM282 96h235q37 0 57.5 19t20.5 52v255q0 29 -21 49.5t-57 20.5h-235q-36 0 -58 -19t-22 -51v-255
q0 -34 21.5 -52.5t58.5 -18.5zM398.798 651q-30.5791 0 -44.6299 12.3975q-14.0498 12.3965 -14.0498 41.3232q0 29.7539 13.6367 41.7373q13.6367 11.9844 45.043 11.9844t45.4561 -11.9844q14.0508 -11.9834 14.0508 -41.7373q0 -28.0996 -14.0508 -40.9102
q-14.0498 -12.8105 -45.4561 -12.8105zM301 812q-20 0 -30 6.5t-10 26.5v6q0 20 9 25.5t31 5.5h192q20 0 30 -5.5t10 -25.5v-6q0 -20 -11 -26.5t-29 -6.5h-192z" />
    <glyph glyph-name="uni0231" unicode="&#x231;" 
d="M182 0q-67 0 -99.5 27t-32.5 88v205q0 15 2.5 36.5t14 42.5t39 35t76.5 14h276q50 0 77 -14t38.5 -35t14 -42.5t2.5 -36.5v-192q0 -18 -2.5 -40t-14.5 -42t-39 -33t-76 -13h-276zM220 86h200q49 0 49 40v196q0 40 -49 40h-200q-48 0 -48 -40v-196q0 -40 48 -40z
M319.798 511q-30.5791 0 -44.6299 12.3975q-14.0498 12.3965 -14.0498 41.3232q0 29.7539 13.6367 41.7373q13.6367 11.9844 45.043 11.9844t45.4561 -11.9844q14.0508 -11.9834 14.0508 -41.7373q0 -28.0996 -14.0508 -40.9102q-14.0498 -12.8105 -45.4561 -12.8105z
M222 672q-20 0 -30 6.5t-10 26.5v6q0 20 9 25.5t31 5.5h192q20 0 30 -5.5t10 -25.5v-6q0 -20 -11 -26.5t-29 -6.5h-192z" />
    <glyph glyph-name="uni0232" unicode="&#x232;" horiz-adv-x="738" 
d="M301 0v244l-291 344h160l148 -187l46 -62h10l46 62l148 187h160l-39 -60l-256 -288v-240h-132zM273 660q-20 0 -30 6.5t-10 26.5v6q0 20 9 25.5t31 5.5h192q20 0 30 -5.5t10 -25.5v-6q0 -20 -11 -26.5t-29 -6.5h-192z" />
    <glyph glyph-name="uni0233" unicode="&#x233;" horiz-adv-x="591" 
d="M102 -196q-48 0 -88 11t-54 20l30 90q17 -7 48.5 -16.5t71.5 -9.5h11q46 0 81.5 27.5t54.5 73.5h-50l-196 448h140l115 -276l26 -72h10l26 72l117 276h136l-16 -61q-19 -39 -43.5 -89.5t-50.5 -104.5t-50.5 -104t-43.5 -89q-29 -60 -63.5 -104t-79 -68t-105.5 -24h-27z
M195 520q-20 0 -30 6.5t-10 26.5v6q0 20 9 25.5t31 5.5h192q20 0 30 -5.5t10 -25.5v-6q0 -20 -11 -26.5t-29 -6.5h-192z" />
    <glyph glyph-name="uni0237" unicode="&#x237;" horiz-adv-x="264" 
d="M39 -176q-29 0 -56.5 4.5t-45 11.5t-17.5 14l20 60q12 -3 34.5 -6.5t47.5 -3.5q27 0 43.5 13t16.5 53v478h122v-478q0 -55 -20.5 -87t-54.5 -45.5t-77 -13.5h-13z" />
    <glyph glyph-name="uni0259" unicode="&#x259;" horiz-adv-x="656" 
d="M194 0q-76 0 -110 35.5t-34 97.5v135h195q75 0 135 -4t99 -8v66q0 13 -11 26.5t-37 13.5h-50q-109 0 -182 -3.5t-99 -6.5l-11 76q0 14 76 17t254 3h50q50 0 77 -14t38.5 -35t14 -42.5t2.5 -36.5v-189q0 -40 -14 -63.5t-52 -40.5q-34 -15 -101.5 -21t-159.5 -6h-80z
M220 86h189q34 0 52 12t18 58v36h-307v-54q0 -28 12 -40t36 -12z" />
    <glyph glyph-name="uni0272" unicode="&#x272;" horiz-adv-x="677" 
d="M39 -176q-29 0 -56.5 4.5t-45 11.5t-17.5 14l20 60q12 -3 34.5 -6.5t47.5 -3.5q27 0 43.5 13t16.5 53v478h82l40 -20q42 8 101 14t135 6h50q50 0 77 -14t38.5 -35t14 -42.5t2.5 -36.5v-320h-122v322q0 40 -48 40h-218q-19 0 -24.5 -4t-5.5 -18v-370q0 -55 -20.5 -87
t-54.5 -45.5t-77 -13.5h-13z" />
    <glyph glyph-name="uni02B9" unicode="&#x2b9;" horiz-adv-x="600" 
d="M100 500q-10 0 -19 17.5t-16.5 44.5t-13 57t-8.5 56.5t-3 40.5q0 28 11 41t49 13t50 -13t12 -41q0 -14 -3 -40t-9 -56t-13.5 -57.5t-17 -45t-19.5 -17.5z" />
    <glyph glyph-name="uni02BA" unicode="&#x2ba;" horiz-adv-x="362" 
d="M260 500q-10 0 -19 17.5t-16.5 44.5t-13 57t-8.5 56.5t-3 40.5q0 28 11 41t49 13t50 -13t12 -41q0 -14 -3 -40t-9 -56t-13.5 -57.5t-17 -45t-19.5 -17.5zM100 500q-10 0 -19 17.5t-16.5 44.5t-13 57t-8.5 56.5t-3 40.5q0 28 11 41t49 13t50 -13t12 -41q0 -14 -3 -40
t-9 -56t-13.5 -57.5t-17 -45t-19.5 -17.5z" />
    <glyph glyph-name="uni02BC" unicode="&#x2bc;" horiz-adv-x="193" 
d="M66 502q-21 -6 -24.5 5.5t3.5 23.5q6 8 16.5 26t20.5 40.5t13 45.5q-26 4 -38 19t-12 46q0 35 16.5 49.5t54.5 14.5q41 0 61.5 -17.5t20.5 -57.5q0 -29 -12.5 -61t-32.5 -60.5t-43 -48t-44 -25.5z" />
    <glyph glyph-name="circumflex" unicode="&#x2c6;" horiz-adv-x="321" 
d="M20 526q0 9 15 29t33.5 40t28.5 29q13 12 24 17t28 5h30q18 0 30 -7.5t20 -15.5q11 -11 28 -31.5t30.5 -39.5t13.5 -26q0 -11 -15.5 -12t-34.5 12l-87 58l-94 -58q-50 -31 -50 0z" />
    <glyph glyph-name="caron" unicode="&#x2c7;" horiz-adv-x="321" 
d="M57 630q0 -9 15 -29t33.5 -40t28.5 -29q13 -12 24 -17t28 -5h30q18 0 30 7.5t20 15.5q11 11 28 31.5t30.5 39.5t13.5 26q0 11 -15.5 12t-34.5 -12l-87 -58l-94 58q-50 31 -50 0z" />
    <glyph glyph-name="uni02C9" unicode="&#x2c9;" horiz-adv-x="600" 
d="M170 536q-20 0 -30 6.5t-10 26.5v6q0 20 9 25.5t31 5.5h192q20 0 30 -5.5t10 -25.5v-6q0 -20 -11 -26.5t-29 -6.5h-192z" />
    <glyph glyph-name="breve" unicode="&#x2d8;" horiz-adv-x="340" 
d="M170 520q-58 0 -90.5 14t-46 39t-13.5 57q0 25 14.5 25t23.5 -14q15 -25 37.5 -38t74.5 -13q53 0 73.5 13t36.5 38q11 16 25.5 15t14.5 -26q0 -54 -31.5 -82t-118.5 -28z" />
    <glyph glyph-name="dotaccent" unicode="&#x2d9;" horiz-adv-x="192" 
d="M97.7979 521q-30.5791 0 -44.6299 12.3975q-14.0498 12.3965 -14.0498 41.3232q0 29.7539 13.6367 41.7373q13.6367 11.9844 45.043 11.9844t45.4561 -11.9844q14.0508 -11.9834 14.0508 -41.7373q0 -28.0996 -14.0508 -40.9102q-14.0498 -12.8105 -45.4561 -12.8105z
" />
    <glyph glyph-name="ring" unicode="&#x2da;" horiz-adv-x="292" 
d="M122 510q-44 0 -66 12t-29 32t-7 44v11q0 20 6.5 40.5t28 34t67.5 13.5h47q44 0 66 -13.5t29 -34t7 -40.5v-11q0 -24 -7 -44t-29 -32t-66 -12h-47zM121 576h48q11 0 15.5 6.5t4.5 13.5v14q0 7 -4.5 13.5t-15.5 6.5h-48q-12 0 -16.5 -6.5t-3.5 -13.5v-14q-1 -7 3.5 -13.5
t16.5 -6.5z" />
    <glyph glyph-name="ogonek" unicode="&#x2db;" horiz-adv-x="261" 
d="M125 -183q-46 0 -70.5 26t-24.5 60q0 30 13.5 50.5t31.5 33t31 16.5q26 8 47.5 7t21.5 -10q0 -7 -11 -13t-26 -14.5t-26 -21.5t-11 -33q0 -31 37 -31q33 0 50 9.5t32 9.5q13 0 11 -13.5t-13 -30.5t-33 -31t-60 -14z" />
    <glyph glyph-name="tilde" unicode="&#x2dc;" horiz-adv-x="402" 
d="M281 510q-28 0 -48.5 10.5t-36.5 24.5t-31.5 24.5t-34.5 10.5q-25 0 -34.5 -17.5t-14.5 -32.5q-4 -12 -14 -16.5t-18.5 1.5t-8.5 24q0 44 25.5 77.5t74.5 33.5q28 0 47.5 -10.5t35 -24.5t32 -24.5t37.5 -10.5q23 0 34 17.5t15 32.5q4 13 13.5 17.5t18.5 -1.5t9 -25
q0 -27 -10.5 -52.5t-33 -42t-57.5 -16.5z" />
    <glyph glyph-name="hungarumlaut" unicode="&#x2dd;" horiz-adv-x="390" 
d="M240 508q0 13 9.5 36.5t21.5 47t19 35.5q9 14 22.5 21.5t37.5 7.5h11q39 0 39 -29q0 -15 -18.5 -38t-44 -44.5t-47.5 -35.5q-16 -10 -33 -15t-17 14zM80 506q0 13 9.5 36.5t21.5 47t19 35.5q9 14 22.5 21.5t37.5 7.5h11q39 0 39 -29q0 -15 -18.5 -38t-44 -44.5
t-47.5 -35.5q-16 -10 -33 -15t-17 14z" />
    <glyph glyph-name="gravecomb" unicode="&#x300;" horiz-adv-x="0" 
d="M-150 518q0 13 -9.5 36.5t-21.5 47t-19 35.5q-9 14 -22.5 21.5t-37.5 7.5h-11q-39 0 -39 -29q0 -15 18.5 -38t44 -44.5t47.5 -35.5q16 -10 33 -15t17 14z" />
    <glyph glyph-name="acutecomb" unicode="&#x301;" horiz-adv-x="0" 
d="M-390 518q0 13 9.5 36.5t21.5 47t19 35.5q9 14 22.5 21.5t37.5 7.5h11q39 0 39 -29q0 -15 -18.5 -38t-44 -44.5t-47.5 -35.5q-16 -10 -33 -15t-17 14z" />
    <glyph glyph-name="uni0302" unicode="&#x302;" horiz-adv-x="0" 
d="M-400 526q0 9 15 29t33.5 40t28.5 29q13 12 24 17t28 5h30q18 0 30 -7.5t20 -15.5q11 -11 28 -31.5t30.5 -39.5t13.5 -26q0 -11 -15.5 -12t-34.5 12l-87 58l-94 -58q-50 -31 -50 0z" />
    <glyph glyph-name="tildecomb" unicode="&#x303;" horiz-adv-x="0" 
d="M-169 510q-28 0 -48.5 10.5t-36.5 24.5t-31.5 24.5t-34.5 10.5q-25 0 -34.5 -17.5t-14.5 -32.5q-4 -12 -14 -16.5t-18.5 1.5t-8.5 24q0 44 25.5 77.5t74.5 33.5q28 0 47.5 -10.5t35 -24.5t32 -24.5t37.5 -10.5q23 0 34 17.5t15 32.5q4 13 13.5 17.5t18.5 -1.5t9 -25
q0 -27 -10.5 -52.5t-33 -42t-57.5 -16.5z" />
    <glyph glyph-name="uni0304" unicode="&#x304;" horiz-adv-x="0" 
d="M-300 540q-20 0 -30 6.5t-10 26.5v6q0 20 9 25.5t31 5.5h192q20 0 30 -5.5t10 -25.5v-6q0 -20 -11 -26.5t-29 -6.5h-192z" />
    <glyph glyph-name="uni0306" unicode="&#x306;" horiz-adv-x="0" 
d="M-250 520q-58 0 -90.5 14t-46 39t-13.5 57q0 25 14.5 25t23.5 -14q15 -25 37.5 -38t74.5 -13q53 0 73.5 13t36.5 38q11 16 25.5 15t14.5 -26q0 -54 -31.5 -82t-118.5 -28z" />
    <glyph glyph-name="uni0307" unicode="&#x307;" horiz-adv-x="0" 
d="M-232.202 521q-30.5791 0 -44.6299 12.3975q-14.0498 12.3965 -14.0498 41.3232q0 29.7539 13.6367 41.7373q13.6367 11.9844 45.043 11.9844t45.4561 -11.9844q14.0508 -11.9834 14.0508 -41.7373q0 -28.0996 -14.0508 -40.9102q-14.0498 -12.8105 -45.4561 -12.8105z
" />
    <glyph glyph-name="uni0308" unicode="&#x308;" horiz-adv-x="0" 
d="M-255.202 541q-30.5791 0 -44.6299 12.3975q-14.0498 12.3965 -14.0498 41.3232q0 29.7539 13.6367 41.7373q13.6367 11.9844 45.043 11.9844t45.4561 -11.9844q14.0508 -11.9834 14.0508 -41.7373q0 -28.0996 -14.0508 -40.9102q-14.0498 -12.8105 -45.4561 -12.8105z
M-413.202 541q-30.5791 0 -44.6299 12.3975q-14.0498 12.3965 -14.0498 41.3232q0 29.7539 13.6367 41.7373q13.6367 11.9844 45.043 11.9844t45.4561 -11.9844q14.0508 -11.9834 14.0508 -41.7373q0 -28.0996 -14.0508 -40.9102q-14.0498 -12.8105 -45.4561 -12.8105z" />
    <glyph glyph-name="hookabovecomb" unicode="&#x309;" horiz-adv-x="0" 
d="M-220 507q-11 9 -11 33q23 14 44 32t21 42q0 28 -32 28q-18 0 -32.5 -6t-29.5 -14q-16 -9 -28 -7.5t-12 23.5t16 38.5t42.5 26t55.5 9.5h10q41 0 63.5 -23.5t22.5 -52.5q0 -24 -7 -42.5t-21 -36.5q-13 -17 -27 -27.5t-26 -17.5q-14 -8 -28 -9t-21 4z" />
    <glyph glyph-name="uni030A" unicode="&#x30a;" horiz-adv-x="0" 
d="M-268 510q-44 0 -66 12t-29 32t-7 44v11q0 20 6.5 40.5t28 34t67.5 13.5h47q44 0 66 -13.5t29 -34t7 -40.5v-11q0 -24 -7 -44t-29 -32t-66 -12h-47zM-269 576h48q11 0 15.5 6.5t4.5 13.5v14q0 7 -4.5 13.5t-15.5 6.5h-48q-12 0 -16.5 -6.5t-3.5 -13.5v-14
q-1 -7 3.5 -13.5t16.5 -6.5z" />
    <glyph glyph-name="uni030B" unicode="&#x30b;" horiz-adv-x="0" 
d="M-250 508q0 13 9.5 36.5t21.5 47t19 35.5q9 14 22.5 21.5t37.5 7.5h11q39 0 39 -29q0 -15 -18.5 -38t-44 -44.5t-47.5 -35.5q-16 -10 -33 -15t-17 14zM-410 506q0 13 9.5 36.5t21.5 47t19 35.5q9 14 22.5 21.5t37.5 7.5h11q39 0 39 -29q0 -15 -18.5 -38t-44 -44.5
t-47.5 -35.5q-16 -10 -33 -15t-17 14z" />
    <glyph glyph-name="uni030C" unicode="&#x30c;" horiz-adv-x="0" 
d="M-363 630q0 -9 15 -29t33.5 -40t28.5 -29q13 -12 24 -17t28 -5h30q18 0 30 7.5t20 15.5q11 11 28 31.5t30.5 39.5t13.5 26q0 11 -15.5 12t-34.5 -12l-87 -58l-94 58q-50 31 -50 0z" />
    <glyph glyph-name="uni030F" unicode="&#x30f;" horiz-adv-x="0" 
d="M-360 548q0 13 -9.5 36.5t-21.5 47t-19 35.5q-9 14 -22.5 21.5t-37.5 7.5h-11q-39 0 -39 -29q0 -15 18.5 -38t44 -44.5t47.5 -35.5q16 -10 33 -15t17 14zM-200 546q0 13 -9.5 36.5t-21.5 47t-19 35.5q-9 14 -22.5 21.5t-37.5 7.5h-11q-39 0 -39 -29q0 -15 18.5 -38
t44 -44.5t47.5 -35.5q16 -10 33 -15t17 14z" />
    <glyph glyph-name="uni0311" unicode="&#x311;" horiz-adv-x="0" 
d="M-250 696q-58 0 -90.5 -14t-46 -39t-13.5 -57q0 -25 14.5 -25t23.5 14q15 25 37.5 38t74.5 13q53 0 73.5 -13t36.5 -38q11 -16 25.5 -15t14.5 26q0 54 -31.5 82t-118.5 28z" />
    <glyph glyph-name="uni0312" unicode="&#x312;" horiz-adv-x="0" 
d="M-164 776q21 6 24.5 -5.5t-3.5 -23.5q-6 -8 -16.5 -26t-20.5 -40.5t-13 -45.5q26 -4 38 -19t12 -46q0 -35 -16.5 -49.5t-54.5 -14.5q-41 0 -61.5 17.5t-20.5 57.5q0 29 12.5 61t32.5 60.5t43 48t44 25.5z" />
    <glyph glyph-name="uni031B" unicode="&#x31b;" horiz-adv-x="0" 
d="M96 298q-31 0 -57 9t-37 17t-13 21t13 13h52q37 0 48 14.5t11 48.5v39q0 30 30 30h31q30 0 30 -30v-24q0 -138 -108 -138z" />
    <glyph glyph-name="uni0321" unicode="&#x321;" horiz-adv-x="0" 
d="M-211 -180q-38 0 -69.5 17t-45.5 43q-7 14 -0.5 23.5t21.5 6.5q14 -3 32 -11.5t45 -8.5q24 0 33 15t10 37t1 42v19h81v-59q0 -61 -30 -92.5t-78 -31.5z" />
    <glyph glyph-name="dotbelowcomb" unicode="&#x323;" horiz-adv-x="0" 
d="M-235.723 -159q-33.6377 0 -49.0928 13.6367t-15.4551 45.4561q0 32.7285 15 45.9102q15.001 13.1826 49.5479 13.1826q34.5459 0 50.001 -13.1826q15.4551 -13.1816 15.4551 -45.9102q0 -30.9102 -15.4551 -45.001q-15.4551 -14.0918 -50.001 -14.0918z" />
    <glyph glyph-name="uni0324" unicode="&#x324;" horiz-adv-x="0" 
d="M-262.009 -263.167q-27.7998 0 -40.5742 11.2705q-12.7725 11.2705 -12.7725 37.5684q0 27.0498 12.3975 37.9443q12.3965 10.8945 40.9492 10.8945q28.5518 0 41.3242 -10.8945q12.7744 -10.8945 12.7744 -37.9443q0 -25.5459 -12.7744 -37.1924
q-12.7725 -11.6465 -41.3242 -11.6465zM-405.649 -263.167q-27.8008 0 -40.5742 11.2705q-12.7725 11.2705 -12.7725 37.5684q0 27.0498 12.3965 37.9443q12.3975 10.8945 40.9502 10.8945q28.5518 0 41.3242 -10.8945q12.7744 -10.8945 12.7744 -37.9443
q0 -25.5459 -12.7744 -37.1924q-12.7725 -11.6465 -41.3242 -11.6465z" />
    <glyph glyph-name="uni0326" unicode="&#x326;" horiz-adv-x="0" 
d="M-294.923 -274.054q-17.3564 -4.95898 -20.249 4.5459q-2.89258 9.50391 2.89258 19.4219q4.95898 6.61133 13.6367 21.4883q8.67871 14.877 16.9434 33.4727t10.7441 37.6045q-21.4883 3.30566 -31.4062 15.7031t-9.91797 38.0176q0 28.9268 13.6367 40.9111
q13.6377 11.9834 45.043 11.9834q33.8857 0 50.8291 -14.4629q16.9424 -14.4639 16.9424 -47.5225q0 -23.9678 -10.3311 -50.415t-26.8604 -50.002t-35.5381 -39.6709q-19.0098 -16.1162 -36.3652 -21.0752z" />
    <glyph glyph-name="uni0327" unicode="&#x327;" horiz-adv-x="0" 
d="M116 -220q-43 0 -71 17t-40 36q-5 8 -5 17q0 8 6 13t16 2q19 -5 39.5 -10t46.5 -5q49 0 49 31q0 22 -29.5 28.5t-67.5 5.5q6 18 18 42.5t24 42.5t27 18t12 -18q-3 -15 -5.5 -27t-4.5 -23q44 -4 67.5 -25.5t23.5 -59.5q0 -36 -28 -60.5t-78 -24.5z" />
    <glyph glyph-name="uni0328" unicode="&#x328;" horiz-adv-x="0" 
d="M-205 -183q-46 0 -70.5 26t-24.5 60q0 30 13.5 50.5t31.5 33t31 16.5q26 8 47.5 7t21.5 -10q0 -7 -11 -13t-26 -14.5t-26 -21.5t-11 -33q0 -31 37 -31q33 0 50 9.5t32 9.5q13 0 11 -13.5t-13 -30.5t-33 -31t-60 -14z" />
    <glyph glyph-name="uni032E" unicode="&#x32e;" horiz-adv-x="0" 
d="M-250 -280q-58 0 -90.5 14t-46 39t-13.5 57q0 25 14.5 25t23.5 -14q15 -25 37.5 -38t74.5 -13q53 0 73.5 13t36.5 38q11 16 25.5 15t14.5 -26q0 -54 -31.5 -82t-118.5 -28z" />
    <glyph glyph-name="uni0331" unicode="&#x331;" horiz-adv-x="0" 
d="M-300 -270q-20 0 -30 6.5t-10 26.5v6q0 20 9 25.5t31 5.5h192q20 0 30 -5.5t10 -25.5v-6q0 -20 -11 -26.5t-29 -6.5h-192z" />
    <glyph glyph-name="uni0335" unicode="&#x335;" horiz-adv-x="0" 
d="M-490 195v75h412v-75h-412z" />
    <glyph glyph-name="uni0336" unicode="&#x336;" horiz-adv-x="0" 
d="M-550 200v76h501v-76h-501z" />
    <glyph glyph-name="uni0337" unicode="&#x337;" horiz-adv-x="0" 
d="M-500 49l1 83l347 157v-83z" />
    <glyph glyph-name="uni0338" unicode="&#x338;" horiz-adv-x="0" 
d="M-520 -80l417 668h90l-418 -668h-89z" />
    <glyph glyph-name="uni0394" unicode="&#x394;" horiz-adv-x="739" 
d="M10 0l325 625h73l321 -625h-719zM191 95h358l-177 354h-2z" />
    <glyph glyph-name="uni03A9" unicode="&#x3a9;" horiz-adv-x="879" 
d="M172 0q-34 0 -64.5 3.5t-49 12.5t-18.5 25l50 77q12 -12 40 -17t47 -5h109v20q-41 14 -73.5 30t-55.5 41t-35 66t-12 105v42q0 86 48 137t155 51h251q105 0 153.5 -51t48.5 -137v-42q0 -64 -10 -103t-31 -63t-53 -40.5t-76 -34.5v-21h203l40 -85q0 -4 -27 -7.5t-93 -3.5
h-125q-58 0 -94 27t-36 73q0 40 20.5 63t71.5 52q41 23 59.5 52.5t18.5 78.5v76q0 29 -21 49.5t-57 20.5h-234q-36 0 -58 -19t-22 -51v-76q0 -50 18 -80.5t62 -50.5q37 -16 58 -30.5t29.5 -34t8.5 -50.5q0 -21 -10.5 -44t-36.5 -39.5t-73 -16.5h-126z" />
    <glyph glyph-name="uni03BC" unicode="&#x3bc;" 
d="M60 -170v618h122v-322q-1 -22 14.5 -31t33.5 -9h198q22 0 26 4t4 26v332h122v-448h-82l-38 20q-40 -8 -94.5 -14t-122.5 -6h-51q-16 0 -30 2l20 -128v-44h-122z" />
    <glyph glyph-name="pi" unicode="&#x3c0;" horiz-adv-x="885" 
d="M656 -21q-82 0 -117 36t-35 103v374h-232v-492h-132v492h-60v96h617v-96h-61v-386q0 -16 12 -23.5t26 -7.5h21q21 0 40 3.5t29 7.5l41 -86q0 -5 -19 -10t-49 -8t-63 -3h-18z" />
    <glyph glyph-name="Wgrave" unicode="&#x1e80;" horiz-adv-x="1111" 
d="M225 0l-215 587h140l141 -384l23 -97h10l13 68l133 413h170l139 -413l18 -68h10l23 97l131 384h140l-10 -60l-206 -527h-170l-136 393l-20 64h-10l-19 -64l-135 -393h-170zM621 658q0 13 -9.5 36.5t-21.5 47t-19 35.5q-9 14 -22.5 21.5t-37.5 7.5h-11q-39 0 -39 -29
q0 -15 18.5 -38t44 -44.5t47.5 -35.5q16 -10 33 -15t17 14z" />
    <glyph glyph-name="wgrave" unicode="&#x1e81;" horiz-adv-x="861" 
d="M171 0l-161 448h140l81 -254l26 -89h10l15 79l69 264h160l73 -264l14 -79h10l27 91l76 252h140l-16 -61l-144 -387h-160l-83 275l-10 47h-10l-12 -47l-85 -275h-160zM496 518q0 13 -9.5 36.5t-21.5 47t-19 35.5q-9 14 -22.5 21.5t-37.5 7.5h-11q-39 0 -39 -29
q0 -15 18.5 -38t44 -44.5t47.5 -35.5q16 -10 33 -15t17 14z" />
    <glyph glyph-name="Wacute" unicode="&#x1e82;" horiz-adv-x="1111" 
d="M225 0l-215 587h140l141 -384l23 -97h10l13 68l133 413h170l139 -413l18 -68h10l23 97l131 384h140l-10 -60l-206 -527h-170l-136 393l-20 64h-10l-19 -64l-135 -393h-170zM521 658q0 13 9.5 36.5t21.5 47t19 35.5q9 14 22.5 21.5t37.5 7.5h11q39 0 39 -29
q0 -15 -18.5 -38t-44 -44.5t-47.5 -35.5q-16 -10 -33 -15t-17 14z" />
    <glyph glyph-name="wacute" unicode="&#x1e83;" horiz-adv-x="861" 
d="M171 0l-161 448h140l81 -254l26 -89h10l15 79l69 264h160l73 -264l14 -79h10l27 91l76 252h140l-16 -61l-144 -387h-160l-83 275l-10 47h-10l-12 -47l-85 -275h-160zM396 518q0 13 9.5 36.5t21.5 47t19 35.5q9 14 22.5 21.5t37.5 7.5h11q39 0 39 -29q0 -15 -18.5 -38
t-44 -44.5t-47.5 -35.5q-16 -10 -33 -15t-17 14z" />
    <glyph glyph-name="Wdieresis" unicode="&#x1e84;" horiz-adv-x="1111" 
d="M225 0l-215 587h140l141 -384l23 -97h10l13 68l133 413h170l139 -413l18 -68h10l23 97l131 384h140l-10 -60l-206 -527h-170l-136 393l-20 64h-10l-19 -64l-135 -393h-170zM634.798 651q-30.5791 0 -44.6299 12.3975q-14.0498 12.3965 -14.0498 41.3232
q0 29.7539 13.6367 41.7373q13.6367 11.9844 45.043 11.9844t45.4561 -11.9844q14.0508 -11.9834 14.0508 -41.7373q0 -28.0996 -14.0508 -40.9102q-14.0498 -12.8105 -45.4561 -12.8105zM476.798 651q-30.5791 0 -44.6299 12.3975q-14.0498 12.3965 -14.0498 41.3232
q0 29.7539 13.6367 41.7373q13.6367 11.9844 45.043 11.9844t45.4561 -11.9844q14.0508 -11.9834 14.0508 -41.7373q0 -28.0996 -14.0508 -40.9102q-14.0498 -12.8105 -45.4561 -12.8105z" />
    <glyph glyph-name="wdieresis" unicode="&#x1e85;" horiz-adv-x="861" 
d="M171 0l-161 448h140l81 -254l26 -89h10l15 79l69 264h160l73 -264l14 -79h10l27 91l76 252h140l-16 -61l-144 -387h-160l-83 275l-10 47h-10l-12 -47l-85 -275h-160zM509.798 511q-30.5791 0 -44.6299 12.3975q-14.0498 12.3965 -14.0498 41.3232
q0 29.7539 13.6367 41.7373q13.6367 11.9844 45.043 11.9844t45.4561 -11.9844q14.0508 -11.9834 14.0508 -41.7373q0 -28.0996 -14.0508 -40.9102q-14.0498 -12.8105 -45.4561 -12.8105zM351.798 511q-30.5791 0 -44.6299 12.3975q-14.0498 12.3965 -14.0498 41.3232
q0 29.7539 13.6367 41.7373q13.6367 11.9844 45.043 11.9844t45.4561 -11.9844q14.0508 -11.9834 14.0508 -41.7373q0 -28.0996 -14.0508 -40.9102q-14.0498 -12.8105 -45.4561 -12.8105z" />
    <glyph glyph-name="uni1E9E" unicode="&#x1e9e;" horiz-adv-x="795" 
d="M80 0v424q0 77 23 128.5t63.5 81.5t93.5 42.5t114 12.5q95 0 148.5 -10.5t63.5 -17.5v-82l-104 -173h111q78 0 110 -35.5t32 -84.5v-158q0 -18 -2.5 -40t-14.5 -42t-39 -33t-76 -13h-202q-68 0 -100 6t-32 14l40 87q19 -4 69.5 -7.5t126.5 -3.5h50q29 0 39 10.5t9 29.5
v132q1 22 -10 32t-38 10l-172 1q-15 0 -23 8.5t-8 21.5v43l92 194v3h-78q-85 0 -120 -39t-35 -125v-417h-131z" />
    <glyph glyph-name="uni1EA0" unicode="&#x1ea0;" horiz-adv-x="782" 
d="M0 0l293 588h197l292 -588h-154l-59 127h-358l-65 -127h-146zM247 225h285l-137 273h-10zM390.277 -89q-33.6377 0 -49.0928 13.6367t-15.4551 45.4561q0 32.7285 15 45.9102q15.001 13.1826 49.5479 13.1826q34.5459 0 50.001 -13.1826
q15.4551 -13.1816 15.4551 -45.9102q0 -30.9102 -15.4551 -45.001q-15.4551 -14.0918 -50.001 -14.0918z" />
    <glyph glyph-name="uni1EA1" unicode="&#x1ea1;" horiz-adv-x="651" 
d="M189 0q-76 0 -110 35.5t-34 97.5q0 65 35.5 100t108.5 35h51q75 0 135 -4t99 -8v66q0 9 -2 18.5t-12 15.5t-34 6h-50q-109 0 -182 -3.5t-99 -6.5l-11 76q0 14 76 17t254 3h50q50 0 77 -14t38.5 -35t14 -42.5t2.5 -36.5v-320h-82l-39 20q-42 -7 -101 -13.5t-135 -6.5h-50z
M215 86h229q22 0 26 4t4 25v77h-259q-27 0 -37.5 -13t-10.5 -41t12 -40t36 -12zM347.277 -169q-33.6377 0 -49.0928 13.6367t-15.4551 45.4561q0 32.7285 15 45.9102q15.001 13.1826 49.5479 13.1826q34.5459 0 50.001 -13.1826q15.4551 -13.1816 15.4551 -45.9102
q0 -30.9102 -15.4551 -45.001q-15.4551 -14.0918 -50.001 -14.0918z" />
    <glyph glyph-name="uni1EA2" unicode="&#x1ea2;" horiz-adv-x="782" 
d="M0 0l293 588h197l292 -588h-154l-59 127h-358l-65 -127h-146zM247 225h285l-137 273h-10zM367 637q-11 9 -11 33q23 14 44 32t21 42q0 28 -32 28q-18 0 -32.5 -6t-29.5 -14q-16 -9 -28 -7.5t-12 23.5t16 38.5t42.5 26t55.5 9.5h10q41 0 63.5 -23.5t22.5 -52.5
q0 -24 -7 -42.5t-21 -36.5q-13 -17 -27 -27.5t-26 -17.5q-14 -8 -28 -9t-21 4z" />
    <glyph glyph-name="uni1EA3" unicode="&#x1ea3;" horiz-adv-x="651" 
d="M189 0q-76 0 -110 35.5t-34 97.5q0 65 35.5 100t108.5 35h51q75 0 135 -4t99 -8v66q0 9 -2 18.5t-12 15.5t-34 6h-50q-109 0 -182 -3.5t-99 -6.5l-11 76q0 14 76 17t254 3h50q50 0 77 -14t38.5 -35t14 -42.5t2.5 -36.5v-320h-82l-39 20q-42 -7 -101 -13.5t-135 -6.5h-50z
M215 86h229q22 0 26 4t4 25v77h-259q-27 0 -37.5 -13t-10.5 -41t12 -40t36 -12zM321 497q-11 9 -11 33q23 14 44 32t21 42q0 28 -32 28q-18 0 -32.5 -6t-29.5 -14q-16 -9 -28 -7.5t-12 23.5t16 38.5t42.5 26t55.5 9.5h10q41 0 63.5 -23.5t22.5 -52.5q0 -24 -7 -42.5
t-21 -36.5q-13 -17 -27 -27.5t-26 -17.5q-14 -8 -28 -9t-21 4z" />
    <glyph glyph-name="uni1EA4" unicode="&#x1ea4;" horiz-adv-x="782" 
d="M0 0l293 588h197l292 -588h-154l-59 127h-358l-65 -127h-146zM247 225h285l-137 273h-10zM245 666q0 9 15 29t33.5 40t28.5 29q13 12 24 17t28 5h30q18 0 30 -7.5t20 -15.5q11 -11 28 -31.5t30.5 -39.5t13.5 -26q0 -11 -15.5 -12t-34.5 12l-87 58l-94 -58q-50 -31 -50 0z
M354 836q0 13 9.5 36.5t21.5 47t19 35.5q9 14 22.5 21.5t37.5 7.5h11q39 0 39 -29q0 -15 -18.5 -38t-44 -44.5t-47.5 -35.5q-16 -10 -33 -15t-17 14z" />
    <glyph glyph-name="uni1EA5" unicode="&#x1ea5;" horiz-adv-x="651" 
d="M189 0q-76 0 -110 35.5t-34 97.5q0 65 35.5 100t108.5 35h51q75 0 135 -4t99 -8v66q0 9 -2 18.5t-12 15.5t-34 6h-50q-109 0 -182 -3.5t-99 -6.5l-11 76q0 14 76 17t254 3h50q50 0 77 -14t38.5 -35t14 -42.5t2.5 -36.5v-320h-82l-39 20q-42 -7 -101 -13.5t-135 -6.5h-50z
M215 86h229q22 0 26 4t4 25v77h-259q-27 0 -37.5 -13t-10.5 -41t12 -40t36 -12zM199 526q0 9 15 29t33.5 40t28.5 29q13 12 24 17t28 5h30q18 0 30 -7.5t20 -15.5q11 -11 28 -31.5t30.5 -39.5t13.5 -26q0 -11 -15.5 -12t-34.5 12l-87 58l-94 -58q-50 -31 -50 0zM308 696
q0 13 9.5 36.5t21.5 47t19 35.5q9 14 22.5 21.5t37.5 7.5h11q39 0 39 -29q0 -15 -18.5 -38t-44 -44.5t-47.5 -35.5q-16 -10 -33 -15t-17 14z" />
    <glyph glyph-name="uni1EA6" unicode="&#x1ea6;" horiz-adv-x="782" 
d="M0 0l293 588h197l292 -588h-154l-59 127h-358l-65 -127h-146zM247 225h285l-137 273h-10zM245 666q0 9 15 29t33.5 40t28.5 29q13 12 24 17t28 5h30q18 0 30 -7.5t20 -15.5q11 -11 28 -31.5t30.5 -39.5t13.5 -26q0 -11 -15.5 -12t-34.5 12l-87 58l-94 -58q-50 -31 -50 0z
M454 836q0 13 -9.5 36.5t-21.5 47t-19 35.5q-9 14 -22.5 21.5t-37.5 7.5h-11q-39 0 -39 -29q0 -15 18.5 -38t44 -44.5t47.5 -35.5q16 -10 33 -15t17 14z" />
    <glyph glyph-name="uni1EA7" unicode="&#x1ea7;" horiz-adv-x="651" 
d="M189 0q-76 0 -110 35.5t-34 97.5q0 65 35.5 100t108.5 35h51q75 0 135 -4t99 -8v66q0 9 -2 18.5t-12 15.5t-34 6h-50q-109 0 -182 -3.5t-99 -6.5l-11 76q0 14 76 17t254 3h50q50 0 77 -14t38.5 -35t14 -42.5t2.5 -36.5v-320h-82l-39 20q-42 -7 -101 -13.5t-135 -6.5h-50z
M215 86h229q22 0 26 4t4 25v77h-259q-27 0 -37.5 -13t-10.5 -41t12 -40t36 -12zM199 526q0 9 15 29t33.5 40t28.5 29q13 12 24 17t28 5h30q18 0 30 -7.5t20 -15.5q11 -11 28 -31.5t30.5 -39.5t13.5 -26q0 -11 -15.5 -12t-34.5 12l-87 58l-94 -58q-50 -31 -50 0zM408 696
q0 13 -9.5 36.5t-21.5 47t-19 35.5q-9 14 -22.5 21.5t-37.5 7.5h-11q-39 0 -39 -29q0 -15 18.5 -38t44 -44.5t47.5 -35.5q16 -10 33 -15t17 14z" />
    <glyph glyph-name="uni1EA8" unicode="&#x1ea8;" horiz-adv-x="782" 
d="M0 0l293 588h197l292 -588h-154l-59 127h-358l-65 -127h-146zM247 225h285l-137 273h-10zM252 666q0 9 15 29t33.5 40t28.5 29q13 12 24 17t28 5h30q18 0 30 -7.5t20 -15.5q11 -11 28 -31.5t30.5 -39.5t13.5 -26q0 -11 -15.5 -12t-34.5 12l-87 58l-94 -58q-50 -31 -50 0z
M371 815q-11 9 -11 33q23 14 44 32t21 42q0 28 -32 28q-18 0 -32.5 -6t-29.5 -14q-16 -9 -28 -7.5t-12 23.5t16 38.5t42.5 26t55.5 9.5h10q41 0 63.5 -23.5t22.5 -52.5q0 -24 -7 -42.5t-21 -36.5q-13 -17 -27 -27.5t-26 -17.5q-14 -8 -28 -9t-21 4z" />
    <glyph glyph-name="uni1EA9" unicode="&#x1ea9;" horiz-adv-x="651" 
d="M189 0q-76 0 -110 35.5t-34 97.5q0 65 35.5 100t108.5 35h51q75 0 135 -4t99 -8v66q0 9 -2 18.5t-12 15.5t-34 6h-50q-109 0 -182 -3.5t-99 -6.5l-11 76q0 14 76 17t254 3h50q50 0 77 -14t38.5 -35t14 -42.5t2.5 -36.5v-320h-82l-39 20q-42 -7 -101 -13.5t-135 -6.5h-50z
M215 86h229q22 0 26 4t4 25v77h-259q-27 0 -37.5 -13t-10.5 -41t12 -40t36 -12zM206 526q0 9 15 29t33.5 40t28.5 29q13 12 24 17t28 5h30q18 0 30 -7.5t20 -15.5q11 -11 28 -31.5t30.5 -39.5t13.5 -26q0 -11 -15.5 -12t-34.5 12l-87 58l-94 -58q-50 -31 -50 0zM325 675
q-11 9 -11 33q23 14 44 32t21 42q0 28 -32 28q-18 0 -32.5 -6t-29.5 -14q-16 -9 -28 -7.5t-12 23.5t16 38.5t42.5 26t55.5 9.5h10q41 0 63.5 -23.5t22.5 -52.5q0 -24 -7 -42.5t-21 -36.5q-13 -17 -27 -27.5t-26 -17.5q-14 -8 -28 -9t-21 4z" />
    <glyph glyph-name="uni1EAA" unicode="&#x1eaa;" horiz-adv-x="782" 
d="M0 0l293 588h197l292 -588h-154l-59 127h-358l-65 -127h-146zM247 225h285l-137 273h-10zM252 666q0 9 15 29t33.5 40t28.5 29q13 12 24 17t28 5h30q18 0 30 -7.5t20 -15.5q11 -11 28 -31.5t30.5 -39.5t13.5 -26q0 -11 -15.5 -12t-34.5 12l-87 58l-94 -58q-50 -31 -50 0z
M466 818q-28 0 -48.5 10.5t-36.5 24.5t-31.5 24.5t-34.5 10.5q-25 0 -34.5 -17.5t-14.5 -32.5q-4 -12 -14 -16.5t-18.5 1.5t-8.5 24q0 44 25.5 77.5t74.5 33.5q28 0 47.5 -10.5t35 -24.5t32 -24.5t37.5 -10.5q23 0 34 17.5t15 32.5q4 13 13.5 17.5t18.5 -1.5t9 -25
q0 -27 -10.5 -52.5t-33 -42t-57.5 -16.5z" />
    <glyph glyph-name="uni1EAB" unicode="&#x1eab;" horiz-adv-x="651" 
d="M189 0q-76 0 -110 35.5t-34 97.5q0 65 35.5 100t108.5 35h51q75 0 135 -4t99 -8v66q0 9 -2 18.5t-12 15.5t-34 6h-50q-109 0 -182 -3.5t-99 -6.5l-11 76q0 14 76 17t254 3h50q50 0 77 -14t38.5 -35t14 -42.5t2.5 -36.5v-320h-82l-39 20q-42 -7 -101 -13.5t-135 -6.5h-50z
M215 86h229q22 0 26 4t4 25v77h-259q-27 0 -37.5 -13t-10.5 -41t12 -40t36 -12zM206 526q0 9 15 29t33.5 40t28.5 29q13 12 24 17t28 5h30q18 0 30 -7.5t20 -15.5q11 -11 28 -31.5t30.5 -39.5t13.5 -26q0 -11 -15.5 -12t-34.5 12l-87 58l-94 -58q-50 -31 -50 0zM420 678
q-28 0 -48.5 10.5t-36.5 24.5t-31.5 24.5t-34.5 10.5q-25 0 -34.5 -17.5t-14.5 -32.5q-4 -12 -14 -16.5t-18.5 1.5t-8.5 24q0 44 25.5 77.5t74.5 33.5q28 0 47.5 -10.5t35 -24.5t32 -24.5t37.5 -10.5q23 0 34 17.5t15 32.5q4 13 13.5 17.5t18.5 -1.5t9 -25
q0 -27 -10.5 -52.5t-33 -42t-57.5 -16.5z" />
    <glyph glyph-name="uni1EAC" unicode="&#x1eac;" horiz-adv-x="782" 
d="M0 0l293 588h197l292 -588h-154l-59 127h-358l-65 -127h-146zM247 225h285l-137 273h-10zM390.277 -89q-33.6377 0 -49.0928 13.6367t-15.4551 45.4561q0 32.7285 15 45.9102q15.001 13.1826 49.5479 13.1826q34.5459 0 50.001 -13.1826
q15.4551 -13.1816 15.4551 -45.9102q0 -30.9102 -15.4551 -45.001q-15.4551 -14.0918 -50.001 -14.0918zM248 666q0 9 15 29t33.5 40t28.5 29q13 12 24 17t28 5h30q18 0 30 -7.5t20 -15.5q11 -11 28 -31.5t30.5 -39.5t13.5 -26q0 -11 -15.5 -12t-34.5 12l-87 58l-94 -58
q-50 -31 -50 0z" />
    <glyph glyph-name="uni1EAD" unicode="&#x1ead;" horiz-adv-x="651" 
d="M189 0q-76 0 -110 35.5t-34 97.5q0 65 35.5 100t108.5 35h51q75 0 135 -4t99 -8v66q0 9 -2 18.5t-12 15.5t-34 6h-50q-109 0 -182 -3.5t-99 -6.5l-11 76q0 14 76 17t254 3h50q50 0 77 -14t38.5 -35t14 -42.5t2.5 -36.5v-320h-82l-39 20q-42 -7 -101 -13.5t-135 -6.5h-50z
M215 86h229q22 0 26 4t4 25v77h-259q-27 0 -37.5 -13t-10.5 -41t12 -40t36 -12zM347.277 -169q-33.6377 0 -49.0928 13.6367t-15.4551 45.4561q0 32.7285 15 45.9102q15.001 13.1826 49.5479 13.1826q34.5459 0 50.001 -13.1826q15.4551 -13.1816 15.4551 -45.9102
q0 -30.9102 -15.4551 -45.001q-15.4551 -14.0918 -50.001 -14.0918zM202 526q0 9 15 29t33.5 40t28.5 29q13 12 24 17t28 5h30q18 0 30 -7.5t20 -15.5q11 -11 28 -31.5t30.5 -39.5t13.5 -26q0 -11 -15.5 -12t-34.5 12l-87 58l-94 -58q-50 -31 -50 0z" />
    <glyph glyph-name="uni1EAE" unicode="&#x1eae;" horiz-adv-x="782" 
d="M0 0l293 588h197l292 -588h-154l-59 127h-358l-65 -127h-146zM247 225h285l-137 273h-10zM390 660q-58 0 -90.5 14t-46 39t-13.5 57q0 25 14.5 25t23.5 -14q15 -25 37.5 -38t74.5 -13q53 0 73.5 13t36.5 38q11 16 25.5 15t14.5 -26q0 -54 -31.5 -82t-118.5 -28zM355 846
q0 13 9.5 36.5t21.5 47t19 35.5q9 14 22.5 21.5t37.5 7.5h11q39 0 39 -29q0 -15 -18.5 -38t-44 -44.5t-47.5 -35.5q-16 -10 -33 -15t-17 14z" />
    <glyph glyph-name="uni1EAF" unicode="&#x1eaf;" horiz-adv-x="651" 
d="M189 0q-76 0 -110 35.5t-34 97.5q0 65 35.5 100t108.5 35h51q75 0 135 -4t99 -8v66q0 9 -2 18.5t-12 15.5t-34 6h-50q-109 0 -182 -3.5t-99 -6.5l-11 76q0 14 76 17t254 3h50q50 0 77 -14t38.5 -35t14 -42.5t2.5 -36.5v-320h-82l-39 20q-42 -7 -101 -13.5t-135 -6.5h-50z
M215 86h229q22 0 26 4t4 25v77h-259q-27 0 -37.5 -13t-10.5 -41t12 -40t36 -12zM344 520q-58 0 -90.5 14t-46 39t-13.5 57q0 25 14.5 25t23.5 -14q15 -25 37.5 -38t74.5 -13q53 0 73.5 13t36.5 38q11 16 25.5 15t14.5 -26q0 -54 -31.5 -82t-118.5 -28zM309 706
q0 13 9.5 36.5t21.5 47t19 35.5q9 14 22.5 21.5t37.5 7.5h11q39 0 39 -29q0 -15 -18.5 -38t-44 -44.5t-47.5 -35.5q-16 -10 -33 -15t-17 14z" />
    <glyph glyph-name="uni1EB0" unicode="&#x1eb0;" horiz-adv-x="782" 
d="M0 0l293 588h197l292 -588h-154l-59 127h-358l-65 -127h-146zM247 225h285l-137 273h-10zM390 660q-58 0 -90.5 14t-46 39t-13.5 57q0 25 14.5 25t23.5 -14q15 -25 37.5 -38t74.5 -13q53 0 73.5 13t36.5 38q11 16 25.5 15t14.5 -26q0 -54 -31.5 -82t-118.5 -28zM455 846
q0 13 -9.5 36.5t-21.5 47t-19 35.5q-9 14 -22.5 21.5t-37.5 7.5h-11q-39 0 -39 -29q0 -15 18.5 -38t44 -44.5t47.5 -35.5q16 -10 33 -15t17 14z" />
    <glyph glyph-name="uni1EB1" unicode="&#x1eb1;" horiz-adv-x="651" 
d="M189 0q-76 0 -110 35.5t-34 97.5q0 65 35.5 100t108.5 35h51q75 0 135 -4t99 -8v66q0 9 -2 18.5t-12 15.5t-34 6h-50q-109 0 -182 -3.5t-99 -6.5l-11 76q0 14 76 17t254 3h50q50 0 77 -14t38.5 -35t14 -42.5t2.5 -36.5v-320h-82l-39 20q-42 -7 -101 -13.5t-135 -6.5h-50z
M215 86h229q22 0 26 4t4 25v77h-259q-27 0 -37.5 -13t-10.5 -41t12 -40t36 -12zM344 520q-58 0 -90.5 14t-46 39t-13.5 57q0 25 14.5 25t23.5 -14q15 -25 37.5 -38t74.5 -13q53 0 73.5 13t36.5 38q11 16 25.5 15t14.5 -26q0 -54 -31.5 -82t-118.5 -28zM409 706
q0 13 -9.5 36.5t-21.5 47t-19 35.5q-9 14 -22.5 21.5t-37.5 7.5h-11q-39 0 -39 -29q0 -15 18.5 -38t44 -44.5t47.5 -35.5q16 -10 33 -15t17 14z" />
    <glyph glyph-name="uni1EB2" unicode="&#x1eb2;" horiz-adv-x="782" 
d="M0 0l293 588h197l292 -588h-154l-59 127h-358l-65 -127h-146zM247 225h285l-137 273h-10zM392 660q-58 0 -90.5 14t-46 39t-13.5 57q0 25 14.5 25t23.5 -14q15 -25 37.5 -38t74.5 -13q53 0 73.5 13t36.5 38q11 16 25.5 15t14.5 -26q0 -54 -31.5 -82t-118.5 -28zM367 825
q-11 9 -11 33q23 14 44 32t21 42q0 28 -32 28q-18 0 -32.5 -6t-29.5 -14q-16 -9 -28 -7.5t-12 23.5t16 38.5t42.5 26t55.5 9.5h10q41 0 63.5 -23.5t22.5 -52.5q0 -24 -7 -42.5t-21 -36.5q-13 -17 -27 -27.5t-26 -17.5q-14 -8 -28 -9t-21 4z" />
    <glyph glyph-name="uni1EB3" unicode="&#x1eb3;" horiz-adv-x="651" 
d="M189 0q-76 0 -110 35.5t-34 97.5q0 65 35.5 100t108.5 35h51q75 0 135 -4t99 -8v66q0 9 -2 18.5t-12 15.5t-34 6h-50q-109 0 -182 -3.5t-99 -6.5l-11 76q0 14 76 17t254 3h50q50 0 77 -14t38.5 -35t14 -42.5t2.5 -36.5v-320h-82l-39 20q-42 -7 -101 -13.5t-135 -6.5h-50z
M215 86h229q22 0 26 4t4 25v77h-259q-27 0 -37.5 -13t-10.5 -41t12 -40t36 -12zM346 520q-58 0 -90.5 14t-46 39t-13.5 57q0 25 14.5 25t23.5 -14q15 -25 37.5 -38t74.5 -13q53 0 73.5 13t36.5 38q11 16 25.5 15t14.5 -26q0 -54 -31.5 -82t-118.5 -28zM321 685q-11 9 -11 33
q23 14 44 32t21 42q0 28 -32 28q-18 0 -32.5 -6t-29.5 -14q-16 -9 -28 -7.5t-12 23.5t16 38.5t42.5 26t55.5 9.5h10q41 0 63.5 -23.5t22.5 -52.5q0 -24 -7 -42.5t-21 -36.5q-13 -17 -27 -27.5t-26 -17.5q-14 -8 -28 -9t-21 4z" />
    <glyph glyph-name="uni1EB4" unicode="&#x1eb4;" horiz-adv-x="782" 
d="M0 0l293 588h197l292 -588h-154l-59 127h-358l-65 -127h-146zM247 225h285l-137 273h-10zM392 660q-58 0 -90.5 14t-46 39t-13.5 57q0 25 14.5 25t23.5 -14q15 -25 37.5 -38t74.5 -13q53 0 73.5 13t36.5 38q11 16 25.5 15t14.5 -26q0 -54 -31.5 -82t-118.5 -28zM462 828
q-28 0 -48.5 10.5t-36.5 24.5t-31.5 24.5t-34.5 10.5q-25 0 -34.5 -17.5t-14.5 -32.5q-4 -12 -14 -16.5t-18.5 1.5t-8.5 24q0 44 25.5 77.5t74.5 33.5q28 0 47.5 -10.5t35 -24.5t32 -24.5t37.5 -10.5q23 0 34 17.5t15 32.5q4 13 13.5 17.5t18.5 -1.5t9 -25
q0 -27 -10.5 -52.5t-33 -42t-57.5 -16.5z" />
    <glyph glyph-name="uni1EB5" unicode="&#x1eb5;" horiz-adv-x="651" 
d="M189 0q-76 0 -110 35.5t-34 97.5q0 65 35.5 100t108.5 35h51q75 0 135 -4t99 -8v66q0 9 -2 18.5t-12 15.5t-34 6h-50q-109 0 -182 -3.5t-99 -6.5l-11 76q0 14 76 17t254 3h50q50 0 77 -14t38.5 -35t14 -42.5t2.5 -36.5v-320h-82l-39 20q-42 -7 -101 -13.5t-135 -6.5h-50z
M215 86h229q22 0 26 4t4 25v77h-259q-27 0 -37.5 -13t-10.5 -41t12 -40t36 -12zM346 520q-58 0 -90.5 14t-46 39t-13.5 57q0 25 14.5 25t23.5 -14q15 -25 37.5 -38t74.5 -13q53 0 73.5 13t36.5 38q11 16 25.5 15t14.5 -26q0 -54 -31.5 -82t-118.5 -28zM416 688
q-28 0 -48.5 10.5t-36.5 24.5t-31.5 24.5t-34.5 10.5q-25 0 -34.5 -17.5t-14.5 -32.5q-4 -12 -14 -16.5t-18.5 1.5t-8.5 24q0 44 25.5 77.5t74.5 33.5q28 0 47.5 -10.5t35 -24.5t32 -24.5t37.5 -10.5q23 0 34 17.5t15 32.5q4 13 13.5 17.5t18.5 -1.5t9 -25
q0 -27 -10.5 -52.5t-33 -42t-57.5 -16.5z" />
    <glyph glyph-name="uni1EB6" unicode="&#x1eb6;" horiz-adv-x="782" 
d="M0 0l293 588h197l292 -588h-154l-59 127h-358l-65 -127h-146zM247 225h285l-137 273h-10zM390.277 -89q-33.6377 0 -49.0928 13.6367t-15.4551 45.4561q0 32.7285 15 45.9102q15.001 13.1826 49.5479 13.1826q34.5459 0 50.001 -13.1826
q15.4551 -13.1816 15.4551 -45.9102q0 -30.9102 -15.4551 -45.001q-15.4551 -14.0918 -50.001 -14.0918zM392 660q-58 0 -90.5 14t-46 39t-13.5 57q0 25 14.5 25t23.5 -14q15 -25 37.5 -38t74.5 -13q53 0 73.5 13t36.5 38q11 16 25.5 15t14.5 -26q0 -54 -31.5 -82
t-118.5 -28z" />
    <glyph glyph-name="uni1EB7" unicode="&#x1eb7;" horiz-adv-x="651" 
d="M189 0q-76 0 -110 35.5t-34 97.5q0 65 35.5 100t108.5 35h51q75 0 135 -4t99 -8v66q0 9 -2 18.5t-12 15.5t-34 6h-50q-109 0 -182 -3.5t-99 -6.5l-11 76q0 14 76 17t254 3h50q50 0 77 -14t38.5 -35t14 -42.5t2.5 -36.5v-320h-82l-39 20q-42 -7 -101 -13.5t-135 -6.5h-50z
M215 86h229q22 0 26 4t4 25v77h-259q-27 0 -37.5 -13t-10.5 -41t12 -40t36 -12zM347.277 -169q-33.6377 0 -49.0928 13.6367t-15.4551 45.4561q0 32.7285 15 45.9102q15.001 13.1826 49.5479 13.1826q34.5459 0 50.001 -13.1826q15.4551 -13.1816 15.4551 -45.9102
q0 -30.9102 -15.4551 -45.001q-15.4551 -14.0918 -50.001 -14.0918zM346 520q-58 0 -90.5 14t-46 39t-13.5 57q0 25 14.5 25t23.5 -14q15 -25 37.5 -38t74.5 -13q53 0 73.5 13t36.5 38q11 16 25.5 15t14.5 -26q0 -54 -31.5 -82t-118.5 -28z" />
    <glyph glyph-name="uni1EB8" unicode="&#x1eb8;" horiz-adv-x="766" 
d="M80 0v588h622v-96h-490v-138h374v-99h-374v-159h494l40 -85q0 -4 -27 -7.5t-93 -3.5h-546zM414.277 -169q-33.6377 0 -49.0928 13.6367t-15.4551 45.4561q0 32.7285 15 45.9102q15.001 13.1826 49.5479 13.1826q34.5459 0 50.001 -13.1826
q15.4551 -13.1816 15.4551 -45.9102q0 -30.9102 -15.4551 -45.001q-15.4551 -14.0918 -50.001 -14.0918z" />
    <glyph glyph-name="uni1EB9" unicode="&#x1eb9;" horiz-adv-x="620" 
d="M182 0q-50 0 -77 13t-38.5 33t-14 42t-2.5 40v192q0 15 2.5 36.5t14 42.5t39 35t76.5 14h215q66 0 103.5 -12.5t53 -40.5t15.5 -75v-148h-175q-90 0 -146.5 4t-75.5 5v-55q-1 -40 48 -40h51q54 0 105.5 1.5t94.5 4t69 4.5l40 -65q0 -31 -197 -31h-201zM172 258h275v64
q0 20 -4.5 28t-26.5 10t-75 2h-121q-48 0 -48 -40v-64zM316.277 -169q-33.6377 0 -49.0928 13.6367t-15.4551 45.4561q0 32.7285 15 45.9102q15.001 13.1826 49.5479 13.1826q34.5459 0 50.001 -13.1826q15.4551 -13.1816 15.4551 -45.9102q0 -30.9102 -15.4551 -45.001
q-15.4551 -14.0918 -50.001 -14.0918z" />
    <glyph glyph-name="uni1EBA" unicode="&#x1eba;" horiz-adv-x="766" 
d="M80 0v588h622v-96h-490v-138h374v-99h-374v-159h494l40 -85q0 -4 -27 -7.5t-93 -3.5h-546zM378 637q-11 9 -11 33q23 14 44 32t21 42q0 28 -32 28q-18 0 -32.5 -6t-29.5 -14q-16 -9 -28 -7.5t-12 23.5t16 38.5t42.5 26t55.5 9.5h10q41 0 63.5 -23.5t22.5 -52.5
q0 -24 -7 -42.5t-21 -36.5q-13 -17 -27 -27.5t-26 -17.5q-14 -8 -28 -9t-21 4z" />
    <glyph glyph-name="uni1EBB" unicode="&#x1ebb;" horiz-adv-x="620" 
d="M182 0q-50 0 -77 13t-38.5 33t-14 42t-2.5 40v192q0 15 2.5 36.5t14 42.5t39 35t76.5 14h215q66 0 103.5 -12.5t53 -40.5t15.5 -75v-148h-175q-90 0 -146.5 4t-75.5 5v-55q-1 -40 48 -40h51q54 0 105.5 1.5t94.5 4t69 4.5l40 -65q0 -31 -197 -31h-201zM172 258h275v64
q0 20 -4.5 28t-26.5 10t-75 2h-121q-48 0 -48 -40v-64zM290 497q-11 9 -11 33q23 14 44 32t21 42q0 28 -32 28q-18 0 -32.5 -6t-29.5 -14q-16 -9 -28 -7.5t-12 23.5t16 38.5t42.5 26t55.5 9.5h10q41 0 63.5 -23.5t22.5 -52.5q0 -24 -7 -42.5t-21 -36.5q-13 -17 -27 -27.5
t-26 -17.5q-14 -8 -28 -9t-21 4z" />
    <glyph glyph-name="uni1EBC" unicode="&#x1ebc;" horiz-adv-x="766" 
d="M80 0v588h622v-96h-490v-138h374v-99h-374v-159h494l40 -85q0 -4 -27 -7.5t-93 -3.5h-546zM473 640q-28 0 -48.5 10.5t-36.5 24.5t-31.5 24.5t-34.5 10.5q-25 0 -34.5 -17.5t-14.5 -32.5q-4 -12 -14 -16.5t-18.5 1.5t-8.5 24q0 44 25.5 77.5t74.5 33.5q28 0 47.5 -10.5
t35 -24.5t32 -24.5t37.5 -10.5q23 0 34 17.5t15 32.5q4 13 13.5 17.5t18.5 -1.5t9 -25q0 -27 -10.5 -52.5t-33 -42t-57.5 -16.5z" />
    <glyph glyph-name="uni1EBD" unicode="&#x1ebd;" horiz-adv-x="620" 
d="M182 0q-50 0 -77 13t-38.5 33t-14 42t-2.5 40v192q0 15 2.5 36.5t14 42.5t39 35t76.5 14h215q66 0 103.5 -12.5t53 -40.5t15.5 -75v-148h-175q-90 0 -146.5 4t-75.5 5v-55q-1 -40 48 -40h51q54 0 105.5 1.5t94.5 4t69 4.5l40 -65q0 -31 -197 -31h-201zM172 258h275v64
q0 20 -4.5 28t-26.5 10t-75 2h-121q-48 0 -48 -40v-64zM385 500q-28 0 -48.5 10.5t-36.5 24.5t-31.5 24.5t-34.5 10.5q-25 0 -34.5 -17.5t-14.5 -32.5q-4 -12 -14 -16.5t-18.5 1.5t-8.5 24q0 44 25.5 77.5t74.5 33.5q28 0 47.5 -10.5t35 -24.5t32 -24.5t37.5 -10.5
q23 0 34 17.5t15 32.5q4 13 13.5 17.5t18.5 -1.5t9 -25q0 -27 -10.5 -52.5t-33 -42t-57.5 -16.5z" />
    <glyph glyph-name="uni1EBE" unicode="&#x1ebe;" horiz-adv-x="766" 
d="M80 0v588h622v-96h-490v-138h374v-99h-374v-159h494l40 -85q0 -4 -27 -7.5t-93 -3.5h-546zM256 666q0 9 15 29t33.5 40t28.5 29q13 12 24 17t28 5h30q18 0 30 -7.5t20 -15.5q11 -11 28 -31.5t30.5 -39.5t13.5 -26q0 -11 -15.5 -12t-34.5 12l-87 58l-94 -58q-50 -31 -50 0
zM365 836q0 13 9.5 36.5t21.5 47t19 35.5q9 14 22.5 21.5t37.5 7.5h11q39 0 39 -29q0 -15 -18.5 -38t-44 -44.5t-47.5 -35.5q-16 -10 -33 -15t-17 14z" />
    <glyph glyph-name="uni1EBF" unicode="&#x1ebf;" horiz-adv-x="620" 
d="M182 0q-50 0 -77 13t-38.5 33t-14 42t-2.5 40v192q0 15 2.5 36.5t14 42.5t39 35t76.5 14h215q66 0 103.5 -12.5t53 -40.5t15.5 -75v-148h-175q-90 0 -146.5 4t-75.5 5v-55q-1 -40 48 -40h51q54 0 105.5 1.5t94.5 4t69 4.5l40 -65q0 -31 -197 -31h-201zM172 258h275v64
q0 20 -4.5 28t-26.5 10t-75 2h-121q-48 0 -48 -40v-64zM168 526q0 9 15 29t33.5 40t28.5 29q13 12 24 17t28 5h30q18 0 30 -7.5t20 -15.5q11 -11 28 -31.5t30.5 -39.5t13.5 -26q0 -11 -15.5 -12t-34.5 12l-87 58l-94 -58q-50 -31 -50 0zM277 696q0 13 9.5 36.5t21.5 47
t19 35.5q9 14 22.5 21.5t37.5 7.5h11q39 0 39 -29q0 -15 -18.5 -38t-44 -44.5t-47.5 -35.5q-16 -10 -33 -15t-17 14z" />
    <glyph glyph-name="uni1EC0" unicode="&#x1ec0;" horiz-adv-x="766" 
d="M80 0v588h622v-96h-490v-138h374v-99h-374v-159h494l40 -85q0 -4 -27 -7.5t-93 -3.5h-546zM256 666q0 9 15 29t33.5 40t28.5 29q13 12 24 17t28 5h30q18 0 30 -7.5t20 -15.5q11 -11 28 -31.5t30.5 -39.5t13.5 -26q0 -11 -15.5 -12t-34.5 12l-87 58l-94 -58q-50 -31 -50 0
zM465 836q0 13 -9.5 36.5t-21.5 47t-19 35.5q-9 14 -22.5 21.5t-37.5 7.5h-11q-39 0 -39 -29q0 -15 18.5 -38t44 -44.5t47.5 -35.5q16 -10 33 -15t17 14z" />
    <glyph glyph-name="uni1EC1" unicode="&#x1ec1;" horiz-adv-x="620" 
d="M182 0q-50 0 -77 13t-38.5 33t-14 42t-2.5 40v192q0 15 2.5 36.5t14 42.5t39 35t76.5 14h215q66 0 103.5 -12.5t53 -40.5t15.5 -75v-148h-175q-90 0 -146.5 4t-75.5 5v-55q-1 -40 48 -40h51q54 0 105.5 1.5t94.5 4t69 4.5l40 -65q0 -31 -197 -31h-201zM172 258h275v64
q0 20 -4.5 28t-26.5 10t-75 2h-121q-48 0 -48 -40v-64zM168 526q0 9 15 29t33.5 40t28.5 29q13 12 24 17t28 5h30q18 0 30 -7.5t20 -15.5q11 -11 28 -31.5t30.5 -39.5t13.5 -26q0 -11 -15.5 -12t-34.5 12l-87 58l-94 -58q-50 -31 -50 0zM377 696q0 13 -9.5 36.5t-21.5 47
t-19 35.5q-9 14 -22.5 21.5t-37.5 7.5h-11q-39 0 -39 -29q0 -15 18.5 -38t44 -44.5t47.5 -35.5q16 -10 33 -15t17 14z" />
    <glyph glyph-name="uni1EC2" unicode="&#x1ec2;" horiz-adv-x="766" 
d="M80 0v588h622v-96h-490v-138h374v-99h-374v-159h494l40 -85q0 -4 -27 -7.5t-93 -3.5h-546zM263 666q0 9 15 29t33.5 40t28.5 29q13 12 24 17t28 5h30q18 0 30 -7.5t20 -15.5q11 -11 28 -31.5t30.5 -39.5t13.5 -26q0 -11 -15.5 -12t-34.5 12l-87 58l-94 -58q-50 -31 -50 0
zM382 815q-11 9 -11 33q23 14 44 32t21 42q0 28 -32 28q-18 0 -32.5 -6t-29.5 -14q-16 -9 -28 -7.5t-12 23.5t16 38.5t42.5 26t55.5 9.5h10q41 0 63.5 -23.5t22.5 -52.5q0 -24 -7 -42.5t-21 -36.5q-13 -17 -27 -27.5t-26 -17.5q-14 -8 -28 -9t-21 4z" />
    <glyph glyph-name="uni1EC3" unicode="&#x1ec3;" horiz-adv-x="620" 
d="M182 0q-50 0 -77 13t-38.5 33t-14 42t-2.5 40v192q0 15 2.5 36.5t14 42.5t39 35t76.5 14h215q66 0 103.5 -12.5t53 -40.5t15.5 -75v-148h-175q-90 0 -146.5 4t-75.5 5v-55q-1 -40 48 -40h51q54 0 105.5 1.5t94.5 4t69 4.5l40 -65q0 -31 -197 -31h-201zM172 258h275v64
q0 20 -4.5 28t-26.5 10t-75 2h-121q-48 0 -48 -40v-64zM175 526q0 9 15 29t33.5 40t28.5 29q13 12 24 17t28 5h30q18 0 30 -7.5t20 -15.5q11 -11 28 -31.5t30.5 -39.5t13.5 -26q0 -11 -15.5 -12t-34.5 12l-87 58l-94 -58q-50 -31 -50 0zM294 675q-11 9 -11 33q23 14 44 32
t21 42q0 28 -32 28q-18 0 -32.5 -6t-29.5 -14q-16 -9 -28 -7.5t-12 23.5t16 38.5t42.5 26t55.5 9.5h10q41 0 63.5 -23.5t22.5 -52.5q0 -24 -7 -42.5t-21 -36.5q-13 -17 -27 -27.5t-26 -17.5q-14 -8 -28 -9t-21 4z" />
    <glyph glyph-name="uni1EC4" unicode="&#x1ec4;" horiz-adv-x="766" 
d="M80 0v588h622v-96h-490v-138h374v-99h-374v-159h494l40 -85q0 -4 -27 -7.5t-93 -3.5h-546zM263 666q0 9 15 29t33.5 40t28.5 29q13 12 24 17t28 5h30q18 0 30 -7.5t20 -15.5q11 -11 28 -31.5t30.5 -39.5t13.5 -26q0 -11 -15.5 -12t-34.5 12l-87 58l-94 -58q-50 -31 -50 0
zM477 818q-28 0 -48.5 10.5t-36.5 24.5t-31.5 24.5t-34.5 10.5q-25 0 -34.5 -17.5t-14.5 -32.5q-4 -12 -14 -16.5t-18.5 1.5t-8.5 24q0 44 25.5 77.5t74.5 33.5q28 0 47.5 -10.5t35 -24.5t32 -24.5t37.5 -10.5q23 0 34 17.5t15 32.5q4 13 13.5 17.5t18.5 -1.5t9 -25
q0 -27 -10.5 -52.5t-33 -42t-57.5 -16.5z" />
    <glyph glyph-name="uni1EC5" unicode="&#x1ec5;" horiz-adv-x="620" 
d="M182 0q-50 0 -77 13t-38.5 33t-14 42t-2.5 40v192q0 15 2.5 36.5t14 42.5t39 35t76.5 14h215q66 0 103.5 -12.5t53 -40.5t15.5 -75v-148h-175q-90 0 -146.5 4t-75.5 5v-55q-1 -40 48 -40h51q54 0 105.5 1.5t94.5 4t69 4.5l40 -65q0 -31 -197 -31h-201zM172 258h275v64
q0 20 -4.5 28t-26.5 10t-75 2h-121q-48 0 -48 -40v-64zM175 526q0 9 15 29t33.5 40t28.5 29q13 12 24 17t28 5h30q18 0 30 -7.5t20 -15.5q11 -11 28 -31.5t30.5 -39.5t13.5 -26q0 -11 -15.5 -12t-34.5 12l-87 58l-94 -58q-50 -31 -50 0zM389 678q-28 0 -48.5 10.5
t-36.5 24.5t-31.5 24.5t-34.5 10.5q-25 0 -34.5 -17.5t-14.5 -32.5q-4 -12 -14 -16.5t-18.5 1.5t-8.5 24q0 44 25.5 77.5t74.5 33.5q28 0 47.5 -10.5t35 -24.5t32 -24.5t37.5 -10.5q23 0 34 17.5t15 32.5q4 13 13.5 17.5t18.5 -1.5t9 -25q0 -27 -10.5 -52.5t-33 -42
t-57.5 -16.5z" />
    <glyph glyph-name="uni1EC6" unicode="&#x1ec6;" horiz-adv-x="766" 
d="M80 0v588h622v-96h-490v-138h374v-99h-374v-159h494l40 -85q0 -4 -27 -7.5t-93 -3.5h-546zM414.277 -169q-33.6377 0 -49.0928 13.6367t-15.4551 45.4561q0 32.7285 15 45.9102q15.001 13.1826 49.5479 13.1826q34.5459 0 50.001 -13.1826
q15.4551 -13.1816 15.4551 -45.9102q0 -30.9102 -15.4551 -45.001q-15.4551 -14.0918 -50.001 -14.0918zM259 666q0 9 15 29t33.5 40t28.5 29q13 12 24 17t28 5h30q18 0 30 -7.5t20 -15.5q11 -11 28 -31.5t30.5 -39.5t13.5 -26q0 -11 -15.5 -12t-34.5 12l-87 58l-94 -58
q-50 -31 -50 0z" />
    </font>
</defs>
</svg>
