<?xml version="1.0" standalone="no"?>
<!DOCTYPE svg PUBLIC "-//W3C//DTD SVG 1.1//EN" "http://www.w3.org/Graphics/SVG/1.1/DTD/svg11.dtd" >
<svg xmlns="http://www.w3.org/2000/svg" xmlns:xlink="http://www.w3.org/1999/xlink" version="1.1">
<metadata>
Created by FontForge 20170731 at Wed Jul 22 20:11:07 2020
 By Aleksey,,,
Copyright 2018 The Goldman Project Authors (https://github.com/magictype/goldman)
</metadata>
<defs>
<font id="Goldman-Bold" horiz-adv-x="0" >
  <font-face 
    font-family="Goldman"
    font-weight="700"
    font-stretch="normal"
    units-per-em="1000"
    panose-1="0 0 0 0 0 0 0 0 0 0"
    ascent="800"
    descent="-200"
    x-height="448"
    cap-height="588"
    bbox="-550 -680 4315 1060"
    underline-thickness="50"
    underline-position="-175"
    unicode-range="U+000D-FB02"
  />
<missing-glyph horiz-adv-x="576" 
d="M0 0v588h576v-588h-576zM132 96h312v396h-312v-396z" />
    <glyph glyph-name="f_f" unicode="ff" horiz-adv-x="900" 
d="M102 0v322h-82v125h82v69q0 148 162 148h69q80 0 129.5 -14.5t72.5 -33t23 -32.5l-30 -96q-15 14 -55 32t-112 18h-29q-25 0 -36.5 -9t-11.5 -31v-51h188v-125h-188v-322h-182zM464 0v322h-82v125h82v69q0 148 162 148h69q120 0 172.5 -11t52.5 -19l-30 -116
q-17 7 -61 13.5t-106 6.5h-29q-25 0 -36.5 -9t-11.5 -31v-51h188v-125h-188v-322h-182z" />
    <glyph glyph-name="f_f_i" unicode="ffi" horiz-adv-x="1042" 
d="M102 0v322h-82v125h82v69q0 148 162 148h69q80 0 129.5 -14.5t72.5 -33t23 -32.5l-30 -96q-15 14 -55 32t-112 18h-29q-25 0 -36.5 -9t-11.5 -31v-51h188v-125h-188v-322h-182zM464 0v322h-82v125h82v69q0 148 162 148h69q80 0 145 -5.5t103.5 -25t38.5 -63.5
q0 -86 -102 -86q-78 0 -96 52q-13 1 -28.5 1.5t-32.5 0.5h-29q-25 0 -36.5 -9t-11.5 -31v-56l154 -4l182 10v-448h-182v322h-154v-322h-182z" />
    <glyph glyph-name="f_f_l" unicode="ffl" horiz-adv-x="1027" 
d="M102 0v322h-82v125h82v69q0 148 162 148h69q80 0 129.5 -14.5t72.5 -33t23 -32.5l-30 -96q-15 14 -55 32t-112 18h-29q-25 0 -36.5 -9t-11.5 -31v-51h188v-125h-188v-322h-182zM444 0v322h-82v125h82v69q0 148 162 148h69q49 0 86 -7t63 -20l143 7v-644h-182v498
q0 23 -15 31.5t-67 8.5h-29q-25 0 -36.5 -9t-11.5 -31v-51h108v-125h-108v-322h-182z" />
    <glyph glyph-name="f_i" unicode="fi" horiz-adv-x="680" 
d="M102 0v322h-82v125h82v69q0 148 162 148h69q80 0 145 -5.5t103.5 -25t38.5 -63.5q0 -86 -102 -86q-78 0 -96 52q-13 1 -28.5 1.5t-32.5 0.5h-29q-25 0 -36.5 -9t-11.5 -31v-56l154 -4l182 10v-448h-182v322h-154v-322h-182z" />
    <glyph glyph-name="f_l" unicode="fl" horiz-adv-x="685" 
d="M102 0v322h-82v125h82v69q0 148 162 148h69q49 0 86 -7t63 -20l143 7v-644h-182v498q0 23 -15 31.5t-67 8.5h-29q-25 0 -36.5 -9t-11.5 -31v-51h108v-125h-108v-322h-182z" />
    <glyph glyph-name=".notdef" horiz-adv-x="576" 
d="M0 0v588h576v-588h-576zM132 96h312v396h-312v-396z" />
    <glyph glyph-name=".null" horiz-adv-x="600" 
 />
    <glyph glyph-name="nonmarkingreturn" horiz-adv-x="600" 
 />
    <glyph glyph-name="CR" unicode="&#xd;" horiz-adv-x="600" 
 />
    <glyph glyph-name="space" unicode=" " horiz-adv-x="220" 
 />
    <glyph glyph-name="exclam" unicode="!" horiz-adv-x="393" 
d="M141 241q-13 42 -27 97t-24 109t-10 93q0 29 13.5 44t46.5 15h113q33 0 46.5 -14.5t13.5 -44.5q0 -40 -9.5 -94.5t-23.5 -109t-27 -95.5h-112zM196 0q-101 0 -101 86q0 48 25.5 66.5t75.5 18.5q53 0 77.5 -18.5t24.5 -66.5q0 -86 -102 -86z" />
    <glyph glyph-name="quotedbl" unicode="&#x22;" horiz-adv-x="482" 
d="M90 480q-15 0 -28.5 18.5t-24.5 47.5t-19.5 62t-13 62t-4.5 47q0 40 20 57t70 17q53 0 72.5 -17t19.5 -57q0 -17 -4.5 -46.5t-13 -62t-20.5 -62t-25.5 -48t-28.5 -18.5zM310 480q-15 0 -28.5 18.5t-24.5 47.5t-19.5 62t-13 62t-4.5 47q0 40 20 57t70 17q53 0 72.5 -17
t19.5 -57q0 -17 -4.5 -46.5t-13 -62t-20.5 -62t-25.5 -48t-28.5 -18.5z" />
    <glyph glyph-name="numbersign" unicode="#" horiz-adv-x="957" 
d="M132 0l39 120h-91v126h132l34 105h-116v126h157l20 60l12 51h193l-36 -111h116l20 60l12 51h192l-36 -111h97v-126h-138l-35 -105h123v-126h-164l-22 -68l-12 -52h-192l39 120h-117l-22 -68l-12 -52h-193zM400 246h117l34 105h-116z" />
    <glyph glyph-name="dollar" unicode="$" horiz-adv-x="736" 
d="M253 229q-101 0 -147 38t-46 122v36q0 44 16.5 81t56.5 59.5t110 22.5h56v62h140v-62h76q68 0 110 -7t42 -15l-30 -124q-21 2 -79.5 5.5t-143.5 3.5l-99 2h-22q-38 0 -38 -40v-7q0 -41 39 -41h180q64 0 109 -13t69 -47.5t24 -101.5v-36q0 -75 -38.5 -121t-133.5 -46h-65
v-60h-140v60h-106q-68 0 -100 6t-32 14l60 129q17 -2 69.5 -5.5t134.5 -4.5h118q20 0 29 11t9 27v10q0 42 -38 42h-190z" />
    <glyph glyph-name="percent" unicode="%" horiz-adv-x="916" 
d="M162 299q-44 0 -66 14.5t-29 39.5t-7 54v83q0 26 6.5 50.5t28 41t67.5 16.5h109q44 0 66 -16.5t29 -41t7 -50.5v-83q0 -29 -7 -54t-29 -39.5t-66 -14.5h-109zM211 0l312 537l12 51h172l-312 -539l-12 -49h-172zM193 396h47q11 0 15.5 6.5t4.5 13.5v66q0 7 -4.5 13.5
t-15.5 6.5h-47q-12 0 -16.5 -6.5t-3.5 -13.5v-66q-1 -7 3 -13.5t17 -6.5zM645 -10q-44 0 -66 14.5t-29 39.5t-7 54v83q0 26 6.5 50.5t28 41t67.5 16.5h109q44 0 66 -16.5t29 -41t7 -50.5v-83q0 -29 -7 -54t-29 -39.5t-66 -14.5h-109zM676 87h47q11 0 15.5 6.5t4.5 13.5v66
q0 7 -4.5 13.5t-15.5 6.5h-47q-12 0 -16.5 -6.5t-3.5 -13.5v-66q-1 -7 3 -13.5t17 -6.5z" />
    <glyph glyph-name="ampersand" unicode="&#x26;" horiz-adv-x="884" 
d="M739 -10q-43 0 -75.5 4.5t-60.5 18t-60 38.5q-19 -14 -43 -25.5t-60 -18t-93 -6.5h-115q-49 0 -79.5 15t-46 37t-21 46t-5.5 42v84q0 62 29.5 98.5t84.5 49.5q-8 8 -17.5 29t-9.5 53v14q0 48 36 84t117 36h155q66 0 98.5 -17t43 -42.5t10.5 -52.5v-41q0 -19 -11 -31
t-32 -12h-138v24q0 17 -7.5 26.5t-27.5 9.5h-24q-24 0 -24 -20q0 -34 43 -64q32 -22 62.5 -45t63.5 -52q21 -18 35.5 -32.5l17.5 -17.5l10 7v138l201 -14v-82q0 -21 -5.5 -37t-22.5 -33q-11 -11 -35 -25t-43 -23q26 -20 56.5 -33.5t57 -19.5t40.5 -7l-12 -92
q-14 -4 -40.5 -7.5t-52.5 -3.5zM313 139h98q21 0 28 2.5t8 3.5q-21 21 -52 46t-60 45q-10 7 -19.5 11t-17.5 4q-24 0 -24 -33v-39q0 -23 8.5 -31.5t30.5 -8.5z" />
    <glyph glyph-name="quotesingle" unicode="'" horiz-adv-x="262" 
d="M130 480q-15 0 -28.5 18.5t-24.5 47.5t-19.5 62t-13 62t-4.5 47q0 40 20 57t70 17q53 0 72.5 -17t19.5 -57q0 -17 -4.5 -46.5t-13 -62t-20.5 -62t-25.5 -48t-28.5 -18.5z" />
    <glyph glyph-name="parenleft" unicode="(" horiz-adv-x="430" 
d="M333 -80l17 50q-27 26 -49 64.5t-35.5 102t-13.5 166.5q0 77 8.5 129.5t22.5 87t31.5 57t35.5 40.5l-17 50q-92 0 -147.5 -43.5t-80.5 -125t-25 -195.5q0 -110 25 -196.5t80.5 -136.5t147.5 -50z" />
    <glyph glyph-name="parenright" unicode=")" horiz-adv-x="430" 
d="M97 -80l-17 50q27 26 49 64.5t35.5 102t13.5 166.5q0 77 -8.5 129.5t-22.5 87t-31.5 57t-35.5 40.5l17 50q92 0 147.5 -43.5t80.5 -125t25 -195.5q0 -110 -25 -196.5t-80.5 -136.5t-147.5 -50z" />
    <glyph glyph-name="asterisk" unicode="*" horiz-adv-x="588" 
d="M228 250l-106 77l31 67l74 39l-83 -12l-64 36l40 124l73 -8l59 -58l-37 74l15 72h131l14 -72l-36 -73l56 55l72 9l41 -125l-64 -36l-72 11l64 -34l30 -66l-106 -77l-54 49l-12 72l-12 -74z" />
    <glyph glyph-name="plus" unicode="+" horiz-adv-x="641" 
d="M250 40v170h-170v141h170v169h141v-169h170v-141h-170v-170h-141z" />
    <glyph glyph-name="comma" unicode="," horiz-adv-x="354" 
d="M111 -138q-21 -6 -24.5 5.5t3.5 23.5q8 12 21 46t18 67q-29 7 -49 23t-20 62q0 44 26.5 64t74.5 20q54 0 83.5 -21.5t29.5 -73.5q0 -40 -16.5 -76.5t-42 -65.5t-53.5 -48.5t-51 -25.5z" />
    <glyph glyph-name="hyphen" unicode="-" horiz-adv-x="480" 
d="M80 180v156h320v-156h-320z" />
    <glyph glyph-name="period" unicode="." horiz-adv-x="363" 
d="M181 0q-101 0 -101 86q0 48 25.5 66.5t75.5 18.5q53 0 77.5 -18.5t24.5 -66.5q0 -86 -102 -86z" />
    <glyph glyph-name="slash" unicode="/" horiz-adv-x="482" 
d="M20 -80l259 662l12 51h171l-259 -664l-12 -49h-171z" />
    <glyph glyph-name="zero" unicode="0" horiz-adv-x="796" 
d="M303 0q-120 0 -171.5 47.5t-51.5 151.5v191q0 104 51 151t172 47h191q121 0 171.5 -47t50.5 -151v-191q0 -104 -51 -151.5t-171 -47.5h-191zM342 136h114q37 0 52.5 19t15.5 52v175q0 29 -16 49.5t-52 20.5h-114q-36 0 -53 -19t-17 -51v-175q0 -34 16.5 -52.5t53.5 -18.5
z" />
    <glyph glyph-name="one" unicode="1" horiz-adv-x="419" 
d="M147 0v452l-120 -9l-7 125l319 30v-598h-192z" />
    <glyph glyph-name="two" unicode="2" horiz-adv-x="677" 
d="M40 0v117q15 10 45 28.5t69 42.5t80 50t78 50t63 43q33 23 45 41t12 38v14q0 20 -11.5 28.5t-44.5 8.5h-50q-98 0 -160.5 -6.5t-115.5 -13.5l-10 128q7 2 55 9.5t126.5 14t174.5 6.5h7q86 0 135 -19.5t69 -54.5t20 -82v-21q0 -70 -41 -114t-105 -81q-50 -29 -89.5 -49
t-64.5 -34v-8h330v-136h-617z" />
    <glyph glyph-name="three" unicode="3" horiz-adv-x="742" 
d="M263 0q-84 0 -131 8.5t-67 18t-25 13.5l50 108q20 -2 59 -4.5t107 -4.5t174 -2q44 0 56 15.5t12 34.5v4q0 23 -12 37t-47 14h-272v119h242q27 0 42.5 9t15.5 35v11q0 21 -9 32.5t-38 11.5h-39q-64 0 -123 -3t-103.5 -7.5t-68.5 -9.5l-10 128q7 2 50.5 9.5t116.5 14
t168 6.5h27q84 0 132.5 -19.5t69.5 -54.5t21 -83v-17q0 -30 -11 -50.5t-25 -31.5t-24 -15q91 -27 91 -134v-14q0 -83 -50.5 -131t-172.5 -48h-206z" />
    <glyph glyph-name="four" unicode="4" horiz-adv-x="821" 
d="M432 0v88h-392v118l339 382h248v-364h134v-136h-134v-88h-195zM283 226h149v180h-10l-138 -170z" />
    <glyph glyph-name="five" unicode="5" horiz-adv-x="734" 
d="M255 0q-81 0 -125.5 8t-64 18t-25.5 14l49 109q15 -2 52.5 -4.5t106 -4.5t174.5 -2q42 0 55 14.5t13 46.5v6q0 25 -14.5 38t-54.5 13h-261l-80 -10v342h483q50 0 71 -4t21 -8l-30 -124h-352v-87q11 2 36.5 3.5t58.5 3t65 1.5h49q112 0 157 -41t45 -130v-23q0 -35 -8 -67
t-29 -57.5t-61 -40t-104 -14.5h-227z" />
    <glyph glyph-name="six" unicode="6" horiz-adv-x="764" 
d="M282 0q-82 0 -125.5 28.5t-60 74t-16.5 96.5v190q0 38 8 73.5t29 64t61 45t104 16.5h175q87 0 133.5 -5.5t66 -12.5t23.5 -12l-28 -118q-11 1 -53 3.5t-107.5 4.5t-149.5 2q-40 0 -54 -17.5t-14 -42.5v-34q11 3 63.5 10.5t137.5 7.5h37q105 0 153.5 -41.5t48.5 -130.5
v-24q0 -52 -17 -92.5t-60.5 -63t-123.5 -22.5h-231zM342 138h110q40 0 54 15t14 46v6q0 27 -13 39t-56 12h-177v-58q0 -28 15 -44t53 -16z" />
    <glyph glyph-name="seven" unicode="7" horiz-adv-x="680" 
d="M137 0l28 60l268 380v10h-413v138h640v-97l-311 -491h-212z" />
    <glyph glyph-name="eight" unicode="8" horiz-adv-x="736" 
d="M243 0q-193 0 -193 179v11q0 38 18.5 74.5t66.5 54.5q-24 14 -39.5 43t-15.5 67v11q0 39 16 73t56 54.5t111 20.5h211q70 0 109.5 -20.5t56 -54.5t16.5 -73v-11q0 -37 -15.5 -66.5t-40.5 -43.5q48 -18 67 -54.5t19 -74.5v-11q0 -179 -192 -179h-251zM322 368h94
q27 0 37.5 10t10.5 29v5q0 23 -10.5 31.5t-37.5 8.5h-94q-27 0 -38.5 -7t-11.5 -33v-5q0 -22 11 -30.5t39 -8.5zM312 136h114q37 0 52.5 13t15.5 38v3q0 29 -16 44.5t-52 15.5h-114q-36 0 -53 -16t-17 -44v-3q0 -25 16.5 -38t53.5 -13z" />
    <glyph glyph-name="nine" unicode="9" horiz-adv-x="764" 
d="M255 0q-68 0 -108 4.5t-58.5 11.5t-25.5 14l49 119q24 -2 98 -6.5t212 -4.5q44 0 56 18t12 43v23q-21 -4 -62 -6t-107 -2h-89q-101 0 -141.5 45t-40.5 122v14q0 100 48 146.5t153 46.5h231q77 0 121 -29t62.5 -74t18.5 -95v-191q0 -51 -16.5 -96.5t-60 -74t-125.5 -28.5
h-227zM316 332h174v60q0 32 -15.5 46t-52.5 14h-109q-42 0 -55.5 -15t-13.5 -45v-8q0 -25 11.5 -38.5t60.5 -13.5z" />
    <glyph glyph-name="colon" unicode=":" horiz-adv-x="363" 
d="M181 290q-101 0 -101 86q0 48 25.5 66.5t75.5 18.5q53 0 77.5 -18.5t24.5 -66.5q0 -86 -102 -86zM181 0q-101 0 -101 86q0 48 25.5 66.5t75.5 18.5q53 0 77.5 -18.5t24.5 -66.5q0 -86 -102 -86z" />
    <glyph glyph-name="semicolon" unicode=";" horiz-adv-x="374" 
d="M181 290q-101 0 -101 86q0 48 25.5 66.5t75.5 18.5q53 0 77.5 -18.5t24.5 -66.5q0 -86 -102 -86zM111 -138q-21 -6 -24.5 5.5t3.5 23.5q8 12 21 46t18 67q-29 7 -49 23t-20 62q0 44 26.5 64t74.5 20q54 0 83.5 -21.5t29.5 -73.5q0 -40 -16.5 -76.5t-42 -65.5t-53.5 -48.5
t-51 -25.5z" />
    <glyph glyph-name="less" unicode="&#x3c;" horiz-adv-x="640" 
d="M560 120v150l-304 80l304 77v153l-480 -170v-120z" />
    <glyph glyph-name="equal" unicode="=" horiz-adv-x="640" 
d="M80 320v141h480v-141h-480zM80 100v141h480v-141h-480z" />
    <glyph glyph-name="greater" unicode="&#x3e;" horiz-adv-x="640" 
d="M80 120v150l304 80l-304 77v153l480 -170v-120z" />
    <glyph glyph-name="question" unicode="?" horiz-adv-x="686" 
d="M215 240q-3 8 -6.5 23.5t-3.5 30.5q0 35 23 57.5t77 22.5h62q32 0 39.5 9.5t7.5 31.5v6q-1 20 -10 30t-39 10h-55q-84 0 -129.5 -7t-70.5 -13l-30 117q15 17 76 28.5t164 11.5h113q91 0 132 -41t41 -103v-33q0 -154 -162 -154h-63q-22 0 -33.5 -6.5t-17.5 -20.5h-115z
M273 0q-101 0 -101 86q0 48 25.5 66.5t75.5 18.5q53 0 77.5 -18.5t24.5 -66.5q0 -86 -102 -86z" />
    <glyph glyph-name="at" unicode="@" horiz-adv-x="980" 
d="M292 -120q-76 0 -123 25t-68 68t-21 95v352q0 60 21.5 107t68 74t122.5 27h410q96 0 147 -50t51 -138v-247q0 -72 -39 -103t-124 -31h-18q-54 0 -92 24.5t-38 65.5q-10 -39 -47 -66t-107 -27h-57q-43 0 -65.5 22.5t-22.5 56.5v217q0 37 22.5 58.5t65.5 21.5q23 0 54 -1.5
t63.5 -4t56.5 -4.5l81 30h50v-235q0 -25 13.5 -38t33.5 -13h10q26 0 37 13t11 38v211q1 27 -7.5 49.5t-32 36.5t-68.5 14h-381q-45 0 -68.5 -14t-32 -36.5t-8.5 -49.5v-348q0 -26 8.5 -49t32.5 -37t68 -14h440l-30 -90q-3 -3 -16 -6.5t-36 -3.5h-365zM472 165h10q50 0 50 69
v85h-60q-18 0 -24.5 -6.5t-6.5 -23.5v-93q0 -17 8 -24t23 -7z" />
    <glyph glyph-name="A" unicode="A" horiz-adv-x="861" 
d="M8 0l293 588h260l292 -588h-215l-49 107h-316l-55 -107h-210zM328 245h205l-97 213h-10z" />
    <glyph glyph-name="B" unicode="B" horiz-adv-x="817" 
d="M80 0v589h456q94 0 137 -37.5t43 -90.5v-30q0 -41 -17.5 -67.5t-37.5 -37.5q44 -14 70 -48.5t26 -90.5v-18q0 -30 -7 -60t-26.5 -54.5t-55 -39.5t-92.5 -15h-496zM275 362h200q26 0 36 11t10 30v10q0 21 -10 30t-45 9h-191v-90zM275 137h241q26 0 36 9.5t10 30.5v18
q0 19 -13 29.5t-45 10.5h-229v-98z" />
    <glyph glyph-name="C" unicode="C" horiz-adv-x="775" 
d="M273 0q-107 0 -155 47t-48 152v183q0 108 53 157.5t150 49.5h292q69 0 105.5 -7.5t36.5 -15.5l-31 -125q-25 3 -97.5 6.5t-182.5 3.5h-51q-47 0 -63.5 -17.5t-16.5 -53.5v-171q0 -34 14.5 -52.5t65.5 -18.5h41q143 0 218 3.5t90 7.5l61 -108q0 -5 -20.5 -15t-69 -18
t-134.5 -8h-258z" />
    <glyph glyph-name="D" unicode="D" horiz-adv-x="846" 
d="M90 0v508l-10 80h464q121 0 181.5 -48t60.5 -150v-191q0 -104 -60 -151.5t-182 -47.5h-454zM285 138h229q77 0 78 71v173q0 29 -17 49.5t-61 20.5h-229v-314z" />
    <glyph glyph-name="E" unicode="E" horiz-adv-x="786" 
d="M80 0v588h642v-136h-447v-83h331v-139h-331v-93h431l60 -126q0 -4 -27 -7.5t-93 -3.5h-566z" />
    <glyph glyph-name="F" unicode="F" horiz-adv-x="744" 
d="M90 0v508l-10 80h644v-136h-439v-91h331v-139h-331v-222h-195z" />
    <glyph glyph-name="G" unicode="G" horiz-adv-x="835" 
d="M273 0q-107 0 -155 47t-48 152v183q0 108 53 157.5t150 49.5h334q69 0 105.5 -7.5t36.5 -15.5l-31 -125q-25 3 -97.5 6.5t-182.5 3.5h-93q-47 0 -63.5 -17.5t-16.5 -53.5v-171q0 -34 14.5 -52.5t65.5 -18.5h81q46 0 83 0.5t65 1.5v76l-40 -1l-131 -10v138h362v-301
l10 -21q0 -8 -42 -14.5t-142 -6.5h-318z" />
    <glyph glyph-name="H" unicode="H" horiz-adv-x="856" 
d="M80 0v588h193v-224h311v224h192v-588h-192v228h-311v-228h-193z" />
    <glyph glyph-name="I" unicode="I" horiz-adv-x="352" 
d="M80 0v588h192v-588h-192z" />
    <glyph glyph-name="J" unicode="J" horiz-adv-x="667" 
d="M272 0q-72 0 -131.5 3.5t-95 12.5t-35.5 25l70 119q29 -13 80.5 -17.5t136.5 -4.5h33q47 0 62 22.5t15 48.5v299l-8 80h203v-409q0 -50 -12.5 -91t-51 -64.5t-117.5 -23.5h-149z" />
    <glyph glyph-name="K" unicode="K" horiz-adv-x="858" 
d="M727 -10q-49 0 -95 20t-81 54l-36 36l-36 36q-38 38 -80.5 60.5t-106.5 22.5h-10v-219h-192v508l-10 80h202v-231h30q17 0 26.5 4.5t20.5 16.5q24 26 53.5 63.5t58 77t48.5 69.5h245l-41 -60q-25 -27 -55.5 -59t-60.5 -62.5t-55 -55.5t-40 -39q31 -13 54 -29.5t50 -37.5
q25 -19 43.5 -35t44.5 -36q54 -42 93.5 -52.5t50.5 -10.5l-40 -111q-10 -3 -31.5 -6.5t-49.5 -3.5z" />
    <glyph glyph-name="L" unicode="L" horiz-adv-x="696" 
d="M80 0l10 80v508h192v-451h354l60 -126q0 -4 -27 -7.5t-93 -3.5h-496z" />
    <glyph glyph-name="M" unicode="M" horiz-adv-x="987" 
d="M90 0v508l-10 80h242l176 -350l180 350h229v-588h-191v337h-11l-42 -108l-73 -169h-182l-76 169l-41 108h-10v-337h-191z" />
    <glyph glyph-name="N" unicode="N" horiz-adv-x="868" 
d="M90 0v508l-10 80h184l282 -286l39 -44h11v330h192v-588h-167l-290 289l-39 47h-10v-336h-192z" />
    <glyph glyph-name="O" unicode="O" horiz-adv-x="837" 
d="M273 0q-106 0 -154.5 47.5t-48.5 151.5v191q0 102 48 150t155 48h292q105 0 153.5 -48t48.5 -150v-191q0 -104 -49 -151.5t-153 -47.5h-292zM342 136h155q78 0 78 71v175q0 70 -78 70h-155q-40 0 -60 -16t-20 -54v-175q0 -37 20 -54t60 -17z" />
    <glyph glyph-name="P" unicode="P" horiz-adv-x="805" 
d="M90 0v508l-10 81h463q67 0 107.5 -14.5t61 -39t27 -57t6.5 -68.5v-79q0 -48 -15.5 -88.5t-57 -65t-119.5 -24.5h-69q-63 0 -117.5 3t-81.5 5v-161h-195zM285 289h207q33 0 46 13t13 42v51q0 29 -12 42.5t-46 13.5h-208v-162z" />
    <glyph glyph-name="Q" unicode="Q" horiz-adv-x="859" 
d="M253 0q-70 0 -110 20t-56.5 60t-16.5 99v231q0 58 16 97.5t56 60t111 20.5h335q70 0 109.5 -25.5t56 -70t16.5 -102.5v-91q0 -58 -9 -97t-28.5 -66.5t-52.5 -51.5q-33 -23 -81 -42q26 -6 53.5 -12t57.5 -13q79 -17 123.5 -22t65.5 -5l-32 -116q-7 -2 -22 -6t-45 -4
q-34 0 -69.5 6.5t-80.5 19.5q-42 13 -81 31.5t-83 36.5t-100 30t-133 12zM345 136h41q71 0 112.5 15t59 54.5t17.5 111.5v65q0 32 -18.5 51t-59.5 19h-152q-43 0 -61.5 -17.5t-18.5 -52.5v-175q0 -37 18 -54t62 -17z" />
    <glyph glyph-name="R" unicode="R" horiz-adv-x="858" 
d="M729 -10q-40 0 -89 12.5t-97 61.5l-42 42q-30 30 -57.5 49t-62.5 28.5t-88 9.5h-8v-193h-195v508l-10 81h463q64 0 103.5 -15.5t61 -41t29.5 -57.5t8 -65v-19q0 -60 -30.5 -107.5t-96.5 -67.5q25 -15 47.5 -30.5t51.5 -32.5q33 -19 61.5 -27.5t47.5 -10.5t22 -2l-30 -113
q-12 -3 -36.5 -6.5t-52.5 -3.5zM401 326q25 0 48.5 1t42.5 3q34 4 46.5 21.5t12.5 42.5v11q0 22 -12.5 34t-45.5 12h-208v-121q25 -1 55 -2.5t61 -1.5z" />
    <glyph glyph-name="S" unicode="S" horiz-adv-x="796" 
d="M193 0q-68 0 -100 6t-32 14l60 129q23 -4 95 -7.5t187 -3.5h79q35 0 47 10t12 29v10q0 24 -12 33t-47 9h-229q-101 0 -147 37.5t-46 122.5v36q0 44 16.5 81t56.5 59.5t110 22.5h332q61 0 101.5 -7t40.5 -15l-30 -124q-28 3 -105.5 6.5t-196.5 3.5l-72 1q-31 0 -44 -8.5
t-14 -31.5v-7q0 -23 14 -32t45 -9h220q64 0 109 -13t69 -47.5t24 -101.5v-36q0 -75 -38.5 -121t-133.5 -46h-371z" />
    <glyph glyph-name="T" unicode="T" horiz-adv-x="713" 
d="M258 0v453h-238v136h673v-136h-241v-453h-194z" />
    <glyph glyph-name="U" unicode="U" horiz-adv-x="806" 
d="M268 -10q-100 0 -151.5 47t-51.5 152v399h195v-381q0 -47 23 -63t57 -16h129q32 0 56 16.5t24 62.5v381h192v-399q0 -105 -50.5 -152t-151.5 -47h-271z" />
    <glyph glyph-name="V" unicode="V" horiz-adv-x="778" 
d="M270 0l-270 587h211l148 -354l27 -82h9l26 82l151 354h206l-16 -60l-251 -527h-241z" />
    <glyph glyph-name="W" unicode="W" horiz-adv-x="1153" 
d="M214 0l-214 587h213l100 -334l23 -87h10l13 58l103 363h230l109 -363l18 -58h10l23 87l91 334h210l-10 -60l-206 -527h-230l-106 323l-20 84h-10l-19 -84l-105 -323h-233z" />
    <glyph glyph-name="X" unicode="X" horiz-adv-x="759" 
d="M0 0l38 60l212 234l-250 294h251l123 -181h11l123 181h251l-39 -59l-211 -235l250 -294h-251l-123 182h-11l-123 -182h-251z" />
    <glyph glyph-name="Y" unicode="Y" horiz-adv-x="780" 
d="M292 0v243l-292 345h241l99 -137l46 -73h10l46 73l97 137h241l-39 -60l-256 -289v-239h-193z" />
    <glyph glyph-name="Z" unicode="Z" horiz-adv-x="776" 
d="M50 0v117l384 335h-384v136h661v-116l-393 -335h368l60 -126q0 -4 -27 -7.5t-93 -3.5h-576z" />
    <glyph glyph-name="bracketleft" unicode="[" horiz-adv-x="413" 
d="M323 -100l10 70h-121v648h121l-10 70h-283v-788h283z" />
    <glyph glyph-name="backslash" unicode="\" horiz-adv-x="382" 
d="M362 -80l-259 662l-12 51h-171l259 -664l12 -49h171z" />
    <glyph glyph-name="bracketright" unicode="]" horiz-adv-x="453" 
d="M90 -100l-10 70h121v648h-121l10 70h283v-788h-283z" />
    <glyph glyph-name="asciicircum" unicode="^" horiz-adv-x="423" 
d="M53 350q-13 0 -13 14q0 6 7.5 26t19 47.5t25 56.5t26.5 53t22 36q11 14 21.5 17.5t22.5 3.5h61q11 0 22 -3.5t21 -17.5q14 -19 30 -52t31 -68.5t24.5 -63t9.5 -35.5q0 -13 -13 -13q-16 0 -27 13q-32 35 -64.5 69t-64.5 68q-34 -34 -67 -68t-67 -69q-14 -14 -27 -14z" />
    <glyph glyph-name="underscore" unicode="_" horiz-adv-x="640" 
d="M80 -120v120h480v-120h-480z" />
    <glyph glyph-name="grave" unicode="`" horiz-adv-x="230" 
d="M200 514q0 13 -9.5 36.5t-21.5 47t-19 35.5q-9 14 -22.5 21.5t-37.5 7.5h-21q-28 0 -38.5 -6.5t-10.5 -22.5t19.5 -37.5t47 -42.5t53.5 -38q11 -7 25.5 -12t24.5 -3t10 14z" />
    <glyph glyph-name="a" unicode="a" horiz-adv-x="672" 
d="M209 0q-88 0 -126 33t-38 110q0 71 39.5 103t124.5 32h31q56 0 107 -4t88 -8v16q0 14 -6 27t-42 13h-50q-109 0 -168 -3.5t-73 -6.5l-11 106q0 10 35 16.5t96 10t139 3.5h100q66 0 101 -19.5t48 -52.5t13 -76v-300h-142l-39 20q-24 -5 -76.5 -12.5t-120.5 -7.5h-30z
M267 118h138q22 0 26 4t4 25v35h-168q-19 0 -28 -7t-9 -27q0 -19 9 -24.5t28 -5.5z" />
    <glyph glyph-name="b" unicode="b" horiz-adv-x="690" 
d="M60 0v634h182v-198q43 5 101.5 8.5t133.5 3.5h10q65 0 98 -19.5t44 -53t11 -75.5v-151q0 -37 -12.5 -71.5t-45.5 -56t-95 -21.5h-10q-83 0 -145 4.5t-103 9.5l-27 -14h-142zM273 127h134q48 0 48 40v115q1 22 -9 31t-39 9h-10q-52 0 -94 -3t-61 -5v-156q0 -21 4.5 -26
t26.5 -5z" />
    <glyph glyph-name="c" unicode="c" horiz-adv-x="610" 
d="M213 0q-66 0 -101.5 19t-48.5 52.5t-13 77.5v151q0 40 13.5 73.5t48.5 54t101 20.5h128q115 0 169 -10t61 -20l-30 -106q-21 2 -76 6t-121 4h-61q-26 0 -37 -10t-11 -30v-116q0 -20 10 -30t38 -10h51q74 0 127.5 3.5t78.5 6.5l60 -95q0 -14 -49.5 -27.5t-147.5 -13.5
h-190z" />
    <glyph glyph-name="d" unicode="d" horiz-adv-x="692" 
d="M202 0q-66 0 -98.5 19.5t-43 53t-10.5 76.5v151q0 38 10.5 71.5t43 55t98.5 21.5h31q73 0 132.5 -4t81.5 -7v197h185v-634h-145l-39 20q-42 -7 -90.5 -13.5t-125.5 -6.5h-30zM283 126h133q21 0 26 5t5 25v159q-25 2 -59 4.5t-75 2.5h-30q-48 0 -48 -40v-116q0 -20 11 -30
t37 -10z" />
    <glyph glyph-name="e" unicode="e" horiz-adv-x="663" 
d="M213 0q-66 0 -101.5 19t-48.5 52.5t-13 77.5v151q0 40 13.5 73.5t48.5 54t101 20.5h207q78 0 119.5 -18.5t57 -52t15.5 -77.5v-128h-175q-90 0 -136.5 4t-65.5 5v-15q-1 -40 48 -40h31q80 0 148 3.5t101 6.5l60 -95q0 -10 -17 -19t-59.5 -15.5t-120.5 -6.5h-213zM235 268
h192v14q0 20 -3.5 28t-21.5 10t-61 2h-58q-48 0 -48 -40v-14z" />
    <glyph glyph-name="f" unicode="f" horiz-adv-x="538" 
d="M102 0v322h-82v125h82v69q0 148 162 148h69q120 0 172.5 -11t52.5 -19l-30 -116q-17 7 -61 13.5t-106 6.5h-29q-25 0 -36.5 -9t-11.5 -31v-51h188v-125h-188v-322h-182z" />
    <glyph glyph-name="g" unicode="g" horiz-adv-x="691" 
d="M369 -176q-103 0 -168 3.5t-100 9.5t-48 13.5t-13 14.5l50 105q11 -3 49 -11.5t111 -8.5h151q26 0 37.5 9t10.5 31v41q-31 -9 -86.5 -14.5t-129.5 -5.5h-29q-66 0 -98.5 18.5t-43 51.5t-10.5 79v140q0 24 5.5 50t21 48t46 36t79.5 14h30q70 0 114 -2t70.5 -5t44.5 -6
l26 13h142v-476q0 -66 -42 -107t-140 -41h-80zM285 137h133q23 0 27 4t4 26v148q-22 2 -42.5 3.5t-46 2.5t-64.5 1h-11q-48 0 -48 -40v-105q-1 -40 48 -40z" />
    <glyph glyph-name="h" unicode="h" horiz-adv-x="695" 
d="M60 0v648h185v-220q43 8 102 14t111 6h50q50 0 77 -14t38.5 -35t14 -42.5t2.5 -36.5v-320h-183v282q0 40 -48 40h-134q-19 0 -24.5 -3.5t-5.5 -18.5v-300h-185z" />
    <glyph glyph-name="i" unicode="i" horiz-adv-x="323" 
d="M161 491q-101 0 -101 86q0 48 25.5 66.5t75.5 18.5q53 0 77.5 -18.5t24.5 -66.5q0 -86 -102 -86zM69 0v448h182v-448h-182z" />
    <glyph glyph-name="j" unicode="j" horiz-adv-x="358" 
d="M196 491q-101 0 -101 87q0 47 25.5 65.5t75.5 18.5q53 0 77.5 -18.5t24.5 -65.5q0 -87 -102 -87zM59 -176q-64 0 -101.5 15t-37.5 25l40 90q12 -3 34.5 -6.5t47.5 -3.5q27 0 43.5 13t16.5 53v438h185v-458q0 -60 -25 -96.5t-68 -53t-99 -16.5h-36z" />
    <glyph glyph-name="k" unicode="k" horiz-adv-x="698" 
d="M579 -10q-49 0 -85.5 10t-69.5 43l-40 40l-40 40q-16 17 -26 26.5t-19.5 13t-26.5 3.5q-22 0 -26 -4t-4 -27v-135h-182v633h182v-339h32q17 0 32 14q9 9 27.5 33t40.5 53t40 53h210l-16 -31q-24 -30 -55.5 -66t-61 -66t-47.5 -42q39 -26 73 -55.5t87 -52.5
q35 -15 59.5 -19.5t34.5 -4.5l-28 -110q-10 -3 -33.5 -6.5t-57.5 -3.5z" />
    <glyph glyph-name="l" unicode="l" horiz-adv-x="312" 
d="M70 0v554l-10 80h192v-634h-182z" />
    <glyph glyph-name="m" unicode="m" horiz-adv-x="930" 
d="M60 0v448h145l25 -12q29 5 65.5 8.5t78.5 3.5h54q29 0 56 -7.5t40 -21.5q17 9 37 15.5t51.5 10t80.5 3.5h50q50 0 77 -14t38.5 -35t14 -42.5t2.5 -36.5v-320h-183v282q0 40 -48 40h-56q-16 0 -22 -4t-6 -18v-300h-186v282q0 40 -48 40h-51q-19 0 -24.5 -3.5t-5.5 -18.5
v-300h-185z" />
    <glyph glyph-name="n" unicode="n" horiz-adv-x="695" 
d="M60 0v448h145l40 -20q42 8 101.5 14t111.5 6h50q50 0 77 -14t38.5 -35t14 -42.5t2.5 -36.5v-320h-183v282q0 40 -48 40h-134q-19 0 -24.5 -3.5t-5.5 -18.5v-300h-185z" />
    <glyph glyph-name="o" unicode="o" horiz-adv-x="683" 
d="M203 0q-66 0 -99 19t-43.5 52.5t-10.5 77.5v151q0 42 11 75.5t43.5 53t98.5 19.5h278q66 0 98.5 -19.5t43 -53t10.5 -75.5v-151q0 -44 -10.5 -77.5t-43 -52.5t-98.5 -19h-278zM283 126h119q48 0 47 40v116q0 20 -10.5 30t-36.5 10h-118q-26 0 -37 -10t-11 -30v-116
q-1 -40 47 -40z" />
    <glyph glyph-name="p" unicode="p" horiz-adv-x="689" 
d="M60 -186v634h142l25 -13q45 5 97 9t132 4h30q67 0 99.5 -21t43 -54.5t10.5 -72.5v-151q0 -44 -15.5 -78t-53.5 -52.5t-104 -18.5h-30q-54 0 -107.5 4.5t-86.5 7.5v-198h-182zM273 126h133q48 0 48 40v116q0 20 -8 30t-40 10h-9q-64 0 -99.5 -3t-55.5 -5v-157
q0 -22 4.5 -26.5t26.5 -4.5z" />
    <glyph glyph-name="q" unicode="q" horiz-adv-x="692" 
d="M447 -186v206q-36 -11 -92.5 -15.5t-122.5 -4.5h-29q-65 0 -98 22t-44 56.5t-11 70.5v151q0 40 11 73.5t43.5 54t98.5 20.5h30q82 0 142 -4t87 -9l25 13h145v-634h-185zM283 126h133q22 0 26.5 4.5t4.5 25.5v159q-34 2 -73 4.5t-80 2.5h-11q-29 0 -38.5 -10t-9.5 -30
v-116q-1 -20 9 -30t39 -10z" />
    <glyph glyph-name="r" unicode="r" horiz-adv-x="551" 
d="M60 0v448h142l38 -20q46 30 122 30q50 0 88 -10.5t61.5 -22.5t29.5 -17l-50 -130q-10 7 -37.5 19t-64.5 22.5t-78 10.5h-11q-28 0 -43 -9.5t-15 -41.5v-279h-182z" />
    <glyph glyph-name="s" unicode="s" horiz-adv-x="679" 
d="M173 0q-67 0 -95 7t-28 14l40 105q12 -3 71.5 -6.5t173.5 -3.5h71q25 0 31.5 5.5t6.5 19.5q0 17 -7.5 21.5t-30.5 4.5h-203q-73 0 -113 27.5t-40 98.5v20q0 37 10 67.5t43 49t100 18.5h296q60 0 85 -7t25 -14l-10 -106q-16 3 -80.5 6.5t-177.5 3.5h-71q-25 0 -31.5 -5.5
t-6.5 -18.5t6.5 -18.5t31.5 -5.5h207q78 0 115 -34t37 -95v-19q0 -36 -9 -66.5t-41 -49.5t-102 -19h-304z" />
    <glyph glyph-name="t" unicode="t" horiz-adv-x="474" 
d="M234 0q-76 0 -104 32t-28 96v194h-82v126h42q17 0 27.5 6.5t13.5 23.5l19 107h164v-137h167v-126h-167v-155q0 -25 12 -33t36 -8h100l20 -116q-21 -3 -64 -6.5t-94 -3.5h-62z" />
    <glyph glyph-name="u" unicode="u" horiz-adv-x="676" 
d="M207 0q-66 0 -98.5 19.5t-43 53.5t-10.5 75v300h184v-282q0 -40 48 -40h114q22 0 26 4t4 26v292h185v-448h-145l-38 20q-40 -8 -92 -14t-105 -6h-29z" />
    <glyph glyph-name="v" unicode="v" horiz-adv-x="673" 
d="M227 0l-217 448h201l95 -245l26 -72h10l26 72l96 245h199l-16 -61l-199 -387h-221z" />
    <glyph glyph-name="w" unicode="w" horiz-adv-x="943" 
d="M171 0l-161 448h201l60 -224l16 -79h10l15 69l59 234h200l63 -234l14 -69h10l17 81l56 222h202l-16 -61l-146 -387h-220l-63 255l-10 47h-10l-13 -52l-64 -250h-220z" />
    <glyph glyph-name="x" unicode="x" horiz-adv-x="641" 
d="M10 0l20 40l173 185l-193 223h212l92 -125h10l94 125h213l-16 -32l-184 -191l200 -225h-214l-93 120h-10l-92 -120h-212z" />
    <glyph glyph-name="y" unicode="y" horiz-adv-x="632" 
d="M122 -196q-55 0 -100 10.5t-62 20.5l40 123q30 -13 64.5 -20t65.5 -7h11q87 0 126 69h-61l-196 448h201l86 -266l15 -61h10l15 61l87 266h198l-16 -61q-19 -39 -43.5 -89.5t-50.5 -104.5t-50.5 -104t-43.5 -89q-49 -100 -113 -148t-156 -48h-27z" />
    <glyph glyph-name="z" unicode="z" horiz-adv-x="629" 
d="M40 0v90l253 231h-233v127h510v-90l-272 -232h261l50 -115q0 -4 -30 -7.5t-101 -3.5h-438z" />
    <glyph glyph-name="braceleft" unicode="{" horiz-adv-x="482" 
d="M391 -100l11 70q-47 0 -63.5 19t-16.5 61v143q0 79 -61 111q61 27 61 112v122q0 44 19.5 62t60.5 18l-11 70h-104q-68 0 -102 -39t-34 -109v-135q0 -37 -18.5 -54t-52.5 -17v-60q32 0 51.5 -19t19.5 -51v-156q0 -76 33.5 -112t102.5 -36h104z" />
    <glyph glyph-name="bar" unicode="|" horiz-adv-x="256" 
d="M80 -120v708h96v-708h-96z" />
    <glyph glyph-name="braceright" unicode="}" horiz-adv-x="482" 
d="M91 -100l-11 70q47 0 63.5 19t16.5 61v143q0 79 61 111q-61 27 -61 112v122q0 44 -19.5 62t-60.5 18l11 70h104q68 0 102 -39t34 -109v-135q0 -37 18.5 -54t52.5 -17v-60q-32 0 -51.5 -19t-19.5 -51v-156q0 -76 -33.5 -112t-102.5 -36h-104z" />
    <glyph glyph-name="asciitilde" unicode="~" horiz-adv-x="402" 
d="M281 150q-28 0 -47 7.5t-33 17.5t-28 17.5t-33 7.5t-30 -8t-19 -22q-13 -19 -32 -18.5t-19 27.5q0 44 25.5 77.5t74.5 33.5q28 0 46 -7.5t31.5 -17.5t28 -17.5t35.5 -7.5q20 0 31 8t18 22q13 24 32.5 22t19.5 -31q0 -27 -10.5 -52.5t-33 -42t-57.5 -16.5z" />
    <glyph glyph-name="uni00A0" unicode="&#xa0;" horiz-adv-x="220" 
 />
    <glyph glyph-name="exclamdown" unicode="&#xa1;" horiz-adv-x="393" 
d="M197 287q-52 0 -77 18.5t-25 66.5q0 86 102 86q101 0 101 -86q0 -48 -25.5 -66.5t-75.5 -18.5zM140 -140q-33 0 -46.5 14.5t-13.5 44.5q0 41 9.5 95.5t23.5 109t27 94.5h112q14 -41 28 -96.5t24 -109.5t10 -93q0 -29 -13.5 -44t-46.5 -15h-114z" />
    <glyph glyph-name="cent" unicode="&#xa2;" horiz-adv-x="620" 
d="M310 -60v60h-97q-66 0 -101.5 19t-48.5 52.5t-13 77.5v151q0 40 13.5 73.5t48.5 54t101 20.5h97v62h121v-64q68 -4 102 -12.5t38 -15.5l-30 -106q-13 2 -42.5 4.5t-67.5 3.5v-192q38 2 65.5 4t43.5 4l70 -105q0 -13 -46.5 -21t-132.5 -10v-60h-121zM283 126h27v196h-27
q-26 0 -37 -10t-11 -30v-116q0 -20 10 -30t38 -10z" />
    <glyph glyph-name="sterling" unicode="&#xa3;" horiz-adv-x="699" 
d="M83 0l50 96v140h-73v117h73v49q0 96 48.5 141.5t155.5 45.5h28q89 0 136 -7.5t47 -15.5l-30 -125q-10 3 -37.5 6.5t-63.5 3.5h-11q-80 0 -80 -71v-27h124v-117h-124v-27q0 -25 -3.5 -44t-6.5 -27h51q129 0 191 3.5t70 7.5l51 -128q0 -8 -42 -14.5t-142 -6.5h-412z" />
    <glyph glyph-name="currency" unicode="&#xa4;" horiz-adv-x="759" 
d="M173 40l-93 93l54 34q-15 23 -21.5 55.5t-6.5 73.5v6q0 41 6.5 72.5t21.5 54.5l-54 35l93 93l45 -70q42 13 111 13h102q68 0 110 -13l45 70l93 -93l-54 -35q15 -23 21.5 -54.5t6.5 -72.5v-6q0 -41 -6.5 -73.5t-21.5 -55.5l54 -34l-93 -93l-45 69q-43 -12 -110 -12h-102
q-67 0 -111 12zM358 234h45q27 0 42 13.5t15 36.5v30q0 19 -15.5 34.5t-41.5 15.5h-45q-26 0 -42.5 -14t-16.5 -36v-30q0 -24 16 -37t43 -13z" />
    <glyph glyph-name="yen" unicode="&#xa5;" horiz-adv-x="820" 
d="M312 0v126h-213v116h213v1l-54 64h-159v116h61l-140 165h241l99 -137l46 -73h10l46 73l97 137h241l-39 -60l-93 -105h52v-116h-155l-57 -65h212v-116h-215v-126h-193z" />
    <glyph glyph-name="brokenbar" unicode="&#xa6;" horiz-adv-x="256" 
d="M80 300v288h96v-288h-96zM80 -80v299h96v-299h-96z" />
    <glyph glyph-name="section" unicode="&#xa7;" horiz-adv-x="619" 
d="M537 221l-350 115q-48 17 -71 41.5t-23 82.5q0 39 13 68t46.5 44.5t93.5 15.5h122q68 0 110 -7t42 -15l-20 -126q-12 3 -49.5 6.5t-97.5 3.5h-29q-21 0 -29.5 -2.5t-8.5 -7.5q0 -10 12 -14l36 -12q35 -10 77.5 -21t79.5 -24q46 -15 46 -64v-84zM225 -80q-68 0 -100 6
t-32 14l40 128q18 -4 57.5 -7.5t88.5 -3.5h49q38 0 38 16q0 14 -10 19.5t-38 13.5q-13 4 -46 11.5t-71.5 17.5t-69.5 21q-19 7 -30 19.5t-11 30.5v95q46 -15 99.5 -32t104.5 -33.5t90.5 -29.5t58.5 -19q43 -14 63.5 -34.5t26.5 -46.5t6 -58q0 -35 -13.5 -64.5t-46.5 -46.5
t-92 -17h-162z" />
    <glyph glyph-name="dieresis" unicode="&#xa8;" horiz-adv-x="413" 
d="M299.593 545q-83.4746 0 -83.4746 71.0771q0 39.6709 21.0752 54.9609q21.0752 15.2891 62.3994 15.2891q43.8027 0 64.0518 -15.2891q20.248 -15.29 20.248 -54.9609q0 -71.0771 -84.2998 -71.0771zM92.5928 545q-83.4746 0 -83.4746 71.0771q0 39.6709 21.0752 54.9609
q21.0752 15.2891 62.3994 15.2891q43.8027 0 64.0518 -15.2891q20.248 -15.29 20.248 -54.9609q0 -71.0771 -84.2998 -71.0771z" />
    <glyph glyph-name="copyright" unicode="&#xa9;" horiz-adv-x="814" 
d="M343.095 158q-40.001 0 -61.5166 11.5156t-29.3955 31.8193q-7.87891 20.3037 -7.87891 46.9707v91.5186q0 24.2422 8.18262 44.5459q8.18164 20.3037 29.3945 32.7285t61.2139 12.4248h77.5781q69.6992 0 102.428 -6.06055q32.7275 -6.06055 36.9707 -12.1221
l-18.1826 -64.2441q-12.7275 1.21191 -46.0615 3.63672q-33.335 2.42383 -73.3359 2.42383h-36.9707q-15.7578 0 -22.4248 -6.06055t-6.66699 -18.1826v-70.3047q0 -12.1221 6.06055 -18.1826t23.0312 -6.06055h30.9102q44.8496 0 77.2744 2.12109
q32.4258 2.12109 47.5781 3.93945l36.3643 -57.5771q0 -8.48535 -30.001 -16.668q-30.001 -8.18164 -89.3965 -8.18164h-115.155zM242 0q-61 0 -96.5 19t-50.5 52.5t-15 76.5v280q0 80 35.5 120t126.5 40h326q95 0 130.5 -40t35.5 -120v-280q0 -67 -39 -107.5t-127 -40.5
h-326zM242 80h326q55 0 70.5 20t15.5 48v280q0 38 -15.5 59t-70.5 21h-326q-52 0 -67 -20t-15 -60v-280q0 -30 15 -49t67 -19z" />
    <glyph glyph-name="ordfeminine" unicode="&#xaa;" horiz-adv-x="385" 
d="M126.5 330q-44 0 -63 16.5t-19 55q0 35.5 19.75 51.5t62.25 16h15.5q28 0 53.5 -2t44 -4v8q0 7 -3 13.5t-21 6.5h-25q-54.5 0 -84 -1.75t-36.5 -3.25l-5.5 53q0 5 17.5 8.25t48 5t69.5 1.75h50q33 0 50.5 -9.75t24 -26.25t6.5 -38v-150h-71l-19.5 10
q-12 -2.5 -38.25 -6.25t-60.25 -3.75h-15zM155.5 389h69q11 0 13 2t2 12.5v17.5h-84q-9.5 0 -14 -3.5t-4.5 -13.5q0 -9.5 4.5 -12.25t14 -2.75z" />
    <glyph glyph-name="guillemotleft" unicode="&#xab;" horiz-adv-x="838" 
d="M428 0l-172 241l172 239h-176l-172 -239l172 -241h176zM758 0l-172 241l172 239h-176l-172 -239l172 -241h176z" />
    <glyph glyph-name="logicalnot" unicode="&#xac;" horiz-adv-x="600" 
d="M474 250v100h-444v96h540v-196h-96z" />
    <glyph glyph-name="uni00AD" unicode="&#xad;" horiz-adv-x="480" 
d="M80 180v156h320v-156h-320z" />
    <glyph glyph-name="registered" unicode="&#xae;" horiz-adv-x="487" 
d="M313.005 400.777q-8.88867 0 -19.7783 2.77832q-10.8896 2.77734 -21.5566 13.667l-9.33301 9.33398q-6.66699 6.66602 -12.7783 10.8887t-13.8896 6.33398q-7.77734 2.11133 -19.5557 2.11133h-1.77832v-42.8906h-43.334v112.893l-2.22266 18h102.892
q14.2227 0 23.001 -3.44434t13.5557 -9.11133q4.77832 -5.66699 6.55664 -12.7783q1.77734 -7.11133 1.77734 -14.4443v-4.22266q0 -13.334 -6.77832 -23.8896q-6.77734 -10.5557 -21.4443 -15q5.55566 -3.33398 10.5557 -6.77832t11.4443 -7.22266
q7.33398 -4.22266 13.667 -6.11133q6.33398 -1.88867 10.5566 -2.33301q4.22168 -0.444336 4.88867 -0.444336l-6.66699 -25.1123q-2.66699 -0.666992 -8.11133 -1.44434q-5.44434 -0.77832 -11.667 -0.77832zM240.114 475.446q5.55566 0 10.7773 0.222656
q5.22266 0.22168 9.44531 0.666992q7.55566 0.888672 10.333 4.77734q2.77832 3.88965 2.77832 9.44531v2.44434q0 4.88867 -2.77832 7.55566q-2.77734 2.66699 -10.1113 2.66699h-46.2236v-26.8896q5.55566 -0.222656 12.2227 -0.555664
q6.66699 -0.333984 13.5566 -0.333984zM161 324q-30.5 0 -48.25 9.5t-25.25 26.25t-7.5 38.25v140q0 40 17.75 60t63.25 20h163q47.5 0 65.25 -20t17.75 -60v-140q0 -33.5 -19.5 -53.75t-63.5 -20.25h-163zM161 364h163q27.5 0 35.25 10t7.75 24v140q0 19 -7.75 29.5
t-35.25 10.5h-163q-26 0 -33.5 -10t-7.5 -30v-140q0 -15 7.5 -24.5t33.5 -9.5z" />
    <glyph glyph-name="macron" unicode="&#xaf;" horiz-adv-x="332" 
d="M70 530q-20 0 -30 6.5t-10 26.5v26q0 20 9 25.5t31 5.5h192q20 0 30 -5.5t10 -25.5v-26q0 -20 -11 -26.5t-29 -6.5h-192z" />
    <glyph glyph-name="degree" unicode="&#xb0;" horiz-adv-x="500" 
d="M250 430q-46 0 -85 23t-62 62t-23 85q0 47 23 85.5t62 61.5t85 23q47 0 85.5 -23t61.5 -61.5t23 -85.5q0 -46 -23 -85t-61.5 -62t-85.5 -23zM250 550q20 0 35 15t15 35t-15 35t-35 15t-35 -15t-15 -35t15 -35t35 -15z" />
    <glyph glyph-name="plusminus" unicode="&#xb1;" horiz-adv-x="640" 
d="M250 130v170h-170v141h170v169h141v-169h170v-141h-170v-170h-141zM80 -40v141h480v-141h-480z" />
    <glyph glyph-name="uni00B2" unicode="&#xb2;" horiz-adv-x="368" 
d="M40 232v58.5q7.5 5 22.5 14.25t34.5 21.25t40 25t39 25t31.5 21.5q16.5 11.5 22.5 20.5t6 19v7q0 10 -5.75 14.25t-22.25 4.25h-25q-49 0 -80.25 -3.25t-57.75 -6.75l-5 64q3.5 1 27.5 4.75t63.25 7t87.25 3.25h3.5q43 0 67.5 -9.75t34.5 -27.25t10 -41v-10.5
q0 -35 -20.5 -57t-52.5 -40.5q-25 -14.5 -44.75 -24.5t-32.25 -17v-4h165v-68h-308.5z" />
    <glyph glyph-name="uni00B3" unicode="&#xb3;" horiz-adv-x="416" 
d="M151.5 232q-42 0 -65.5 4.25t-33.5 9t-12.5 6.75l25 54q10 -1 29.5 -2.25t53.5 -2.25t87 -1q22 0 28 7.75t6 17.25v2q0 11.5 -6 18.5t-23.5 7h-136v59.5h121q13.5 0 21.25 4.5t7.75 17.5v5.5q0 10.5 -4.5 16.25t-19 5.75h-19.5q-32 0 -61.5 -1.5t-51.75 -3.75
t-34.25 -4.75l-5 64q3.5 1 25.25 4.75t58.25 7t84 3.25h13.5q42 0 66.25 -9.75t34.75 -27.25t10.5 -41.5v-8.5q0 -15 -5.5 -25.25t-12.5 -15.75t-12 -7.5q45.5 -13.5 45.5 -67v-7q0 -41.5 -25.25 -65.5t-86.25 -24h-103z" />
    <glyph glyph-name="acute" unicode="&#xb4;" horiz-adv-x="230" 
d="M-80 514q0 13 9.5 36.5t21.5 47t19 35.5q9 14 22.5 21.5t37.5 7.5h21q28 0 38.5 -6.5t10.5 -22.5t-19.5 -37.5t-47 -42.5t-53.5 -38q-11 -7 -25.5 -12t-24.5 -3t-10 14z" />
    <glyph glyph-name="uni00B5" unicode="&#xb5;" horiz-adv-x="681" 
d="M207 0q-20 0 -37 2q20 -30 34 -56.5t14 -55.5q0 -39 -22 -59.5t-58 -20.5q-35 0 -56.5 19.5t-21.5 71.5v189q-3 13 -4 28t-1 30v300h184v-282q0 -40 48 -40h114q22 0 26 4t4 26v292h185v-448h-145l-38 20q-40 -8 -92 -14t-105 -6h-29z" />
    <glyph glyph-name="paragraph" unicode="&#xb6;" horiz-adv-x="748" 
d="M195 -80v342q-55 0 -85 26t-30 92v90q0 55 27 86.5t88 31.5h473l-20 -96v-572h-194v532h-66v-532h-193z" />
    <glyph glyph-name="periodcentered" unicode="&#xb7;" horiz-adv-x="363" 
d="M181 220q-101 0 -101 86q0 48 25.5 66.5t75.5 18.5q53 0 77.5 -18.5t24.5 -66.5q0 -86 -102 -86z" />
    <glyph glyph-name="cedilla" unicode="&#xb8;" horiz-adv-x="233" 
d="M117 -230q-43 0 -71.5 20.5t-39.5 42.5q-6 14 -6 23q0 11 6.5 16t16.5 3q19 -5 39.5 -10t46.5 -5q39 0 39 21q0 18 -27 27t-65 6q9 19 22 43.5t25 42.5q6 9 15.5 13.5t16.5 4.5q8 0 13.5 -4.5t3.5 -13.5q-2 -13 -5 -20t-5 -20q38 -7 64.5 -28t26.5 -67q0 -41 -33 -68
t-83 -27z" />
    <glyph glyph-name="uni00B9" unicode="&#xb9;" horiz-adv-x="259" 
d="M83.5 232v226l-60 -4.5l-3.5 62.5l159.5 15v-299h-96z" />
    <glyph glyph-name="ordmasculine" unicode="&#xba;" horiz-adv-x="391" 
d="M126.5 330q-33 0 -49.5 9.5t-21.75 26.25t-5.25 38.75v75.5q0 21 5.5 37.75t21.75 26.5t49.25 9.75h139q33 0 49.25 -9.75t21.5 -26.5t5.25 -37.75v-75.5q0 -22 -5.25 -38.75t-21.5 -26.25t-49.25 -9.5h-139zM166.5 393h59.5q24 0 23.5 20v58q0 10 -5.25 15t-18.25 5h-59
q-13 0 -18.5 -5t-5.5 -15v-58q-0.5 -20 23.5 -20z" />
    <glyph glyph-name="guillemotright" unicode="&#xbb;" horiz-adv-x="838" 
d="M410 0l172 241l-172 239h176l172 -239l-172 -241h-176zM80 0l172 241l-172 239h176l172 -239l-172 -241h-176z" />
    <glyph glyph-name="onequarter" unicode="&#xbc;" horiz-adv-x="994" 
d="M83.5 285v226l-60 -4.5l-3.5 62.5l159.5 15v-299h-96zM159 -80l417 668h93l-418 -668h-92zM770 0v44h-196v59l169.5 191h124v-182h67v-68h-67v-44h-97.5zM695.5 113h74.5v90h-5l-69 -85z" />
    <glyph glyph-name="onehalf" unicode="&#xbd;" horiz-adv-x="908" 
d="M83.5 285v226l-60 -4.5l-3.5 62.5l159.5 15v-299h-96zM159 -80l417 668h93l-418 -668h-92zM589 0v58.5q7.5 5 22.5 14.25t34.5 21.25t40 25t39 25t31.5 21.5q16.5 11.5 22.5 20.5t6 19v7q0 10 -5.75 14.25t-22.25 4.25h-25q-49 0 -80.25 -3.25t-57.75 -6.75l-5 64
q3.5 1 27.5 4.75t63.25 7t87.25 3.25h3.5q43 0 67.5 -9.75t34.5 -27.25t10 -41v-10.5q0 -35 -20.5 -57t-52.5 -40.5q-25 -14.5 -44.75 -24.5t-32.25 -17v-4h165v-68h-308.5z" />
    <glyph glyph-name="threequarters" unicode="&#xbe;" horiz-adv-x="1106" 
d="M131.5 290q-42 0 -65.5 4.25t-33.5 9t-12.5 6.75l25 54q10 -1 29.5 -2.25t53.5 -2.25t87 -1q22 0 28 7.75t6 17.25v2q0 11.5 -6 18.5t-23.5 7h-136v59.5h121q13.5 0 21.25 4.5t7.75 17.5v5.5q0 10.5 -4.5 16.25t-19 5.75h-19.5q-32 0 -61.5 -1.5t-51.75 -3.75
t-34.25 -4.75l-5 64q3.5 1 25.25 4.75t58.25 7t84 3.25h13.5q42 0 66.25 -9.75t34.75 -27.25t10.5 -41.5v-8.5q0 -15 -5.5 -25.25t-12.5 -15.75t-12 -7.5q45.5 -13.5 45.5 -67v-7q0 -41.5 -25.25 -65.5t-86.25 -24h-103zM271 -80l417 668h93l-418 -668h-92zM882 0v44h-196
v59l169.5 191h124v-182h67v-68h-67v-44h-97.5zM807.5 113h74.5v90h-5l-69 -85z" />
    <glyph glyph-name="questiondown" unicode="&#xbf;" horiz-adv-x="687" 
d="M414 287q-52 0 -77 18.5t-25 66.5q0 86 102 86q100 0 100 -86q0 -48 -25 -66.5t-75 -18.5zM254 -140q-91 0 -132.5 41t-41.5 103v33q0 76 42 115t121 39h63q22 0 33.5 6.5t17.5 20.5h115q3 -8 6.5 -23.5t3.5 -30.5q0 -34 -23 -57t-77 -23h-62q-32 0 -39.5 -9.5
t-7.5 -31.5v-6q0 -19 9 -29.5t40 -10.5h55q84 0 129.5 7t70.5 13l30 -117q-15 -16 -75.5 -28t-164.5 -12h-113z" />
    <glyph glyph-name="Agrave" unicode="&#xc0;" horiz-adv-x="861" 
d="M8 0l293 588h260l292 -588h-215l-49 107h-316l-55 -107h-210zM328 245h205l-97 213h-10zM518 654q0 13 -9.5 36.5t-21.5 47t-19 35.5q-9 14 -22.5 21.5t-37.5 7.5h-21q-28 0 -38.5 -6.5t-10.5 -22.5t19.5 -37.5t47 -42.5t53.5 -38q11 -7 25.5 -12t24.5 -3t10 14z" />
    <glyph glyph-name="Aacute" unicode="&#xc1;" horiz-adv-x="861" 
d="M8 0l293 588h260l292 -588h-215l-49 107h-316l-55 -107h-210zM328 245h205l-97 213h-10zM378 654q0 13 9.5 36.5t21.5 47t19 35.5q9 14 22.5 21.5t37.5 7.5h21q28 0 38.5 -6.5t10.5 -22.5t-19.5 -37.5t-47 -42.5t-53.5 -38q-11 -7 -25.5 -12t-24.5 -3t-10 14z" />
    <glyph glyph-name="Acircumflex" unicode="&#xc2;" horiz-adv-x="861" 
d="M8 0l293 588h260l292 -588h-215l-49 107h-316l-55 -107h-210zM328 245h205l-97 213h-10zM280 658q0 16 15.5 40.5t34.5 47t30 32.5t25 15.5t39 5.5h20q24 0 39 -6t24 -15q11 -10 28.5 -33t32 -47.5t14.5 -39.5q0 -17 -19 -16t-36 12l-93 62l-99 -62q-21 -13 -38 -13.5
t-17 17.5z" />
    <glyph glyph-name="Atilde" unicode="&#xc3;" horiz-adv-x="861" 
d="M8 0l293 588h260l292 -588h-215l-49 107h-316l-55 -107h-210zM328 245h205l-97 213h-10zM503 650q-28 0 -47 7.5t-33 17.5t-28 17.5t-33 7.5t-30 -8t-19 -22q-13 -19 -32 -18.5t-19 27.5q0 44 25.5 77.5t74.5 33.5q28 0 46 -7.5t31.5 -17.5t28 -17.5t35.5 -7.5q20 0 31 8
t18 22q13 24 32.5 22t19.5 -31q0 -27 -10.5 -52.5t-33 -42t-57.5 -16.5z" />
    <glyph glyph-name="Adieresis" unicode="&#xc4;" horiz-adv-x="861" 
d="M8 0l293 588h260l292 -588h-215l-49 107h-316l-55 -107h-210zM328 245h205l-97 213h-10zM536.593 655q-83.4746 0 -83.4746 71.0771q0 39.6709 21.0752 54.9609q21.0752 15.2891 62.3994 15.2891q43.8027 0 64.0518 -15.2891q20.248 -15.29 20.248 -54.9609
q0 -71.0771 -84.2998 -71.0771zM329.593 655q-83.4746 0 -83.4746 71.0771q0 39.6709 21.0752 54.9609q21.0752 15.2891 62.3994 15.2891q43.8027 0 64.0518 -15.2891q20.248 -15.29 20.248 -54.9609q0 -71.0771 -84.2998 -71.0771z" />
    <glyph glyph-name="Aring" unicode="&#xc5;" horiz-adv-x="861" 
d="M8 0l293 588h260l292 -588h-215l-49 107h-316l-55 -107h-210zM328 245h205l-97 213h-10zM389 640q-44 0 -66 14.5t-29 37t-7 46.5v12q0 20 6.5 43t28 39t67.5 16h88q44 0 66 -16t29 -39t7 -43v-12q0 -24 -7 -46.5t-29 -37t-66 -14.5h-88zM409 716h48q11 0 15.5 6.5
t4.5 13.5v15q0 7 -4.5 13.5t-15.5 6.5h-48q-12 0 -16 -6.5t-4 -13.5v-15q0 -7 4 -13.5t16 -6.5z" />
    <glyph glyph-name="AE" unicode="&#xc6;" horiz-adv-x="1216" 
d="M10 0l293 588h849v-136h-447v-83h331v-139h-331v-93h431l60 -126q0 -4 -27 -7.5t-93 -3.5h-566v107h-235l-55 -107h-210zM330 245h180v213h-82z" />
    <glyph glyph-name="Ccedilla" unicode="&#xc7;" horiz-adv-x="775" 
d="M273 0q-107 0 -155 47t-48 152v183q0 108 53 157.5t150 49.5h292q69 0 105.5 -7.5t36.5 -15.5l-31 -125q-25 3 -97.5 6.5t-182.5 3.5h-51q-47 0 -63.5 -17.5t-16.5 -53.5v-171q0 -34 14.5 -52.5t65.5 -18.5h41q143 0 218 3.5t90 7.5l61 -108q0 -5 -20.5 -15t-69 -18
t-134.5 -8h-258zM419 -230q-43 0 -71.5 20.5t-39.5 42.5q-6 14 -6 23q0 11 6.5 16t16.5 3q19 -5 39.5 -10t46.5 -5q39 0 39 21q0 18 -27 27t-65 6q9 19 22 43.5t25 42.5q6 9 15.5 13.5t16.5 4.5q8 0 13.5 -4.5t3.5 -13.5q-2 -13 -5 -20t-5 -20q38 -7 64.5 -28t26.5 -67
q0 -41 -33 -68t-83 -27z" />
    <glyph glyph-name="Egrave" unicode="&#xc8;" horiz-adv-x="786" 
d="M80 0v588h642v-136h-447v-83h331v-139h-331v-93h431l60 -126q0 -4 -27 -7.5t-93 -3.5h-566zM488 654q0 13 -9.5 36.5t-21.5 47t-19 35.5q-9 14 -22.5 21.5t-37.5 7.5h-21q-28 0 -38.5 -6.5t-10.5 -22.5t19.5 -37.5t47 -42.5t53.5 -38q11 -7 25.5 -12t24.5 -3t10 14z" />
    <glyph glyph-name="Eacute" unicode="&#xc9;" horiz-adv-x="786" 
d="M80 0v588h642v-136h-447v-83h331v-139h-331v-93h431l60 -126q0 -4 -27 -7.5t-93 -3.5h-566zM348 654q0 13 9.5 36.5t21.5 47t19 35.5q9 14 22.5 21.5t37.5 7.5h21q28 0 38.5 -6.5t10.5 -22.5t-19.5 -37.5t-47 -42.5t-53.5 -38q-11 -7 -25.5 -12t-24.5 -3t-10 14z" />
    <glyph glyph-name="Ecircumflex" unicode="&#xca;" horiz-adv-x="786" 
d="M80 0v588h642v-136h-447v-83h331v-139h-331v-93h431l60 -126q0 -4 -27 -7.5t-93 -3.5h-566zM250 658q0 16 15.5 40.5t34.5 47t30 32.5t25 15.5t39 5.5h20q24 0 39 -6t24 -15q11 -10 28.5 -33t32 -47.5t14.5 -39.5q0 -17 -19 -16t-36 12l-93 62l-99 -62q-21 -13 -38 -13.5
t-17 17.5z" />
    <glyph glyph-name="Edieresis" unicode="&#xcb;" horiz-adv-x="786" 
d="M80 0v588h642v-136h-447v-83h331v-139h-331v-93h431l60 -126q0 -4 -27 -7.5t-93 -3.5h-566zM506.593 655q-83.4746 0 -83.4746 71.0771q0 39.6709 21.0752 54.9609q21.0752 15.2891 62.3994 15.2891q43.8027 0 64.0518 -15.2891q20.248 -15.29 20.248 -54.9609
q0 -71.0771 -84.2998 -71.0771zM299.593 655q-83.4746 0 -83.4746 71.0771q0 39.6709 21.0752 54.9609q21.0752 15.2891 62.3994 15.2891q43.8027 0 64.0518 -15.2891q20.248 -15.29 20.248 -54.9609q0 -71.0771 -84.2998 -71.0771z" />
    <glyph glyph-name="Igrave" unicode="&#xcc;" horiz-adv-x="352" 
d="M80 0v588h192v-588h-192zM261 654q0 13 -9.5 36.5t-21.5 47t-19 35.5q-9 14 -22.5 21.5t-37.5 7.5h-21q-28 0 -38.5 -6.5t-10.5 -22.5t19.5 -37.5t47 -42.5t53.5 -38q11 -7 25.5 -12t24.5 -3t10 14z" />
    <glyph glyph-name="Iacute" unicode="&#xcd;" horiz-adv-x="352" 
d="M80 0v588h192v-588h-192zM121 654q0 13 9.5 36.5t21.5 47t19 35.5q9 14 22.5 21.5t37.5 7.5h21q28 0 38.5 -6.5t10.5 -22.5t-19.5 -37.5t-47 -42.5t-53.5 -38q-11 -7 -25.5 -12t-24.5 -3t-10 14z" />
    <glyph glyph-name="Icircumflex" unicode="&#xce;" horiz-adv-x="352" 
d="M80 0v588h192v-588h-192zM23 658q0 16 15.5 40.5t34.5 47t30 32.5t25 15.5t39 5.5h20q24 0 39 -6t24 -15q11 -10 28.5 -33t32 -47.5t14.5 -39.5q0 -17 -19 -16t-36 12l-93 62l-99 -62q-21 -13 -38 -13.5t-17 17.5z" />
    <glyph glyph-name="Idieresis" unicode="&#xcf;" horiz-adv-x="352" 
d="M80 0v588h192v-588h-192zM279.593 655q-83.4746 0 -83.4746 71.0771q0 39.6709 21.0752 54.9609q21.0752 15.2891 62.3994 15.2891q43.8027 0 64.0518 -15.2891q20.248 -15.29 20.248 -54.9609q0 -71.0771 -84.2998 -71.0771zM72.5928 655q-83.4746 0 -83.4746 71.0771
q0 39.6709 21.0752 54.9609q21.0752 15.2891 62.3994 15.2891q43.8027 0 64.0518 -15.2891q20.248 -15.29 20.248 -54.9609q0 -71.0771 -84.2998 -71.0771z" />
    <glyph glyph-name="Eth" unicode="&#xd0;" horiz-adv-x="846" 
d="M90 0v508l-10 80h464q121 0 181.5 -48t60.5 -150v-191q0 -104 -60 -151.5t-182 -47.5h-454zM285 138h229q77 0 78 71v173q0 29 -17 49.5t-61 20.5h-229v-314zM-1 245v95h432v-95h-432z" />
    <glyph glyph-name="Ntilde" unicode="&#xd1;" horiz-adv-x="868" 
d="M90 0v508l-10 80h184l282 -286l39 -44h11v330h192v-588h-167l-290 289l-39 47h-10v-336h-192zM523 650q-28 0 -47 7.5t-33 17.5t-28 17.5t-33 7.5t-30 -8t-19 -22q-13 -19 -32 -18.5t-19 27.5q0 44 25.5 77.5t74.5 33.5q28 0 46 -7.5t31.5 -17.5t28 -17.5t35.5 -7.5
q20 0 31 8t18 22q13 24 32.5 22t19.5 -31q0 -27 -10.5 -52.5t-33 -42t-57.5 -16.5z" />
    <glyph glyph-name="Ograve" unicode="&#xd2;" horiz-adv-x="837" 
d="M273 0q-106 0 -154.5 47.5t-48.5 151.5v191q0 102 48 150t155 48h292q105 0 153.5 -48t48.5 -150v-191q0 -104 -49 -151.5t-153 -47.5h-292zM342 136h155q78 0 78 71v175q0 70 -78 70h-155q-40 0 -60 -16t-20 -54v-175q0 -37 20 -54t60 -17zM504 654q0 13 -9.5 36.5
t-21.5 47t-19 35.5q-9 14 -22.5 21.5t-37.5 7.5h-21q-28 0 -38.5 -6.5t-10.5 -22.5t19.5 -37.5t47 -42.5t53.5 -38q11 -7 25.5 -12t24.5 -3t10 14z" />
    <glyph glyph-name="Oacute" unicode="&#xd3;" horiz-adv-x="837" 
d="M273 0q-106 0 -154.5 47.5t-48.5 151.5v191q0 102 48 150t155 48h292q105 0 153.5 -48t48.5 -150v-191q0 -104 -49 -151.5t-153 -47.5h-292zM342 136h155q78 0 78 71v175q0 70 -78 70h-155q-40 0 -60 -16t-20 -54v-175q0 -37 20 -54t60 -17zM364 654q0 13 9.5 36.5
t21.5 47t19 35.5q9 14 22.5 21.5t37.5 7.5h21q28 0 38.5 -6.5t10.5 -22.5t-19.5 -37.5t-47 -42.5t-53.5 -38q-11 -7 -25.5 -12t-24.5 -3t-10 14z" />
    <glyph glyph-name="Ocircumflex" unicode="&#xd4;" horiz-adv-x="837" 
d="M273 0q-106 0 -154.5 47.5t-48.5 151.5v191q0 102 48 150t155 48h292q105 0 153.5 -48t48.5 -150v-191q0 -104 -49 -151.5t-153 -47.5h-292zM342 136h155q78 0 78 71v175q0 70 -78 70h-155q-40 0 -60 -16t-20 -54v-175q0 -37 20 -54t60 -17zM266 658q0 16 15.5 40.5
t34.5 47t30 32.5t25 15.5t39 5.5h20q24 0 39 -6t24 -15q11 -10 28.5 -33t32 -47.5t14.5 -39.5q0 -17 -19 -16t-36 12l-93 62l-99 -62q-21 -13 -38 -13.5t-17 17.5z" />
    <glyph glyph-name="Otilde" unicode="&#xd5;" horiz-adv-x="837" 
d="M273 0q-106 0 -154.5 47.5t-48.5 151.5v191q0 102 48 150t155 48h292q105 0 153.5 -48t48.5 -150v-191q0 -104 -49 -151.5t-153 -47.5h-292zM342 136h155q78 0 78 71v175q0 70 -78 70h-155q-40 0 -60 -16t-20 -54v-175q0 -37 20 -54t60 -17zM489 650q-28 0 -47 7.5
t-33 17.5t-28 17.5t-33 7.5t-30 -8t-19 -22q-13 -19 -32 -18.5t-19 27.5q0 44 25.5 77.5t74.5 33.5q28 0 46 -7.5t31.5 -17.5t28 -17.5t35.5 -7.5q20 0 31 8t18 22q13 24 32.5 22t19.5 -31q0 -27 -10.5 -52.5t-33 -42t-57.5 -16.5z" />
    <glyph glyph-name="Odieresis" unicode="&#xd6;" horiz-adv-x="837" 
d="M273 0q-106 0 -154.5 47.5t-48.5 151.5v191q0 102 48 150t155 48h292q105 0 153.5 -48t48.5 -150v-191q0 -104 -49 -151.5t-153 -47.5h-292zM342 136h155q78 0 78 71v175q0 70 -78 70h-155q-40 0 -60 -16t-20 -54v-175q0 -37 20 -54t60 -17zM522.593 655
q-83.4746 0 -83.4746 71.0771q0 39.6709 21.0752 54.9609q21.0752 15.2891 62.3994 15.2891q43.8027 0 64.0518 -15.2891q20.248 -15.29 20.248 -54.9609q0 -71.0771 -84.2998 -71.0771zM315.593 655q-83.4746 0 -83.4746 71.0771q0 39.6709 21.0752 54.9609
q21.0752 15.2891 62.3994 15.2891q43.8027 0 64.0518 -15.2891q20.248 -15.29 20.248 -54.9609q0 -71.0771 -84.2998 -71.0771z" />
    <glyph glyph-name="multiply" unicode="&#xd7;" horiz-adv-x="656" 
d="M179 40l-99 100l148 148l-148 149l99 99l149 -148l148 148l99 -100l-148 -148l149 -148l-100 -100l-148 149z" />
    <glyph glyph-name="Oslash" unicode="&#xd8;" horiz-adv-x="837" 
d="M273 0q-106 0 -154.5 47.5t-48.5 151.5v191q0 102 48 150t155 48h292q105 0 153.5 -48t48.5 -150v-191q0 -104 -49 -151.5t-153 -47.5h-292zM342 136h155q78 0 78 71v175q0 70 -78 70h-155q-40 0 -60 -16t-20 -54v-175q0 -37 20 -54t60 -17zM146 -49l417 668h130
l-418 -668h-129z" />
    <glyph glyph-name="Ugrave" unicode="&#xd9;" horiz-adv-x="806" 
d="M268 -10q-100 0 -151.5 47t-51.5 152v399h195v-381q0 -47 23 -63t57 -16h129q32 0 56 16.5t24 62.5v381h192v-399q0 -105 -50.5 -152t-151.5 -47h-271zM490 654q0 13 -9.5 36.5t-21.5 47t-19 35.5q-9 14 -22.5 21.5t-37.5 7.5h-21q-28 0 -38.5 -6.5t-10.5 -22.5
t19.5 -37.5t47 -42.5t53.5 -38q11 -7 25.5 -12t24.5 -3t10 14z" />
    <glyph glyph-name="Uacute" unicode="&#xda;" horiz-adv-x="806" 
d="M268 -10q-100 0 -151.5 47t-51.5 152v399h195v-381q0 -47 23 -63t57 -16h129q32 0 56 16.5t24 62.5v381h192v-399q0 -105 -50.5 -152t-151.5 -47h-271zM350 654q0 13 9.5 36.5t21.5 47t19 35.5q9 14 22.5 21.5t37.5 7.5h21q28 0 38.5 -6.5t10.5 -22.5t-19.5 -37.5
t-47 -42.5t-53.5 -38q-11 -7 -25.5 -12t-24.5 -3t-10 14z" />
    <glyph glyph-name="Ucircumflex" unicode="&#xdb;" horiz-adv-x="806" 
d="M268 -10q-100 0 -151.5 47t-51.5 152v399h195v-381q0 -47 23 -63t57 -16h129q32 0 56 16.5t24 62.5v381h192v-399q0 -105 -50.5 -152t-151.5 -47h-271zM252 658q0 16 15.5 40.5t34.5 47t30 32.5t25 15.5t39 5.5h20q24 0 39 -6t24 -15q11 -10 28.5 -33t32 -47.5
t14.5 -39.5q0 -17 -19 -16t-36 12l-93 62l-99 -62q-21 -13 -38 -13.5t-17 17.5z" />
    <glyph glyph-name="Udieresis" unicode="&#xdc;" horiz-adv-x="806" 
d="M268 -10q-100 0 -151.5 47t-51.5 152v399h195v-381q0 -47 23 -63t57 -16h129q32 0 56 16.5t24 62.5v381h192v-399q0 -105 -50.5 -152t-151.5 -47h-271zM508.593 655q-83.4746 0 -83.4746 71.0771q0 39.6709 21.0752 54.9609q21.0752 15.2891 62.3994 15.2891
q43.8027 0 64.0518 -15.2891q20.248 -15.29 20.248 -54.9609q0 -71.0771 -84.2998 -71.0771zM301.593 655q-83.4746 0 -83.4746 71.0771q0 39.6709 21.0752 54.9609q21.0752 15.2891 62.3994 15.2891q43.8027 0 64.0518 -15.2891q20.248 -15.29 20.248 -54.9609
q0 -71.0771 -84.2998 -71.0771z" />
    <glyph glyph-name="Yacute" unicode="&#xdd;" horiz-adv-x="780" 
d="M292 0v243l-292 345h241l99 -137l46 -73h10l46 73l97 137h241l-39 -60l-256 -289v-239h-193zM336 654q0 13 9.5 36.5t21.5 47t19 35.5q9 14 22.5 21.5t37.5 7.5h21q28 0 38.5 -6.5t10.5 -22.5t-19.5 -37.5t-47 -42.5t-53.5 -38q-11 -7 -25.5 -12t-24.5 -3t-10 14z" />
    <glyph glyph-name="Thorn" unicode="&#xde;" horiz-adv-x="785" 
d="M90 0v549l-10 80h205v-120h288q61 0 93.5 -22t45.5 -56.5t13 -70.5v-69q0 -42 -11.5 -75.5t-44.5 -53t-96 -19.5h-110q-63 0 -110.5 3t-67.5 5v-151h-195zM285 279h198q29 0 38.5 10t9.5 30v13q0 22 -10.5 31t-37.5 9h-198v-93z" />
    <glyph glyph-name="germandbls" unicode="&#xdf;" horiz-adv-x="733" 
d="M90 0v318h-50v130h50v92q0 18 4 41t19 44.5t45.5 35.5t84.5 14h172q65 0 97.5 -18t43.5 -45.5t11 -54.5v-3q0 -38 -17 -71t-47 -60q-26 -23 -33 -31.5t-7 -19.5q0 -19 28 -19h40q57 0 90 -24t47.5 -60.5t14.5 -74.5v-39q0 -69 -33 -112t-119 -43h-107q-67 0 -98.5 10.5
t-35.5 20.5l41 105q12 -3 41 -6.5t68 -3.5h20q38 0 38 45v10q0 36 -38 36h-39q-54 0 -83 29.5t-29 73.5v5q0 36 14 64t33 59q14 24 20 39t6 30q0 13 -7 21.5t-30 8.5h-35q-22 0 -30 -13t-8 -32v-502h-182z" />
    <glyph glyph-name="agrave" unicode="&#xe0;" horiz-adv-x="672" 
d="M209 0q-88 0 -126 33t-38 110q0 71 39.5 103t124.5 32h31q56 0 107 -4t88 -8v16q0 14 -6 27t-42 13h-50q-109 0 -168 -3.5t-73 -6.5l-11 106q0 10 35 16.5t96 10t139 3.5h100q66 0 101 -19.5t48 -52.5t13 -76v-300h-142l-39 20q-24 -5 -76.5 -12.5t-120.5 -7.5h-30z
M267 118h138q22 0 26 4t4 25v35h-168q-19 0 -28 -7t-9 -27q0 -19 9 -24.5t28 -5.5zM431 514q0 13 -9.5 36.5t-21.5 47t-19 35.5q-9 14 -22.5 21.5t-37.5 7.5h-21q-28 0 -38.5 -6.5t-10.5 -22.5t19.5 -37.5t47 -42.5t53.5 -38q11 -7 25.5 -12t24.5 -3t10 14z" />
    <glyph glyph-name="aacute" unicode="&#xe1;" horiz-adv-x="672" 
d="M209 0q-88 0 -126 33t-38 110q0 71 39.5 103t124.5 32h31q56 0 107 -4t88 -8v16q0 14 -6 27t-42 13h-50q-109 0 -168 -3.5t-73 -6.5l-11 106q0 10 35 16.5t96 10t139 3.5h100q66 0 101 -19.5t48 -52.5t13 -76v-300h-142l-39 20q-24 -5 -76.5 -12.5t-120.5 -7.5h-30z
M267 118h138q22 0 26 4t4 25v35h-168q-19 0 -28 -7t-9 -27q0 -19 9 -24.5t28 -5.5zM291 514q0 13 9.5 36.5t21.5 47t19 35.5q9 14 22.5 21.5t37.5 7.5h21q28 0 38.5 -6.5t10.5 -22.5t-19.5 -37.5t-47 -42.5t-53.5 -38q-11 -7 -25.5 -12t-24.5 -3t-10 14z" />
    <glyph glyph-name="acircumflex" unicode="&#xe2;" horiz-adv-x="672" 
d="M209 0q-88 0 -126 33t-38 110q0 71 39.5 103t124.5 32h31q56 0 107 -4t88 -8v16q0 14 -6 27t-42 13h-50q-109 0 -168 -3.5t-73 -6.5l-11 106q0 10 35 16.5t96 10t139 3.5h100q66 0 101 -19.5t48 -52.5t13 -76v-300h-142l-39 20q-24 -5 -76.5 -12.5t-120.5 -7.5h-30z
M267 118h138q22 0 26 4t4 25v35h-168q-19 0 -28 -7t-9 -27q0 -19 9 -24.5t28 -5.5zM193 518q0 16 15.5 40.5t34.5 47t30 32.5t25 15.5t39 5.5h20q24 0 39 -6t24 -15q11 -10 28.5 -33t32 -47.5t14.5 -39.5q0 -17 -19 -16t-36 12l-93 62l-99 -62q-21 -13 -38 -13.5t-17 17.5z
" />
    <glyph glyph-name="atilde" unicode="&#xe3;" horiz-adv-x="672" 
d="M209 0q-88 0 -126 33t-38 110q0 71 39.5 103t124.5 32h31q56 0 107 -4t88 -8v16q0 14 -6 27t-42 13h-50q-109 0 -168 -3.5t-73 -6.5l-11 106q0 10 35 16.5t96 10t139 3.5h100q66 0 101 -19.5t48 -52.5t13 -76v-300h-142l-39 20q-24 -5 -76.5 -12.5t-120.5 -7.5h-30z
M267 118h138q22 0 26 4t4 25v35h-168q-19 0 -28 -7t-9 -27q0 -19 9 -24.5t28 -5.5zM416 510q-28 0 -47 7.5t-33 17.5t-28 17.5t-33 7.5t-30 -8t-19 -22q-13 -19 -32 -18.5t-19 27.5q0 44 25.5 77.5t74.5 33.5q28 0 46 -7.5t31.5 -17.5t28 -17.5t35.5 -7.5q20 0 31 8t18 22
q13 24 32.5 22t19.5 -31q0 -27 -10.5 -52.5t-33 -42t-57.5 -16.5z" />
    <glyph glyph-name="adieresis" unicode="&#xe4;" horiz-adv-x="672" 
d="M209 0q-88 0 -126 33t-38 110q0 71 39.5 103t124.5 32h31q56 0 107 -4t88 -8v16q0 14 -6 27t-42 13h-50q-109 0 -168 -3.5t-73 -6.5l-11 106q0 10 35 16.5t96 10t139 3.5h100q66 0 101 -19.5t48 -52.5t13 -76v-300h-142l-39 20q-24 -5 -76.5 -12.5t-120.5 -7.5h-30z
M267 118h138q22 0 26 4t4 25v35h-168q-19 0 -28 -7t-9 -27q0 -19 9 -24.5t28 -5.5zM449.593 515q-83.4746 0 -83.4746 71.0771q0 39.6709 21.0752 54.9609q21.0752 15.2891 62.3994 15.2891q43.8027 0 64.0518 -15.2891q20.248 -15.29 20.248 -54.9609
q0 -71.0771 -84.2998 -71.0771zM242.593 515q-83.4746 0 -83.4746 71.0771q0 39.6709 21.0752 54.9609q21.0752 15.2891 62.3994 15.2891q43.8027 0 64.0518 -15.2891q20.248 -15.29 20.248 -54.9609q0 -71.0771 -84.2998 -71.0771z" />
    <glyph glyph-name="aring" unicode="&#xe5;" horiz-adv-x="672" 
d="M209 0q-88 0 -126 33t-38 110q0 71 39.5 103t124.5 32h31q56 0 107 -4t88 -8v16q0 14 -6 27t-42 13h-50q-109 0 -168 -3.5t-73 -6.5l-11 106q0 10 35 16.5t96 10t139 3.5h100q66 0 101 -19.5t48 -52.5t13 -76v-300h-142l-39 20q-24 -5 -76.5 -12.5t-120.5 -7.5h-30z
M267 118h138q22 0 26 4t4 25v35h-168q-19 0 -28 -7t-9 -27q0 -19 9 -24.5t28 -5.5zM302 500q-44 0 -66 14.5t-29 37t-7 46.5v12q0 20 6.5 43t28 39t67.5 16h88q44 0 66 -16t29 -39t7 -43v-12q0 -24 -7 -46.5t-29 -37t-66 -14.5h-88zM322 576h48q11 0 15.5 6.5t4.5 13.5v15
q0 7 -4.5 13.5t-15.5 6.5h-48q-12 0 -16 -6.5t-4 -13.5v-15q0 -7 4 -13.5t16 -6.5z" />
    <glyph glyph-name="ae" unicode="&#xe6;" horiz-adv-x="1048" 
d="M209 0q-88 0 -126 33t-38 110q0 71 39.5 103t124.5 32h31q56 0 110 -5t85 -17v26q0 11 -3 21t-18 16.5t-51 6.5h-50q-92 0 -147.5 -4.5t-69.5 -9.5l-15 112q35 10 90 17t124 7h39q47 0 82 -9.5t60 -25.5q19 16 48.5 25.5t73.5 9.5h207q78 0 119.5 -18.5t57 -52
t15.5 -77.5v-128h-175q-90 0 -136.5 4t-65.5 5v-15q-1 -40 48 -40h31q80 0 148 3.5t101 6.5l60 -95q0 -10 -17 -19t-59.5 -15.5t-120.5 -6.5h-213q-46 0 -76.5 9.5t-49.5 26.5q-33 -18 -81 -27t-112 -9h-70zM620 268h192v14q0 20 -3.5 28t-21.5 10t-61 2h-58q-48 0 -48 -40
v-14zM267 118h138q20 0 25 4.5t5 14.5v5q0 8 -5.5 17.5t-28 16t-73.5 6.5h-61q-19 0 -28 -7t-9 -27q0 -19 9 -24.5t28 -5.5z" />
    <glyph glyph-name="ccedilla" unicode="&#xe7;" horiz-adv-x="610" 
d="M213 0q-66 0 -101.5 19t-48.5 52.5t-13 77.5v151q0 40 13.5 73.5t48.5 54t101 20.5h128q115 0 169 -10t61 -20l-30 -106q-21 2 -76 6t-121 4h-61q-26 0 -37 -10t-11 -30v-116q0 -20 10 -30t38 -10h51q74 0 127.5 3.5t78.5 6.5l60 -95q0 -14 -49.5 -27.5t-147.5 -13.5
h-190zM296 -230q-43 0 -71.5 20.5t-39.5 42.5q-6 14 -6 23q0 11 6.5 16t16.5 3q19 -5 39.5 -10t46.5 -5q39 0 39 21q0 18 -27 27t-65 6q9 19 22 43.5t25 42.5q6 9 15.5 13.5t16.5 4.5q8 0 13.5 -4.5t3.5 -13.5q-2 -13 -5 -20t-5 -20q38 -7 64.5 -28t26.5 -67q0 -41 -33 -68
t-83 -27z" />
    <glyph glyph-name="egrave" unicode="&#xe8;" horiz-adv-x="663" 
d="M213 0q-66 0 -101.5 19t-48.5 52.5t-13 77.5v151q0 40 13.5 73.5t48.5 54t101 20.5h207q78 0 119.5 -18.5t57 -52t15.5 -77.5v-128h-175q-90 0 -136.5 4t-65.5 5v-15q-1 -40 48 -40h31q80 0 148 3.5t101 6.5l60 -95q0 -10 -17 -19t-59.5 -15.5t-120.5 -6.5h-213zM235 268
h192v14q0 20 -3.5 28t-21.5 10t-61 2h-58q-48 0 -48 -40v-14zM420 514q0 13 -9.5 36.5t-21.5 47t-19 35.5q-9 14 -22.5 21.5t-37.5 7.5h-21q-28 0 -38.5 -6.5t-10.5 -22.5t19.5 -37.5t47 -42.5t53.5 -38q11 -7 25.5 -12t24.5 -3t10 14z" />
    <glyph glyph-name="eacute" unicode="&#xe9;" horiz-adv-x="663" 
d="M213 0q-66 0 -101.5 19t-48.5 52.5t-13 77.5v151q0 40 13.5 73.5t48.5 54t101 20.5h207q78 0 119.5 -18.5t57 -52t15.5 -77.5v-128h-175q-90 0 -136.5 4t-65.5 5v-15q-1 -40 48 -40h31q80 0 148 3.5t101 6.5l60 -95q0 -10 -17 -19t-59.5 -15.5t-120.5 -6.5h-213zM235 268
h192v14q0 20 -3.5 28t-21.5 10t-61 2h-58q-48 0 -48 -40v-14zM280 514q0 13 9.5 36.5t21.5 47t19 35.5q9 14 22.5 21.5t37.5 7.5h21q28 0 38.5 -6.5t10.5 -22.5t-19.5 -37.5t-47 -42.5t-53.5 -38q-11 -7 -25.5 -12t-24.5 -3t-10 14z" />
    <glyph glyph-name="ecircumflex" unicode="&#xea;" horiz-adv-x="663" 
d="M213 0q-66 0 -101.5 19t-48.5 52.5t-13 77.5v151q0 40 13.5 73.5t48.5 54t101 20.5h207q78 0 119.5 -18.5t57 -52t15.5 -77.5v-128h-175q-90 0 -136.5 4t-65.5 5v-15q-1 -40 48 -40h31q80 0 148 3.5t101 6.5l60 -95q0 -10 -17 -19t-59.5 -15.5t-120.5 -6.5h-213zM235 268
h192v14q0 20 -3.5 28t-21.5 10t-61 2h-58q-48 0 -48 -40v-14zM182 518q0 16 15.5 40.5t34.5 47t30 32.5t25 15.5t39 5.5h20q24 0 39 -6t24 -15q11 -10 28.5 -33t32 -47.5t14.5 -39.5q0 -17 -19 -16t-36 12l-93 62l-99 -62q-21 -13 -38 -13.5t-17 17.5z" />
    <glyph glyph-name="edieresis" unicode="&#xeb;" horiz-adv-x="663" 
d="M213 0q-66 0 -101.5 19t-48.5 52.5t-13 77.5v151q0 40 13.5 73.5t48.5 54t101 20.5h207q78 0 119.5 -18.5t57 -52t15.5 -77.5v-128h-175q-90 0 -136.5 4t-65.5 5v-15q-1 -40 48 -40h31q80 0 148 3.5t101 6.5l60 -95q0 -10 -17 -19t-59.5 -15.5t-120.5 -6.5h-213zM235 268
h192v14q0 20 -3.5 28t-21.5 10t-61 2h-58q-48 0 -48 -40v-14zM438.593 515q-83.4746 0 -83.4746 71.0771q0 39.6709 21.0752 54.9609q21.0752 15.2891 62.3994 15.2891q43.8027 0 64.0518 -15.2891q20.248 -15.29 20.248 -54.9609q0 -71.0771 -84.2998 -71.0771z
M231.593 515q-83.4746 0 -83.4746 71.0771q0 39.6709 21.0752 54.9609q21.0752 15.2891 62.3994 15.2891q43.8027 0 64.0518 -15.2891q20.248 -15.29 20.248 -54.9609q0 -71.0771 -84.2998 -71.0771z" />
    <glyph glyph-name="igrave" unicode="&#xec;" horiz-adv-x="302" 
d="M60 0v448h182v-448h-182zM236 514q0 13 -9.5 36.5t-21.5 47t-19 35.5q-9 14 -22.5 21.5t-37.5 7.5h-21q-28 0 -38.5 -6.5t-10.5 -22.5t19.5 -37.5t47 -42.5t53.5 -38q11 -7 25.5 -12t24.5 -3t10 14z" />
    <glyph glyph-name="iacute" unicode="&#xed;" horiz-adv-x="302" 
d="M60 0v448h182v-448h-182zM96 514q0 13 9.5 36.5t21.5 47t19 35.5q9 14 22.5 21.5t37.5 7.5h21q28 0 38.5 -6.5t10.5 -22.5t-19.5 -37.5t-47 -42.5t-53.5 -38q-11 -7 -25.5 -12t-24.5 -3t-10 14z" />
    <glyph glyph-name="icircumflex" unicode="&#xee;" horiz-adv-x="302" 
d="M60 0v448h182v-448h-182zM-2 518q0 16 15.5 40.5t34.5 47t30 32.5t25 15.5t39 5.5h20q24 0 39 -6t24 -15q11 -10 28.5 -33t32 -47.5t14.5 -39.5q0 -17 -19 -16t-36 12l-93 62l-99 -62q-21 -13 -38 -13.5t-17 17.5z" />
    <glyph glyph-name="idieresis" unicode="&#xef;" horiz-adv-x="302" 
d="M60 0v448h182v-448h-182zM254.593 515q-83.4746 0 -83.4746 71.0771q0 39.6709 21.0752 54.9609q21.0752 15.2891 62.3994 15.2891q43.8027 0 64.0518 -15.2891q20.248 -15.29 20.248 -54.9609q0 -71.0771 -84.2998 -71.0771zM47.5928 515q-83.4746 0 -83.4746 71.0771
q0 39.6709 21.0752 54.9609q21.0752 15.2891 62.3994 15.2891q43.8027 0 64.0518 -15.2891q20.248 -15.29 20.248 -54.9609q0 -71.0771 -84.2998 -71.0771z" />
    <glyph glyph-name="eth" unicode="&#xf0;" horiz-adv-x="661" 
d="M234 0q-68 0 -108.5 20t-58 53.5t-17.5 75.5v141q0 22 7 49t24.5 52t49.5 41t83 16h11q44 0 72 -4.5t58 -13.5l5 9l-99 91l-56 -59l-73 58l62 57l-87 65l96 105l85 -73l69 74l75 -74l-75 -66q31 -28 61.5 -58t55.5 -55l39 -39q55 -55 76.5 -106.5t21.5 -116.5v-41
q0 -88 -48.5 -144.5t-150.5 -56.5h-178zM281 126h74q35 0 53 19.5t18 50.5v18q0 62 -21 85t-83 23h-20q-33 0 -51 -19t-18 -51v-76q-1 -28 9 -39t39 -11z" />
    <glyph glyph-name="ntilde" unicode="&#xf1;" horiz-adv-x="695" 
d="M60 0v448h145l40 -20q42 8 101.5 14t111.5 6h50q50 0 77 -14t38.5 -35t14 -42.5t2.5 -36.5v-320h-183v282q0 40 -48 40h-134q-19 0 -24.5 -3.5t-5.5 -18.5v-300h-185zM400 510q-28 0 -47 7.5t-33 17.5t-28 17.5t-33 7.5t-30 -8t-19 -22q-13 -19 -32 -18.5t-19 27.5
q0 44 25.5 77.5t74.5 33.5q28 0 46 -7.5t31.5 -17.5t28 -17.5t35.5 -7.5q20 0 31 8t18 22q13 24 32.5 22t19.5 -31q0 -27 -10.5 -52.5t-33 -42t-57.5 -16.5z" />
    <glyph glyph-name="ograve" unicode="&#xf2;" horiz-adv-x="683" 
d="M203 0q-66 0 -99 19t-43.5 52.5t-10.5 77.5v151q0 42 11 75.5t43.5 53t98.5 19.5h278q66 0 98.5 -19.5t43 -53t10.5 -75.5v-151q0 -44 -10.5 -77.5t-43 -52.5t-98.5 -19h-278zM283 126h119q48 0 47 40v116q0 20 -10.5 30t-36.5 10h-118q-26 0 -37 -10t-11 -30v-116
q-1 -40 47 -40zM430 514q0 13 -9.5 36.5t-21.5 47t-19 35.5q-9 14 -22.5 21.5t-37.5 7.5h-21q-28 0 -38.5 -6.5t-10.5 -22.5t19.5 -37.5t47 -42.5t53.5 -38q11 -7 25.5 -12t24.5 -3t10 14z" />
    <glyph glyph-name="oacute" unicode="&#xf3;" horiz-adv-x="683" 
d="M203 0q-66 0 -99 19t-43.5 52.5t-10.5 77.5v151q0 42 11 75.5t43.5 53t98.5 19.5h278q66 0 98.5 -19.5t43 -53t10.5 -75.5v-151q0 -44 -10.5 -77.5t-43 -52.5t-98.5 -19h-278zM283 126h119q48 0 47 40v116q0 20 -10.5 30t-36.5 10h-118q-26 0 -37 -10t-11 -30v-116
q-1 -40 47 -40zM290 514q0 13 9.5 36.5t21.5 47t19 35.5q9 14 22.5 21.5t37.5 7.5h21q28 0 38.5 -6.5t10.5 -22.5t-19.5 -37.5t-47 -42.5t-53.5 -38q-11 -7 -25.5 -12t-24.5 -3t-10 14z" />
    <glyph glyph-name="ocircumflex" unicode="&#xf4;" horiz-adv-x="683" 
d="M203 0q-66 0 -99 19t-43.5 52.5t-10.5 77.5v151q0 42 11 75.5t43.5 53t98.5 19.5h278q66 0 98.5 -19.5t43 -53t10.5 -75.5v-151q0 -44 -10.5 -77.5t-43 -52.5t-98.5 -19h-278zM283 126h119q48 0 47 40v116q0 20 -10.5 30t-36.5 10h-118q-26 0 -37 -10t-11 -30v-116
q-1 -40 47 -40zM192 518q0 16 15.5 40.5t34.5 47t30 32.5t25 15.5t39 5.5h20q24 0 39 -6t24 -15q11 -10 28.5 -33t32 -47.5t14.5 -39.5q0 -17 -19 -16t-36 12l-93 62l-99 -62q-21 -13 -38 -13.5t-17 17.5z" />
    <glyph glyph-name="otilde" unicode="&#xf5;" horiz-adv-x="683" 
d="M203 0q-66 0 -99 19t-43.5 52.5t-10.5 77.5v151q0 42 11 75.5t43.5 53t98.5 19.5h278q66 0 98.5 -19.5t43 -53t10.5 -75.5v-151q0 -44 -10.5 -77.5t-43 -52.5t-98.5 -19h-278zM283 126h119q48 0 47 40v116q0 20 -10.5 30t-36.5 10h-118q-26 0 -37 -10t-11 -30v-116
q-1 -40 47 -40zM415 510q-28 0 -47 7.5t-33 17.5t-28 17.5t-33 7.5t-30 -8t-19 -22q-13 -19 -32 -18.5t-19 27.5q0 44 25.5 77.5t74.5 33.5q28 0 46 -7.5t31.5 -17.5t28 -17.5t35.5 -7.5q20 0 31 8t18 22q13 24 32.5 22t19.5 -31q0 -27 -10.5 -52.5t-33 -42t-57.5 -16.5z
" />
    <glyph glyph-name="odieresis" unicode="&#xf6;" horiz-adv-x="683" 
d="M203 0q-66 0 -99 19t-43.5 52.5t-10.5 77.5v151q0 42 11 75.5t43.5 53t98.5 19.5h278q66 0 98.5 -19.5t43 -53t10.5 -75.5v-151q0 -44 -10.5 -77.5t-43 -52.5t-98.5 -19h-278zM283 126h119q48 0 47 40v116q0 20 -10.5 30t-36.5 10h-118q-26 0 -37 -10t-11 -30v-116
q-1 -40 47 -40zM448.593 515q-83.4746 0 -83.4746 71.0771q0 39.6709 21.0752 54.9609q21.0752 15.2891 62.3994 15.2891q43.8027 0 64.0518 -15.2891q20.248 -15.29 20.248 -54.9609q0 -71.0771 -84.2998 -71.0771zM241.593 515q-83.4746 0 -83.4746 71.0771
q0 39.6709 21.0752 54.9609q21.0752 15.2891 62.3994 15.2891q43.8027 0 64.0518 -15.2891q20.248 -15.29 20.248 -54.9609q0 -71.0771 -84.2998 -71.0771z" />
    <glyph glyph-name="divide" unicode="&#xf7;" horiz-adv-x="640" 
d="M80 210v141h480v-141h-480zM320 0q-101 0 -101 86q0 48 25.5 66.5t75.5 18.5q53 0 77.5 -18.5t24.5 -66.5q0 -86 -102 -86zM320 390q-101 0 -101 86q0 48 25.5 66.5t75.5 18.5q53 0 77.5 -18.5t24.5 -66.5q0 -86 -102 -86z" />
    <glyph glyph-name="oslash" unicode="&#xf8;" horiz-adv-x="683" 
d="M203 0q-66 0 -99 19t-43.5 52.5t-10.5 77.5v151q0 42 11 75.5t43.5 53t98.5 19.5h278q66 0 98.5 -19.5t43 -53t10.5 -75.5v-151q0 -44 -10.5 -77.5t-43 -52.5t-98.5 -19h-278zM283 126h119q48 0 47 40v116q0 20 -10.5 30t-36.5 10h-118q-26 0 -37 -10t-11 -30v-116
q-1 -40 47 -40zM67 -121l417 668h130l-418 -668h-129z" />
    <glyph glyph-name="ugrave" unicode="&#xf9;" horiz-adv-x="676" 
d="M207 0q-66 0 -98.5 19.5t-43 53.5t-10.5 75v300h184v-282q0 -40 48 -40h114q22 0 26 4t4 26v292h185v-448h-145l-38 20q-40 -8 -92 -14t-105 -6h-29zM420 514q0 13 -9.5 36.5t-21.5 47t-19 35.5q-9 14 -22.5 21.5t-37.5 7.5h-21q-28 0 -38.5 -6.5t-10.5 -22.5t19.5 -37.5
t47 -42.5t53.5 -38q11 -7 25.5 -12t24.5 -3t10 14z" />
    <glyph glyph-name="uacute" unicode="&#xfa;" horiz-adv-x="676" 
d="M207 0q-66 0 -98.5 19.5t-43 53.5t-10.5 75v300h184v-282q0 -40 48 -40h114q22 0 26 4t4 26v292h185v-448h-145l-38 20q-40 -8 -92 -14t-105 -6h-29zM280 514q0 13 9.5 36.5t21.5 47t19 35.5q9 14 22.5 21.5t37.5 7.5h21q28 0 38.5 -6.5t10.5 -22.5t-19.5 -37.5
t-47 -42.5t-53.5 -38q-11 -7 -25.5 -12t-24.5 -3t-10 14z" />
    <glyph glyph-name="ucircumflex" unicode="&#xfb;" horiz-adv-x="676" 
d="M207 0q-66 0 -98.5 19.5t-43 53.5t-10.5 75v300h184v-282q0 -40 48 -40h114q22 0 26 4t4 26v292h185v-448h-145l-38 20q-40 -8 -92 -14t-105 -6h-29zM182 518q0 16 15.5 40.5t34.5 47t30 32.5t25 15.5t39 5.5h20q24 0 39 -6t24 -15q11 -10 28.5 -33t32 -47.5t14.5 -39.5
q0 -17 -19 -16t-36 12l-93 62l-99 -62q-21 -13 -38 -13.5t-17 17.5z" />
    <glyph glyph-name="udieresis" unicode="&#xfc;" horiz-adv-x="676" 
d="M207 0q-66 0 -98.5 19.5t-43 53.5t-10.5 75v300h184v-282q0 -40 48 -40h114q22 0 26 4t4 26v292h185v-448h-145l-38 20q-40 -8 -92 -14t-105 -6h-29zM438.593 515q-83.4746 0 -83.4746 71.0771q0 39.6709 21.0752 54.9609q21.0752 15.2891 62.3994 15.2891
q43.8027 0 64.0518 -15.2891q20.248 -15.29 20.248 -54.9609q0 -71.0771 -84.2998 -71.0771zM231.593 515q-83.4746 0 -83.4746 71.0771q0 39.6709 21.0752 54.9609q21.0752 15.2891 62.3994 15.2891q43.8027 0 64.0518 -15.2891q20.248 -15.29 20.248 -54.9609
q0 -71.0771 -84.2998 -71.0771z" />
    <glyph glyph-name="yacute" unicode="&#xfd;" horiz-adv-x="632" 
d="M122 -196q-55 0 -100 10.5t-62 20.5l40 123q30 -13 64.5 -20t65.5 -7h11q87 0 126 69h-61l-196 448h201l86 -266l15 -61h10l15 61l87 266h198l-16 -61q-19 -39 -43.5 -89.5t-50.5 -104.5t-50.5 -104t-43.5 -89q-49 -100 -113 -148t-156 -48h-27zM266 514q0 13 9.5 36.5
t21.5 47t19 35.5q9 14 22.5 21.5t37.5 7.5h21q28 0 38.5 -6.5t10.5 -22.5t-19.5 -37.5t-47 -42.5t-53.5 -38q-11 -7 -25.5 -12t-24.5 -3t-10 14z" />
    <glyph glyph-name="thorn" unicode="&#xfe;" horiz-adv-x="719" 
d="M80 -244v1000h182v-321q30 4 58.5 6.5t65.5 4.5t90 2h30q67 0 99.5 -21t43 -54.5t10.5 -72.5v-151q0 -44 -15.5 -78t-53.5 -52.5t-104 -18.5h-30q-54 0 -107.5 4.5t-86.5 7.5v-256h-182zM293 127h133q48 0 48 40v115q0 20 -8 30t-40 10h-9q-64 0 -99.5 -3t-55.5 -5v-156
q0 -22 4.5 -26.5t26.5 -4.5z" />
    <glyph glyph-name="ydieresis" unicode="&#xff;" horiz-adv-x="632" 
d="M122 -196q-55 0 -100 10.5t-62 20.5l40 123q30 -13 64.5 -20t65.5 -7h11q87 0 126 69h-61l-196 448h201l86 -266l15 -61h10l15 61l87 266h198l-16 -61q-19 -39 -43.5 -89.5t-50.5 -104.5t-50.5 -104t-43.5 -89q-49 -100 -113 -148t-156 -48h-27zM424.593 515
q-83.4746 0 -83.4746 71.0771q0 39.6709 21.0752 54.9609q21.0752 15.2891 62.3994 15.2891q43.8027 0 64.0518 -15.2891q20.248 -15.29 20.248 -54.9609q0 -71.0771 -84.2998 -71.0771zM217.593 515q-83.4746 0 -83.4746 71.0771q0 39.6709 21.0752 54.9609
q21.0752 15.2891 62.3994 15.2891q43.8027 0 64.0518 -15.2891q20.248 -15.29 20.248 -54.9609q0 -71.0771 -84.2998 -71.0771z" />
    <glyph glyph-name="Amacron" unicode="&#x100;" horiz-adv-x="861" 
d="M8 0l293 588h260l292 -588h-215l-49 107h-316l-55 -107h-210zM328 245h205l-97 213h-10zM337 660q-20 0 -30 6.5t-10 26.5v26q0 20 9 25.5t31 5.5h192q20 0 30 -5.5t10 -25.5v-26q0 -20 -11 -26.5t-29 -6.5h-192z" />
    <glyph glyph-name="amacron" unicode="&#x101;" horiz-adv-x="672" 
d="M209 0q-88 0 -126 33t-38 110q0 71 39.5 103t124.5 32h31q56 0 107 -4t88 -8v16q0 14 -6 27t-42 13h-50q-109 0 -168 -3.5t-73 -6.5l-11 106q0 10 35 16.5t96 10t139 3.5h100q66 0 101 -19.5t48 -52.5t13 -76v-300h-142l-39 20q-24 -5 -76.5 -12.5t-120.5 -7.5h-30z
M267 118h138q22 0 26 4t4 25v35h-168q-19 0 -28 -7t-9 -27q0 -19 9 -24.5t28 -5.5zM250 520q-20 0 -30 6.5t-10 26.5v26q0 20 9 25.5t31 5.5h192q20 0 30 -5.5t10 -25.5v-26q0 -20 -11 -26.5t-29 -6.5h-192z" />
    <glyph glyph-name="Abreve" unicode="&#x102;" horiz-adv-x="861" 
d="M8 0l293 588h260l292 -588h-215l-49 107h-316l-55 -107h-210zM328 245h205l-97 213h-10zM433 640q-58 0 -90.5 16.5t-46 46.5t-13.5 68q0 20 9.5 25t21 0.5t17.5 -14.5q10 -16 20 -28t28.5 -18t53.5 -6t52.5 6t27.5 18t20 28q7 11 18.5 15t21.5 -1.5t10 -24.5
q0 -64 -31.5 -97.5t-118.5 -33.5z" />
    <glyph glyph-name="abreve" unicode="&#x103;" horiz-adv-x="672" 
d="M209 0q-88 0 -126 33t-38 110q0 71 39.5 103t124.5 32h31q56 0 107 -4t88 -8v16q0 14 -6 27t-42 13h-50q-109 0 -168 -3.5t-73 -6.5l-11 106q0 10 35 16.5t96 10t139 3.5h100q66 0 101 -19.5t48 -52.5t13 -76v-300h-142l-39 20q-24 -5 -76.5 -12.5t-120.5 -7.5h-30z
M267 118h138q22 0 26 4t4 25v35h-168q-19 0 -28 -7t-9 -27q0 -19 9 -24.5t28 -5.5zM346 500q-58 0 -90.5 16.5t-46 46.5t-13.5 68q0 20 9.5 25t21 0.5t17.5 -14.5q10 -16 20 -28t28.5 -18t53.5 -6t52.5 6t27.5 18t20 28q7 11 18.5 15t21.5 -1.5t10 -24.5q0 -64 -31.5 -97.5
t-118.5 -33.5z" />
    <glyph glyph-name="Aogonek" unicode="&#x104;" horiz-adv-x="861" 
d="M8 0l293 588h260l292 -588h-215l-49 107h-316l-55 -107h-210zM328 245h205l-97 213h-10zM687 -184q-52 0 -79 26t-27 70q0 45 24 72.5t53 37.5q17 6 38 7.5t36 -1.5t15 -9q0 -7 -11 -13t-26 -14.5t-26 -21.5t-11 -33q0 -31 37 -31q28 0 46.5 9.5t35.5 9.5q13 0 14 -12.5
t-8 -31.5q-10 -22 -39.5 -43.5t-71.5 -21.5z" />
    <glyph glyph-name="aogonek" unicode="&#x105;" horiz-adv-x="672" 
d="M209 0q-88 0 -126 33t-38 110q0 71 39.5 103t124.5 32h31q56 0 107 -4t88 -8v16q0 14 -6 27t-42 13h-50q-109 0 -168 -3.5t-73 -6.5l-11 106q0 10 35 16.5t96 10t139 3.5h100q66 0 101 -19.5t48 -52.5t13 -76v-300h-142l-39 20q-24 -5 -76.5 -12.5t-120.5 -7.5h-30z
M267 118h138q22 0 26 4t4 25v35h-168q-19 0 -28 -7t-9 -27q0 -19 9 -24.5t28 -5.5zM527 -190q-52 0 -79 26t-27 70q0 45 24 72.5t53 37.5q17 6 38 7.5t36 -1.5t15 -9q0 -7 -11 -13t-26 -14.5t-26 -21.5t-11 -33q0 -31 37 -31q28 0 46.5 9.5t35.5 9.5q13 0 14 -12.5t-8 -31.5
q-10 -22 -39.5 -43.5t-71.5 -21.5z" />
    <glyph glyph-name="Cacute" unicode="&#x106;" horiz-adv-x="775" 
d="M273 0q-107 0 -155 47t-48 152v183q0 108 53 157.5t150 49.5h292q69 0 105.5 -7.5t36.5 -15.5l-31 -125q-25 3 -97.5 6.5t-182.5 3.5h-51q-47 0 -63.5 -17.5t-16.5 -53.5v-171q0 -34 14.5 -52.5t65.5 -18.5h41q143 0 218 3.5t90 7.5l61 -108q0 -5 -20.5 -15t-69 -18
t-134.5 -8h-258zM368 654q0 13 9.5 36.5t21.5 47t19 35.5q9 14 22.5 21.5t37.5 7.5h21q28 0 38.5 -6.5t10.5 -22.5t-19.5 -37.5t-47 -42.5t-53.5 -38q-11 -7 -25.5 -12t-24.5 -3t-10 14z" />
    <glyph glyph-name="cacute" unicode="&#x107;" horiz-adv-x="610" 
d="M213 0q-66 0 -101.5 19t-48.5 52.5t-13 77.5v151q0 40 13.5 73.5t48.5 54t101 20.5h128q115 0 169 -10t61 -20l-30 -106q-21 2 -76 6t-121 4h-61q-26 0 -37 -10t-11 -30v-116q0 -20 10 -30t38 -10h51q74 0 127.5 3.5t78.5 6.5l60 -95q0 -14 -49.5 -27.5t-147.5 -13.5
h-190zM285 514q0 13 9.5 36.5t21.5 47t19 35.5q9 14 22.5 21.5t37.5 7.5h21q28 0 38.5 -6.5t10.5 -22.5t-19.5 -37.5t-47 -42.5t-53.5 -38q-11 -7 -25.5 -12t-24.5 -3t-10 14z" />
    <glyph glyph-name="Ccircumflex" unicode="&#x108;" horiz-adv-x="775" 
d="M273 0q-107 0 -155 47t-48 152v183q0 108 53 157.5t150 49.5h292q69 0 105.5 -7.5t36.5 -15.5l-31 -125q-25 3 -97.5 6.5t-182.5 3.5h-51q-47 0 -63.5 -17.5t-16.5 -53.5v-171q0 -34 14.5 -52.5t65.5 -18.5h41q143 0 218 3.5t90 7.5l61 -108q0 -5 -20.5 -15t-69 -18
t-134.5 -8h-258zM270 658q0 16 15.5 40.5t34.5 47t30 32.5t25 15.5t39 5.5h20q24 0 39 -6t24 -15q11 -10 28.5 -33t32 -47.5t14.5 -39.5q0 -17 -19 -16t-36 12l-93 62l-99 -62q-21 -13 -38 -13.5t-17 17.5z" />
    <glyph glyph-name="ccircumflex" unicode="&#x109;" horiz-adv-x="610" 
d="M213 0q-66 0 -101.5 19t-48.5 52.5t-13 77.5v151q0 40 13.5 73.5t48.5 54t101 20.5h128q115 0 169 -10t61 -20l-30 -106q-21 2 -76 6t-121 4h-61q-26 0 -37 -10t-11 -30v-116q0 -20 10 -30t38 -10h51q74 0 127.5 3.5t78.5 6.5l60 -95q0 -14 -49.5 -27.5t-147.5 -13.5
h-190zM187 518q0 16 15.5 40.5t34.5 47t30 32.5t25 15.5t39 5.5h20q24 0 39 -6t24 -15q11 -10 28.5 -33t32 -47.5t14.5 -39.5q0 -17 -19 -16t-36 12l-93 62l-99 -62q-21 -13 -38 -13.5t-17 17.5z" />
    <glyph glyph-name="Cdotaccent" unicode="&#x10a;" horiz-adv-x="775" 
d="M273 0q-107 0 -155 47t-48 152v183q0 108 53 157.5t150 49.5h292q69 0 105.5 -7.5t36.5 -15.5l-31 -125q-25 3 -97.5 6.5t-182.5 3.5h-51q-47 0 -63.5 -17.5t-16.5 -53.5v-171q0 -34 14.5 -52.5t65.5 -18.5h41q143 0 218 3.5t90 7.5l61 -108q0 -5 -20.5 -15t-69 -18
t-134.5 -8h-258zM423.593 655q-83.4746 0 -83.4746 71.0771q0 39.6709 21.0752 54.9609q21.0752 15.2891 62.3994 15.2891q43.8027 0 64.0518 -15.2891q20.248 -15.29 20.248 -54.9609q0 -71.0771 -84.2998 -71.0771z" />
    <glyph glyph-name="cdotaccent" unicode="&#x10b;" horiz-adv-x="610" 
d="M213 0q-66 0 -101.5 19t-48.5 52.5t-13 77.5v151q0 40 13.5 73.5t48.5 54t101 20.5h128q115 0 169 -10t61 -20l-30 -106q-21 2 -76 6t-121 4h-61q-26 0 -37 -10t-11 -30v-116q0 -20 10 -30t38 -10h51q74 0 127.5 3.5t78.5 6.5l60 -95q0 -14 -49.5 -27.5t-147.5 -13.5
h-190zM340.593 515q-83.4746 0 -83.4746 71.0771q0 39.6709 21.0752 54.9609q21.0752 15.2891 62.3994 15.2891q43.8027 0 64.0518 -15.2891q20.248 -15.29 20.248 -54.9609q0 -71.0771 -84.2998 -71.0771z" />
    <glyph glyph-name="Ccaron" unicode="&#x10c;" horiz-adv-x="775" 
d="M273 0q-107 0 -155 47t-48 152v183q0 108 53 157.5t150 49.5h292q69 0 105.5 -7.5t36.5 -15.5l-31 -125q-25 3 -97.5 6.5t-182.5 3.5h-51q-47 0 -63.5 -17.5t-16.5 -53.5v-171q0 -34 14.5 -52.5t65.5 -18.5h41q143 0 218 3.5t90 7.5l61 -108q0 -5 -20.5 -15t-69 -18
t-134.5 -8h-258zM270 778q0 -16 15.5 -40.5t34.5 -47t30 -32.5t25 -15.5t39 -5.5h20q24 0 39 6t24 15q11 10 28.5 33t32 47.5t14.5 39.5q0 17 -19 16t-36 -12l-93 -62l-99 62q-21 13 -38 13.5t-17 -17.5z" />
    <glyph glyph-name="ccaron" unicode="&#x10d;" horiz-adv-x="610" 
d="M213 0q-66 0 -101.5 19t-48.5 52.5t-13 77.5v151q0 40 13.5 73.5t48.5 54t101 20.5h128q115 0 169 -10t61 -20l-30 -106q-21 2 -76 6t-121 4h-61q-26 0 -37 -10t-11 -30v-116q0 -20 10 -30t38 -10h51q74 0 127.5 3.5t78.5 6.5l60 -95q0 -14 -49.5 -27.5t-147.5 -13.5
h-190zM187 638q0 -16 15.5 -40.5t34.5 -47t30 -32.5t25 -15.5t39 -5.5h20q24 0 39 6t24 15q11 10 28.5 33t32 47.5t14.5 39.5q0 17 -19 16t-36 -12l-93 -62l-99 62q-21 13 -38 13.5t-17 -17.5z" />
    <glyph glyph-name="Dcaron" unicode="&#x10e;" horiz-adv-x="846" 
d="M90 0v508l-10 80h464q121 0 181.5 -48t60.5 -150v-191q0 -104 -60 -151.5t-182 -47.5h-454zM285 138h229q77 0 78 71v173q0 29 -17 49.5t-61 20.5h-229v-314zM260 778q0 -16 15.5 -40.5t34.5 -47t30 -32.5t25 -15.5t39 -5.5h20q24 0 39 6t24 15q11 10 28.5 33t32 47.5
t14.5 39.5q0 17 -19 16t-36 -12l-93 -62l-99 62q-21 13 -38 13.5t-17 -17.5z" />
    <glyph glyph-name="dcaron" unicode="&#x10f;" horiz-adv-x="817" 
d="M202 0q-66 0 -98.5 19.5t-43 53t-10.5 76.5v151q0 38 10.5 71.5t43 55t98.5 21.5h31q73 0 132.5 -4t81.5 -7v197h185v-634h-145l-39 20q-42 -7 -90.5 -13.5t-125.5 -6.5h-30zM283 126h133q21 0 26 5t5 25v159q-25 2 -59 4.5t-75 2.5h-30q-48 0 -48 -40v-116q0 -20 11 -30
t37 -10zM716 380q-25 -16 -37 -7.5t-11 28.5q3 57 10 111.5t15 97.5q12 64 80 62q35 -1 47 -15.5t12 -42.5q0 -32 -13.5 -69.5t-32.5 -72t-38.5 -59.5t-31.5 -33z" />
    <glyph glyph-name="Dcroat" unicode="&#x110;" horiz-adv-x="846" 
d="M90 0v508l-10 80h464q121 0 181.5 -48t60.5 -150v-191q0 -104 -60 -151.5t-182 -47.5h-454zM285 138h229q77 0 78 71v173q0 29 -17 49.5t-61 20.5h-229v-314zM-1 245v95h432v-95h-432z" />
    <glyph glyph-name="dcroat" unicode="&#x111;" horiz-adv-x="692" 
d="M202 0q-66 0 -98.5 19.5t-43 53t-10.5 76.5v151q0 38 10.5 71.5t43 55t98.5 21.5h31q73 0 132.5 -4t81.5 -7v197h185v-634h-145l-39 20q-42 -7 -90.5 -13.5t-125.5 -6.5h-30zM283 126h133q21 0 26 5t5 25v159q-25 2 -59 4.5t-75 2.5h-30q-48 0 -48 -40v-116q0 -20 11 -30
t37 -10zM325 485v95h432v-95h-432z" />
    <glyph glyph-name="Emacron" unicode="&#x112;" horiz-adv-x="786" 
d="M80 0v588h642v-136h-447v-83h331v-139h-331v-93h431l60 -126q0 -4 -27 -7.5t-93 -3.5h-566zM307 660q-20 0 -30 6.5t-10 26.5v26q0 20 9 25.5t31 5.5h192q20 0 30 -5.5t10 -25.5v-26q0 -20 -11 -26.5t-29 -6.5h-192z" />
    <glyph glyph-name="emacron" unicode="&#x113;" horiz-adv-x="663" 
d="M213 0q-66 0 -101.5 19t-48.5 52.5t-13 77.5v151q0 40 13.5 73.5t48.5 54t101 20.5h207q78 0 119.5 -18.5t57 -52t15.5 -77.5v-128h-175q-90 0 -136.5 4t-65.5 5v-15q-1 -40 48 -40h31q80 0 148 3.5t101 6.5l60 -95q0 -10 -17 -19t-59.5 -15.5t-120.5 -6.5h-213zM235 268
h192v14q0 20 -3.5 28t-21.5 10t-61 2h-58q-48 0 -48 -40v-14zM239 520q-20 0 -30 6.5t-10 26.5v26q0 20 9 25.5t31 5.5h192q20 0 30 -5.5t10 -25.5v-26q0 -20 -11 -26.5t-29 -6.5h-192z" />
    <glyph glyph-name="Ebreve" unicode="&#x114;" horiz-adv-x="786" 
d="M80 0v588h642v-136h-447v-83h331v-139h-331v-93h431l60 -126q0 -4 -27 -7.5t-93 -3.5h-566zM403 640q-58 0 -90.5 16.5t-46 46.5t-13.5 68q0 20 9.5 25t21 0.5t17.5 -14.5q10 -16 20 -28t28.5 -18t53.5 -6t52.5 6t27.5 18t20 28q7 11 18.5 15t21.5 -1.5t10 -24.5
q0 -64 -31.5 -97.5t-118.5 -33.5z" />
    <glyph glyph-name="ebreve" unicode="&#x115;" horiz-adv-x="663" 
d="M213 0q-66 0 -101.5 19t-48.5 52.5t-13 77.5v151q0 40 13.5 73.5t48.5 54t101 20.5h207q78 0 119.5 -18.5t57 -52t15.5 -77.5v-128h-175q-90 0 -136.5 4t-65.5 5v-15q-1 -40 48 -40h31q80 0 148 3.5t101 6.5l60 -95q0 -10 -17 -19t-59.5 -15.5t-120.5 -6.5h-213zM235 268
h192v14q0 20 -3.5 28t-21.5 10t-61 2h-58q-48 0 -48 -40v-14zM335 500q-58 0 -90.5 16.5t-46 46.5t-13.5 68q0 20 9.5 25t21 0.5t17.5 -14.5q10 -16 20 -28t28.5 -18t53.5 -6t52.5 6t27.5 18t20 28q7 11 18.5 15t21.5 -1.5t10 -24.5q0 -64 -31.5 -97.5t-118.5 -33.5z" />
    <glyph glyph-name="Edotaccent" unicode="&#x116;" horiz-adv-x="786" 
d="M80 0v588h642v-136h-447v-83h331v-139h-331v-93h431l60 -126q0 -4 -27 -7.5t-93 -3.5h-566zM403.593 655q-83.4746 0 -83.4746 71.0771q0 39.6709 21.0752 54.9609q21.0752 15.2891 62.3994 15.2891q43.8027 0 64.0518 -15.2891q20.248 -15.29 20.248 -54.9609
q0 -71.0771 -84.2998 -71.0771z" />
    <glyph glyph-name="edotaccent" unicode="&#x117;" horiz-adv-x="663" 
d="M213 0q-66 0 -101.5 19t-48.5 52.5t-13 77.5v151q0 40 13.5 73.5t48.5 54t101 20.5h207q78 0 119.5 -18.5t57 -52t15.5 -77.5v-128h-175q-90 0 -136.5 4t-65.5 5v-15q-1 -40 48 -40h31q80 0 148 3.5t101 6.5l60 -95q0 -10 -17 -19t-59.5 -15.5t-120.5 -6.5h-213zM235 268
h192v14q0 20 -3.5 28t-21.5 10t-61 2h-58q-48 0 -48 -40v-14zM335.593 515q-83.4746 0 -83.4746 71.0771q0 39.6709 21.0752 54.9609q21.0752 15.2891 62.3994 15.2891q43.8027 0 64.0518 -15.2891q20.248 -15.29 20.248 -54.9609q0 -71.0771 -84.2998 -71.0771z" />
    <glyph glyph-name="Eogonek" unicode="&#x118;" horiz-adv-x="786" 
d="M80 0v588h642v-136h-447v-83h331v-139h-331v-93h431l60 -126q0 -4 -27 -7.5t-93 -3.5h-566zM616 -190q-52 0 -79 26t-27 70q0 45 24 72.5t53 37.5q17 6 38 7.5t36 -1.5t15 -9q0 -7 -11 -13t-26 -14.5t-26 -21.5t-11 -33q0 -31 37 -31q28 0 46.5 9.5t35.5 9.5
q13 0 14 -12.5t-8 -31.5q-10 -22 -39.5 -43.5t-71.5 -21.5z" />
    <glyph glyph-name="eogonek" unicode="&#x119;" horiz-adv-x="663" 
d="M213 0q-66 0 -101.5 19t-48.5 52.5t-13 77.5v151q0 40 13.5 73.5t48.5 54t101 20.5h207q78 0 119.5 -18.5t57 -52t15.5 -77.5v-128h-175q-90 0 -136.5 4t-65.5 5v-15q-1 -40 48 -40h31q80 0 148 3.5t101 6.5l60 -95q0 -10 -17 -19t-59.5 -15.5t-120.5 -6.5h-213zM235 268
h192v14q0 20 -3.5 28t-21.5 10t-61 2h-58q-48 0 -48 -40v-14zM482 -181q-52 0 -79 26t-27 70q0 45 24 72.5t53 37.5q17 6 38 7.5t36 -1.5t15 -9q0 -7 -11 -13t-26 -14.5t-26 -21.5t-11 -33q0 -31 37 -31q28 0 46.5 9.5t35.5 9.5q13 0 14 -12.5t-8 -31.5q-10 -22 -39.5 -43.5
t-71.5 -21.5z" />
    <glyph glyph-name="Ecaron" unicode="&#x11a;" horiz-adv-x="786" 
d="M80 0v588h642v-136h-447v-83h331v-139h-331v-93h431l60 -126q0 -4 -27 -7.5t-93 -3.5h-566zM250 778q0 -16 15.5 -40.5t34.5 -47t30 -32.5t25 -15.5t39 -5.5h20q24 0 39 6t24 15q11 10 28.5 33t32 47.5t14.5 39.5q0 17 -19 16t-36 -12l-93 -62l-99 62q-21 13 -38 13.5
t-17 -17.5z" />
    <glyph glyph-name="ecaron" unicode="&#x11b;" horiz-adv-x="663" 
d="M213 0q-66 0 -101.5 19t-48.5 52.5t-13 77.5v151q0 40 13.5 73.5t48.5 54t101 20.5h207q78 0 119.5 -18.5t57 -52t15.5 -77.5v-128h-175q-90 0 -136.5 4t-65.5 5v-15q-1 -40 48 -40h31q80 0 148 3.5t101 6.5l60 -95q0 -10 -17 -19t-59.5 -15.5t-120.5 -6.5h-213zM235 268
h192v14q0 20 -3.5 28t-21.5 10t-61 2h-58q-48 0 -48 -40v-14zM182 638q0 -16 15.5 -40.5t34.5 -47t30 -32.5t25 -15.5t39 -5.5h20q24 0 39 6t24 15q11 10 28.5 33t32 47.5t14.5 39.5q0 17 -19 16t-36 -12l-93 -62l-99 62q-21 13 -38 13.5t-17 -17.5z" />
    <glyph glyph-name="Gcircumflex" unicode="&#x11c;" horiz-adv-x="835" 
d="M273 0q-107 0 -155 47t-48 152v183q0 108 53 157.5t150 49.5h334q69 0 105.5 -7.5t36.5 -15.5l-31 -125q-25 3 -97.5 6.5t-182.5 3.5h-93q-47 0 -63.5 -17.5t-16.5 -53.5v-171q0 -34 14.5 -52.5t65.5 -18.5h81q46 0 83 0.5t65 1.5v76l-40 -1l-131 -10v138h362v-301
l10 -21q0 -8 -42 -14.5t-142 -6.5h-318zM310 658q0 16 15.5 40.5t34.5 47t30 32.5t25 15.5t39 5.5h20q24 0 39 -6t24 -15q11 -10 28.5 -33t32 -47.5t14.5 -39.5q0 -17 -19 -16t-36 12l-93 62l-99 -62q-21 -13 -38 -13.5t-17 17.5z" />
    <glyph glyph-name="gcircumflex" unicode="&#x11d;" horiz-adv-x="691" 
d="M369 -176q-103 0 -168 3.5t-100 9.5t-48 13.5t-13 14.5l50 105q11 -3 49 -11.5t111 -8.5h151q26 0 37.5 9t10.5 31v41q-31 -9 -86.5 -14.5t-129.5 -5.5h-29q-66 0 -98.5 18.5t-43 51.5t-10.5 79v140q0 24 5.5 50t21 48t46 36t79.5 14h30q70 0 114 -2t70.5 -5t44.5 -6
l26 13h142v-476q0 -66 -42 -107t-140 -41h-80zM285 137h133q23 0 27 4t4 26v148q-22 2 -42.5 3.5t-46 2.5t-64.5 1h-11q-48 0 -48 -40v-105q-1 -40 48 -40zM208 518q0 16 15.5 40.5t34.5 47t30 32.5t25 15.5t39 5.5h20q24 0 39 -6t24 -15q11 -10 28.5 -33t32 -47.5
t14.5 -39.5q0 -17 -19 -16t-36 12l-93 62l-99 -62q-21 -13 -38 -13.5t-17 17.5z" />
    <glyph glyph-name="Gbreve" unicode="&#x11e;" horiz-adv-x="835" 
d="M273 0q-107 0 -155 47t-48 152v183q0 108 53 157.5t150 49.5h334q69 0 105.5 -7.5t36.5 -15.5l-31 -125q-25 3 -97.5 6.5t-182.5 3.5h-93q-47 0 -63.5 -17.5t-16.5 -53.5v-171q0 -34 14.5 -52.5t65.5 -18.5h81q46 0 83 0.5t65 1.5v76l-40 -1l-131 -10v138h362v-301
l10 -21q0 -8 -42 -14.5t-142 -6.5h-318zM463 640q-58 0 -90.5 16.5t-46 46.5t-13.5 68q0 20 9.5 25t21 0.5t17.5 -14.5q10 -16 20 -28t28.5 -18t53.5 -6t52.5 6t27.5 18t20 28q7 11 18.5 15t21.5 -1.5t10 -24.5q0 -64 -31.5 -97.5t-118.5 -33.5z" />
    <glyph glyph-name="gbreve" unicode="&#x11f;" horiz-adv-x="691" 
d="M369 -176q-103 0 -168 3.5t-100 9.5t-48 13.5t-13 14.5l50 105q11 -3 49 -11.5t111 -8.5h151q26 0 37.5 9t10.5 31v41q-31 -9 -86.5 -14.5t-129.5 -5.5h-29q-66 0 -98.5 18.5t-43 51.5t-10.5 79v140q0 24 5.5 50t21 48t46 36t79.5 14h30q70 0 114 -2t70.5 -5t44.5 -6
l26 13h142v-476q0 -66 -42 -107t-140 -41h-80zM285 137h133q23 0 27 4t4 26v148q-22 2 -42.5 3.5t-46 2.5t-64.5 1h-11q-48 0 -48 -40v-105q-1 -40 48 -40zM361 500q-58 0 -90.5 16.5t-46 46.5t-13.5 68q0 20 9.5 25t21 0.5t17.5 -14.5q10 -16 20 -28t28.5 -18t53.5 -6
t52.5 6t27.5 18t20 28q7 11 18.5 15t21.5 -1.5t10 -24.5q0 -64 -31.5 -97.5t-118.5 -33.5z" />
    <glyph glyph-name="Gdotaccent" unicode="&#x120;" horiz-adv-x="835" 
d="M273 0q-107 0 -155 47t-48 152v183q0 108 53 157.5t150 49.5h334q69 0 105.5 -7.5t36.5 -15.5l-31 -125q-25 3 -97.5 6.5t-182.5 3.5h-93q-47 0 -63.5 -17.5t-16.5 -53.5v-171q0 -34 14.5 -52.5t65.5 -18.5h81q46 0 83 0.5t65 1.5v76l-40 -1l-131 -10v138h362v-301
l10 -21q0 -8 -42 -14.5t-142 -6.5h-318zM463.593 655q-83.4746 0 -83.4746 71.0771q0 39.6709 21.0752 54.9609q21.0752 15.2891 62.3994 15.2891q43.8027 0 64.0518 -15.2891q20.248 -15.29 20.248 -54.9609q0 -71.0771 -84.2998 -71.0771z" />
    <glyph glyph-name="gdotaccent" unicode="&#x121;" horiz-adv-x="691" 
d="M369 -176q-103 0 -168 3.5t-100 9.5t-48 13.5t-13 14.5l50 105q11 -3 49 -11.5t111 -8.5h151q26 0 37.5 9t10.5 31v41q-31 -9 -86.5 -14.5t-129.5 -5.5h-29q-66 0 -98.5 18.5t-43 51.5t-10.5 79v140q0 24 5.5 50t21 48t46 36t79.5 14h30q70 0 114 -2t70.5 -5t44.5 -6
l26 13h142v-476q0 -66 -42 -107t-140 -41h-80zM285 137h133q23 0 27 4t4 26v148q-22 2 -42.5 3.5t-46 2.5t-64.5 1h-11q-48 0 -48 -40v-105q-1 -40 48 -40zM361.593 515q-83.4746 0 -83.4746 71.0771q0 39.6709 21.0752 54.9609q21.0752 15.2891 62.3994 15.2891
q43.8027 0 64.0518 -15.2891q20.248 -15.29 20.248 -54.9609q0 -71.0771 -84.2998 -71.0771z" />
    <glyph glyph-name="uni0122" unicode="&#x122;" horiz-adv-x="835" 
d="M273 0q-107 0 -155 47t-48 152v183q0 108 53 157.5t150 49.5h334q69 0 105.5 -7.5t36.5 -15.5l-31 -125q-25 3 -97.5 6.5t-182.5 3.5h-93q-47 0 -63.5 -17.5t-16.5 -53.5v-171q0 -34 14.5 -52.5t65.5 -18.5h81q46 0 83 0.5t65 1.5v76l-40 -1l-131 -10v138h362v-301
l10 -21q0 -8 -42 -14.5t-142 -6.5h-318zM407.739 -301.054q-17.3564 -4.95898 -20.249 4.5459q-2.89258 9.50391 2.89258 19.4219q6.6123 9.91797 17.3564 38.0176q10.7441 28.1006 14.876 55.374q-23.9678 5.78516 -40.4971 19.0088t-16.5293 51.2422
q0 36.3652 21.9014 52.8945t61.5723 16.5293q44.6299 0 69.0107 -17.7695q24.3818 -17.7686 24.3818 -60.7461q0 -33.0586 -13.6377 -63.2256q-13.6367 -30.166 -34.7119 -54.1338t-44.2158 -40.084q-23.1416 -16.1162 -42.1504 -21.0752z" />
    <glyph glyph-name="uni0123" unicode="&#x123;" horiz-adv-x="691" 
d="M369 -176q-103 0 -168 3.5t-100 9.5t-48 13.5t-13 14.5l50 105q11 -3 49 -11.5t111 -8.5h151q26 0 37.5 9t10.5 31v41q-31 -9 -86.5 -14.5t-129.5 -5.5h-29q-66 0 -98.5 18.5t-43 51.5t-10.5 79v140q0 24 5.5 50t21 48t46 36t79.5 14h30q70 0 114 -2t70.5 -5t44.5 -6
l26 13h142v-476q0 -66 -42 -107t-140 -41h-80zM285 137h133q23 0 27 4t4 26v148q-22 2 -42.5 3.5t-46 2.5t-64.5 1h-11q-48 0 -48 -40v-105q-1 -40 48 -40zM436 796q21 6 24.5 -5.5t-3.5 -23.5q-8 -12 -21 -46t-18 -67q29 -7 49 -23t20 -62q0 -44 -26.5 -64t-74.5 -20
q-54 0 -83.5 21.5t-29.5 73.5q0 40 16.5 76.5t42 65.5t53.5 48.5t51 25.5z" />
    <glyph glyph-name="Hcircumflex" unicode="&#x124;" horiz-adv-x="856" 
d="M80 0v588h193v-224h311v224h192v-588h-192v228h-311v-228h-193zM275 658q0 16 15.5 40.5t34.5 47t30 32.5t25 15.5t39 5.5h20q24 0 39 -6t24 -15q11 -10 28.5 -33t32 -47.5t14.5 -39.5q0 -17 -19 -16t-36 12l-93 62l-99 -62q-21 -13 -38 -13.5t-17 17.5z" />
    <glyph glyph-name="hcircumflex" unicode="&#x125;" horiz-adv-x="695" 
d="M60 0v648h185v-220q43 8 102 14t111 6h50q50 0 77 -14t38.5 -35t14 -42.5t2.5 -36.5v-320h-183v282q0 40 -48 40h-134q-19 0 -24.5 -3.5t-5.5 -18.5v-300h-185zM292 608q0 16 15.5 40.5t34.5 47t30 32.5t25 15.5t39 5.5h20q24 0 39 -6t24 -15q11 -10 28.5 -33t32 -47.5
t14.5 -39.5q0 -17 -19 -16t-36 12l-93 62l-99 -62q-21 -13 -38 -13.5t-17 17.5z" />
    <glyph glyph-name="Hbar" unicode="&#x126;" horiz-adv-x="856" 
d="M80 0v588h193v-224h311v224h192v-588h-192v228h-311v-228h-193zM178 426v96h501v-96h-501z" />
    <glyph glyph-name="hbar" unicode="&#x127;" horiz-adv-x="695" 
d="M60 0v648h185v-220q43 8 102 14t111 6h50q50 0 77 -14t38.5 -35t14 -42.5t2.5 -36.5v-320h-183v282q0 40 -48 40h-134q-19 0 -24.5 -3.5t-5.5 -18.5v-300h-185zM-20 487v95h432v-95h-432z" />
    <glyph glyph-name="Itilde" unicode="&#x128;" horiz-adv-x="352" 
d="M80 0v588h192v-588h-192zM246 650q-28 0 -47 7.5t-33 17.5t-28 17.5t-33 7.5t-30 -8t-19 -22q-13 -19 -32 -18.5t-19 27.5q0 44 25.5 77.5t74.5 33.5q28 0 46 -7.5t31.5 -17.5t28 -17.5t35.5 -7.5q20 0 31 8t18 22q13 24 32.5 22t19.5 -31q0 -27 -10.5 -52.5t-33 -42
t-57.5 -16.5z" />
    <glyph glyph-name="itilde" unicode="&#x129;" horiz-adv-x="302" 
d="M60 0v448h182v-448h-182zM221 510q-28 0 -47 7.5t-33 17.5t-28 17.5t-33 7.5t-30 -8t-19 -22q-13 -19 -32 -18.5t-19 27.5q0 44 25.5 77.5t74.5 33.5q28 0 46 -7.5t31.5 -17.5t28 -17.5t35.5 -7.5q20 0 31 8t18 22q13 24 32.5 22t19.5 -31q0 -27 -10.5 -52.5t-33 -42
t-57.5 -16.5z" />
    <glyph glyph-name="Imacron" unicode="&#x12a;" horiz-adv-x="352" 
d="M80 0v588h192v-588h-192zM80 660q-20 0 -30 6.5t-10 26.5v26q0 20 9 25.5t31 5.5h192q20 0 30 -5.5t10 -25.5v-26q0 -20 -11 -26.5t-29 -6.5h-192z" />
    <glyph glyph-name="imacron" unicode="&#x12b;" horiz-adv-x="302" 
d="M60 0v448h182v-448h-182zM55 520q-20 0 -30 6.5t-10 26.5v26q0 20 9 25.5t31 5.5h192q20 0 30 -5.5t10 -25.5v-26q0 -20 -11 -26.5t-29 -6.5h-192z" />
    <glyph glyph-name="Ibreve" unicode="&#x12c;" horiz-adv-x="352" 
d="M80 0v588h192v-588h-192zM176 640q-58 0 -90.5 16.5t-46 46.5t-13.5 68q0 20 9.5 25t21 0.5t17.5 -14.5q10 -16 20 -28t28.5 -18t53.5 -6t52.5 6t27.5 18t20 28q7 11 18.5 15t21.5 -1.5t10 -24.5q0 -64 -31.5 -97.5t-118.5 -33.5z" />
    <glyph glyph-name="ibreve" unicode="&#x12d;" horiz-adv-x="302" 
d="M60 0v448h182v-448h-182zM151 500q-58 0 -90.5 16.5t-46 46.5t-13.5 68q0 20 9.5 25t21 0.5t17.5 -14.5q10 -16 20 -28t28.5 -18t53.5 -6t52.5 6t27.5 18t20 28q7 11 18.5 15t21.5 -1.5t10 -24.5q0 -64 -31.5 -97.5t-118.5 -33.5z" />
    <glyph glyph-name="Iogonek" unicode="&#x12e;" horiz-adv-x="352" 
d="M80 0v588h192v-588h-192zM179 -185q-52 0 -79 26t-27 70q0 45 24 72.5t53 37.5q17 6 38 7.5t36 -1.5t15 -9q0 -7 -11 -13t-26 -14.5t-26 -21.5t-11 -33q0 -31 37 -31q28 0 46.5 9.5t35.5 9.5q13 0 14 -12.5t-8 -31.5q-10 -22 -39.5 -43.5t-71.5 -21.5z" />
    <glyph glyph-name="iogonek" unicode="&#x12f;" horiz-adv-x="302" 
d="M60 0v448h182v-448h-182zM151.593 515q-83.4746 0 -83.4746 71.0771q0 39.6709 21.0752 54.9609q21.0752 15.2891 62.3994 15.2891q43.8027 0 64.0518 -15.2891q20.248 -15.29 20.248 -54.9609q0 -71.0771 -84.2998 -71.0771zM130 -182q-52 0 -79 26t-27 70q0 45 24 72.5
t53 37.5q17 6 38 7.5t36 -1.5t15 -9q0 -7 -11 -13t-26 -14.5t-26 -21.5t-11 -33q0 -31 37 -31q28 0 46.5 9.5t35.5 9.5q13 0 14 -12.5t-8 -31.5q-10 -22 -39.5 -43.5t-71.5 -21.5z" />
    <glyph glyph-name="Idotaccent" unicode="&#x130;" horiz-adv-x="352" 
d="M80 0v588h192v-588h-192zM176.593 655q-83.4746 0 -83.4746 71.0771q0 39.6709 21.0752 54.9609q21.0752 15.2891 62.3994 15.2891q43.8027 0 64.0518 -15.2891q20.248 -15.29 20.248 -54.9609q0 -71.0771 -84.2998 -71.0771z" />
    <glyph glyph-name="dotlessi" unicode="&#x131;" horiz-adv-x="302" 
d="M60 0v448h182v-448h-182z" />
    <glyph glyph-name="IJ" unicode="&#x132;" horiz-adv-x="1019" 
d="M80 0v588h192v-588h-192zM624 0q-72 0 -131.5 3.5t-95 12.5t-35.5 25l70 119q29 -13 80.5 -17.5t136.5 -4.5h33q47 0 62 22.5t15 48.5v299l-8 80h203v-409q0 -50 -12.5 -91t-51 -64.5t-117.5 -23.5h-149z" />
    <glyph glyph-name="ij" unicode="&#x133;" horiz-adv-x="661" 
d="M161 491q-101 0 -101 86q0 48 25.5 66.5t75.5 18.5q53 0 77.5 -18.5t24.5 -66.5q0 -86 -102 -86zM69 0v448h182v-448h-182zM499 491q-101 0 -101 87q0 47 25.5 65.5t75.5 18.5q53 0 77.5 -18.5t24.5 -65.5q0 -87 -102 -87zM362 -176q-64 0 -101.5 15t-37.5 25l40 90
q12 -3 34.5 -6.5t47.5 -3.5q27 0 43.5 13t16.5 53v438h185v-458q0 -60 -25 -96.5t-68 -53t-99 -16.5h-36z" />
    <glyph glyph-name="Jcircumflex" unicode="&#x134;" horiz-adv-x="667" 
d="M272 0q-72 0 -131.5 3.5t-95 12.5t-35.5 25l70 119q29 -13 80.5 -17.5t136.5 -4.5h33q47 0 62 22.5t15 48.5v299l-8 80h203v-409q0 -50 -12.5 -91t-51 -64.5t-117.5 -23.5h-149zM353 658q0 16 15.5 40.5t34.5 47t30 32.5t25 15.5t39 5.5h20q24 0 39 -6t24 -15
q11 -10 28.5 -33t32 -47.5t14.5 -39.5q0 -17 -19 -16t-36 12l-93 62l-99 -62q-21 -13 -38 -13.5t-17 17.5z" />
    <glyph glyph-name="jcircumflex" unicode="&#x135;" horiz-adv-x="347" 
d="M59 -176q-64 0 -101.5 15t-37.5 25l40 90q12 -3 34.5 -6.5t47.5 -3.5q27 0 43.5 13t16.5 53v438h185v-458q0 -60 -25 -96.5t-68 -53t-99 -16.5h-36zM39 518q0 16 15.5 40.5t34.5 47t30 32.5t25 15.5t39 5.5h20q24 0 39 -6t24 -15q11 -10 28.5 -33t32 -47.5t14.5 -39.5
q0 -17 -19 -16t-36 12l-93 62l-99 -62q-21 -13 -38 -13.5t-17 17.5z" />
    <glyph glyph-name="uni0136" unicode="&#x136;" horiz-adv-x="858" 
d="M727 -10q-49 0 -95 20t-81 54l-36 36l-36 36q-38 38 -80.5 60.5t-106.5 22.5h-10v-219h-192v508l-10 80h202v-231h30q17 0 26.5 4.5t20.5 16.5q24 26 53.5 63.5t58 77t48.5 69.5h245l-41 -60q-25 -27 -55.5 -59t-60.5 -62.5t-55 -55.5t-40 -39q31 -13 54 -29.5t50 -37.5
q25 -19 43.5 -35t44.5 -36q54 -42 93.5 -52.5t50.5 -10.5l-40 -111q-10 -3 -31.5 -6.5t-49.5 -3.5zM367.739 -261.054q-17.3564 -4.95898 -20.249 4.5459q-2.89258 9.50391 2.89258 19.4219q6.6123 9.91797 17.3564 38.0176q10.7441 28.1006 14.876 55.374
q-23.9678 5.78516 -40.4971 19.0088t-16.5293 51.2422q0 36.3652 21.9014 52.8945t61.5723 16.5293q44.6299 0 69.0107 -17.7695q24.3818 -17.7686 24.3818 -60.7461q0 -33.0586 -13.6377 -63.2256q-13.6367 -30.166 -34.7119 -54.1338t-44.2158 -40.084
q-23.1416 -16.1162 -42.1504 -21.0752z" />
    <glyph glyph-name="uni0137" unicode="&#x137;" horiz-adv-x="698" 
d="M579 -10q-49 0 -85.5 10t-69.5 43l-40 40l-40 40q-16 17 -26 26.5t-19.5 13t-26.5 3.5q-22 0 -26 -4t-4 -27v-135h-182v633h182v-339h32q17 0 32 14q9 9 27.5 33t40.5 53t40 53h210l-16 -31q-24 -30 -55.5 -66t-61 -66t-47.5 -42q39 -26 73 -55.5t87 -52.5
q35 -15 59.5 -19.5t34.5 -4.5l-28 -110q-10 -3 -33.5 -6.5t-57.5 -3.5zM244.739 -291.054q-17.3564 -4.95898 -20.249 4.5459q-2.89258 9.50391 2.89258 19.4219q6.6123 9.91797 17.3564 38.0176q10.7441 28.1006 14.876 55.374q-23.9678 5.78516 -40.4971 19.0088
t-16.5293 51.2422q0 36.3652 21.9014 52.8945t61.5723 16.5293q44.6299 0 69.0107 -17.7695q24.3818 -17.7686 24.3818 -60.7461q0 -33.0586 -13.6377 -63.2256q-13.6367 -30.166 -34.7119 -54.1338t-44.2158 -40.084q-23.1416 -16.1162 -42.1504 -21.0752z" />
    <glyph glyph-name="kgreenlandic" unicode="&#x138;" horiz-adv-x="698" 
d="M579 -10q-49 0 -85.5 10t-69.5 43l-40 40l-40 40q-16 17 -26 26.5t-19.5 13t-26.5 3.5q-22 0 -26 -4t-4 -27v-135h-182v448h182v-154h32q17 0 32 14q9 9 27.5 33t40.5 53t40 53h210l-16 -31q-24 -30 -55.5 -66t-61 -66t-47.5 -42q39 -26 73 -55.5t87 -52.5
q35 -15 59.5 -19.5t34.5 -4.5l-28 -110q-10 -3 -33.5 -6.5t-57.5 -3.5z" />
    <glyph glyph-name="Lacute" unicode="&#x139;" horiz-adv-x="696" 
d="M80 0l10 80v508h192v-451h354l60 -126q0 -4 -27 -7.5t-93 -3.5h-496zM368 654q0 13 9.5 36.5t21.5 47t19 35.5q9 14 22.5 21.5t37.5 7.5h21q28 0 38.5 -6.5t10.5 -22.5t-19.5 -37.5t-47 -42.5t-53.5 -38q-11 -7 -25.5 -12t-24.5 -3t-10 14z" />
    <glyph glyph-name="lacute" unicode="&#x13a;" horiz-adv-x="312" 
d="M70 0v554l-10 80h192v-634h-182zM106 694q0 13 9.5 36.5t21.5 47t19 35.5q9 14 22.5 21.5t37.5 7.5h21q28 0 38.5 -6.5t10.5 -22.5t-19.5 -37.5t-47 -42.5t-53.5 -38q-11 -7 -25.5 -12t-24.5 -3t-10 14z" />
    <glyph glyph-name="uni013B" unicode="&#x13b;" horiz-adv-x="696" 
d="M80 0l10 80v508h192v-451h354l60 -126q0 -4 -27 -7.5t-93 -3.5h-496zM347.739 -301.054q-17.3564 -4.95898 -20.249 4.5459q-2.89258 9.50391 2.89258 19.4219q6.6123 9.91797 17.3564 38.0176q10.7441 28.1006 14.876 55.374q-23.9678 5.78516 -40.4971 19.0088
t-16.5293 51.2422q0 36.3652 21.9014 52.8945t61.5723 16.5293q44.6299 0 69.0107 -17.7695q24.3818 -17.7686 24.3818 -60.7461q0 -33.0586 -13.6377 -63.2256q-13.6367 -30.166 -34.7119 -54.1338t-44.2158 -40.084q-23.1416 -16.1162 -42.1504 -21.0752z" />
    <glyph glyph-name="uni013C" unicode="&#x13c;" horiz-adv-x="312" 
d="M70 0v554l-10 80h192v-634h-182zM105.739 -301.054q-17.3564 -4.95898 -20.249 4.5459q-2.89258 9.50391 2.89258 19.4219q6.6123 9.91797 17.3564 38.0176q10.7441 28.1006 14.876 55.374q-23.9678 5.78516 -40.4971 19.0088t-16.5293 51.2422
q0 36.3652 21.9014 52.8945t61.5723 16.5293q44.6299 0 69.0107 -17.7695q24.3818 -17.7686 24.3818 -60.7461q0 -33.0586 -13.6377 -63.2256q-13.6367 -30.166 -34.7119 -54.1338t-44.2158 -40.084q-23.1416 -16.1162 -42.1504 -21.0752z" />
    <glyph glyph-name="Lcaron" unicode="&#x13d;" horiz-adv-x="696" 
d="M80 0l10 80v508h192v-451h354l60 -126q0 -4 -27 -7.5t-93 -3.5h-496zM494 380q-25 -16 -37 -7.5t-11 28.5q3 57 10 111.5t15 97.5q12 64 80 62q35 -1 47 -15.5t12 -42.5q0 -32 -13.5 -69.5t-32.5 -72t-38.5 -59.5t-31.5 -33z" />
    <glyph glyph-name="lcaron" unicode="&#x13e;" horiz-adv-x="431" 
d="M70 0v554l-10 80h192v-634h-182zM340 380q-25 -16 -37 -7.5t-11 28.5q3 57 10 111.5t15 97.5q12 64 80 62q35 -1 47 -15.5t12 -42.5q0 -32 -13.5 -69.5t-32.5 -72t-38.5 -59.5t-31.5 -33z" />
    <glyph glyph-name="Ldot" unicode="&#x13f;" horiz-adv-x="600" 
d="M80 0l10 80v508h192v-451h354l60 -126q0 -4 -27 -7.5t-93 -3.5h-496zM481 250q-101 0 -101 86q0 48 25.5 66.5t75.5 18.5q53 0 77.5 -18.5t24.5 -66.5q0 -86 -102 -86z" />
    <glyph glyph-name="ldot" unicode="&#x140;" horiz-adv-x="553" 
d="M70 0v554l-10 80h192v-634h-182zM391 230q-101 0 -101 86q0 48 25.5 66.5t75.5 18.5q53 0 77.5 -18.5t24.5 -66.5q0 -86 -102 -86z" />
    <glyph glyph-name="Lslash" unicode="&#x141;" horiz-adv-x="696" 
d="M80 0l10 80v508h192v-451h354l60 -126q0 -4 -27 -7.5t-93 -3.5h-496zM19 172l1 123l347 157v-123z" />
    <glyph glyph-name="lslash" unicode="&#x142;" horiz-adv-x="312" 
d="M70 0v554l-10 80h192v-634h-182zM-13 172l1 123l347 157v-123z" />
    <glyph glyph-name="Nacute" unicode="&#x143;" horiz-adv-x="868" 
d="M90 0v508l-10 80h184l282 -286l39 -44h11v330h192v-588h-167l-290 289l-39 47h-10v-336h-192zM398 654q0 13 9.5 36.5t21.5 47t19 35.5q9 14 22.5 21.5t37.5 7.5h21q28 0 38.5 -6.5t10.5 -22.5t-19.5 -37.5t-47 -42.5t-53.5 -38q-11 -7 -25.5 -12t-24.5 -3t-10 14z" />
    <glyph glyph-name="nacute" unicode="&#x144;" horiz-adv-x="695" 
d="M60 0v448h145l40 -20q42 8 101.5 14t111.5 6h50q50 0 77 -14t38.5 -35t14 -42.5t2.5 -36.5v-320h-183v282q0 40 -48 40h-134q-19 0 -24.5 -3.5t-5.5 -18.5v-300h-185zM275 514q0 13 9.5 36.5t21.5 47t19 35.5q9 14 22.5 21.5t37.5 7.5h21q28 0 38.5 -6.5t10.5 -22.5
t-19.5 -37.5t-47 -42.5t-53.5 -38q-11 -7 -25.5 -12t-24.5 -3t-10 14z" />
    <glyph glyph-name="uni0145" unicode="&#x145;" horiz-adv-x="868" 
d="M90 0v508l-10 80h184l282 -286l39 -44h11v330h192v-588h-167l-290 289l-39 47h-10v-336h-192zM387.739 -281.054q-17.3564 -4.95898 -20.249 4.5459q-2.89258 9.50391 2.89258 19.4219q6.6123 9.91797 17.3564 38.0176q10.7441 28.1006 14.876 55.374
q-23.9678 5.78516 -40.4971 19.0088t-16.5293 51.2422q0 36.3652 21.9014 52.8945t61.5723 16.5293q44.6299 0 69.0107 -17.7695q24.3818 -17.7686 24.3818 -60.7461q0 -33.0586 -13.6377 -63.2256q-13.6367 -30.166 -34.7119 -54.1338t-44.2158 -40.084
q-23.1416 -16.1162 -42.1504 -21.0752z" />
    <glyph glyph-name="uni0146" unicode="&#x146;" horiz-adv-x="695" 
d="M60 0v448h145l40 -20q42 8 101.5 14t111.5 6h50q50 0 77 -14t38.5 -35t14 -42.5t2.5 -36.5v-320h-183v282q0 40 -48 40h-134q-19 0 -24.5 -3.5t-5.5 -18.5v-300h-185zM294.739 -301.054q-17.3564 -4.95898 -20.249 4.5459q-2.89258 9.50391 2.89258 19.4219
q6.6123 9.91797 17.3564 38.0176q10.7441 28.1006 14.876 55.374q-23.9678 5.78516 -40.4971 19.0088t-16.5293 51.2422q0 36.3652 21.9014 52.8945t61.5723 16.5293q44.6299 0 69.0107 -17.7695q24.3818 -17.7686 24.3818 -60.7461q0 -33.0586 -13.6377 -63.2256
q-13.6367 -30.166 -34.7119 -54.1338t-44.2158 -40.084q-23.1416 -16.1162 -42.1504 -21.0752z" />
    <glyph glyph-name="Ncaron" unicode="&#x147;" horiz-adv-x="868" 
d="M90 0v508l-10 80h184l282 -286l39 -44h11v330h192v-588h-167l-290 289l-39 47h-10v-336h-192zM300 778q0 -16 15.5 -40.5t34.5 -47t30 -32.5t25 -15.5t39 -5.5h20q24 0 39 6t24 15q11 10 28.5 33t32 47.5t14.5 39.5q0 17 -19 16t-36 -12l-93 -62l-99 62q-21 13 -38 13.5
t-17 -17.5z" />
    <glyph glyph-name="ncaron" unicode="&#x148;" horiz-adv-x="695" 
d="M60 0v448h145l40 -20q42 8 101.5 14t111.5 6h50q50 0 77 -14t38.5 -35t14 -42.5t2.5 -36.5v-320h-183v282q0 40 -48 40h-134q-19 0 -24.5 -3.5t-5.5 -18.5v-300h-185zM177 638q0 -16 15.5 -40.5t34.5 -47t30 -32.5t25 -15.5t39 -5.5h20q24 0 39 6t24 15q11 10 28.5 33
t32 47.5t14.5 39.5q0 17 -19 16t-36 -12l-93 -62l-99 62q-21 13 -38 13.5t-17 -17.5z" />
    <glyph glyph-name="Eng" unicode="&#x14a;" horiz-adv-x="868" 
d="M591 -176q-33 0 -64 6.5t-53.5 15.5t-31.5 16l30 93q10 -3 28.5 -6.5t38.5 -3.5q26 0 39.5 13.5t13.5 35.5q0 20 -16 44.5t-56 64.5l-189 186l-39 47h-10v-336h-192v508l-10 80h184l282 -286l39 -44h11v330h192v-588q0 -66 -25 -104.5t-66 -55t-91 -16.5h-15z" />
    <glyph glyph-name="eng" unicode="&#x14b;" horiz-adv-x="695" 
d="M435 -176q-29 0 -59 7t-50 16.5t-20 16.5l30 90q9 -3 28 -6.5t44 -3.5q49 0 49 46v292q0 40 -48 40h-134q-19 0 -24.5 -3.5t-5.5 -18.5v-300h-185v448h145l40 -20q42 8 101.5 14t111.5 6h50q50 0 77 -14t38.5 -35t14 -42.5t2.5 -36.5v-330q0 -59 -25 -96t-68 -53.5
t-99 -16.5h-13z" />
    <glyph glyph-name="Omacron" unicode="&#x14c;" horiz-adv-x="837" 
d="M273 0q-106 0 -154.5 47.5t-48.5 151.5v191q0 102 48 150t155 48h292q105 0 153.5 -48t48.5 -150v-191q0 -104 -49 -151.5t-153 -47.5h-292zM342 136h155q78 0 78 71v175q0 70 -78 70h-155q-40 0 -60 -16t-20 -54v-175q0 -37 20 -54t60 -17zM323 660q-20 0 -30 6.5
t-10 26.5v26q0 20 9 25.5t31 5.5h192q20 0 30 -5.5t10 -25.5v-26q0 -20 -11 -26.5t-29 -6.5h-192z" />
    <glyph glyph-name="omacron" unicode="&#x14d;" horiz-adv-x="683" 
d="M203 0q-66 0 -99 19t-43.5 52.5t-10.5 77.5v151q0 42 11 75.5t43.5 53t98.5 19.5h278q66 0 98.5 -19.5t43 -53t10.5 -75.5v-151q0 -44 -10.5 -77.5t-43 -52.5t-98.5 -19h-278zM283 126h119q48 0 47 40v116q0 20 -10.5 30t-36.5 10h-118q-26 0 -37 -10t-11 -30v-116
q-1 -40 47 -40zM249 520q-20 0 -30 6.5t-10 26.5v26q0 20 9 25.5t31 5.5h192q20 0 30 -5.5t10 -25.5v-26q0 -20 -11 -26.5t-29 -6.5h-192z" />
    <glyph glyph-name="Obreve" unicode="&#x14e;" horiz-adv-x="837" 
d="M273 0q-106 0 -154.5 47.5t-48.5 151.5v191q0 102 48 150t155 48h292q105 0 153.5 -48t48.5 -150v-191q0 -104 -49 -151.5t-153 -47.5h-292zM342 136h155q78 0 78 71v175q0 70 -78 70h-155q-40 0 -60 -16t-20 -54v-175q0 -37 20 -54t60 -17zM419 640q-58 0 -90.5 16.5
t-46 46.5t-13.5 68q0 20 9.5 25t21 0.5t17.5 -14.5q10 -16 20 -28t28.5 -18t53.5 -6t52.5 6t27.5 18t20 28q7 11 18.5 15t21.5 -1.5t10 -24.5q0 -64 -31.5 -97.5t-118.5 -33.5z" />
    <glyph glyph-name="obreve" unicode="&#x14f;" horiz-adv-x="683" 
d="M203 0q-66 0 -99 19t-43.5 52.5t-10.5 77.5v151q0 42 11 75.5t43.5 53t98.5 19.5h278q66 0 98.5 -19.5t43 -53t10.5 -75.5v-151q0 -44 -10.5 -77.5t-43 -52.5t-98.5 -19h-278zM283 126h119q48 0 47 40v116q0 20 -10.5 30t-36.5 10h-118q-26 0 -37 -10t-11 -30v-116
q-1 -40 47 -40zM345 500q-58 0 -90.5 16.5t-46 46.5t-13.5 68q0 20 9.5 25t21 0.5t17.5 -14.5q10 -16 20 -28t28.5 -18t53.5 -6t52.5 6t27.5 18t20 28q7 11 18.5 15t21.5 -1.5t10 -24.5q0 -64 -31.5 -97.5t-118.5 -33.5z" />
    <glyph glyph-name="Ohungarumlaut" unicode="&#x150;" horiz-adv-x="837" 
d="M273 0q-106 0 -154.5 47.5t-48.5 151.5v191q0 102 48 150t155 48h292q105 0 153.5 -48t48.5 -150v-191q0 -104 -49 -151.5t-153 -47.5h-292zM342 136h155q78 0 78 71v175q0 70 -78 70h-155q-40 0 -60 -16t-20 -54v-175q0 -37 20 -54t60 -17zM444 644q0 13 9.5 36.5
t21.5 47t19 35.5q9 14 22.5 21.5t37.5 7.5h21q28 0 38.5 -6.5t10.5 -22.5t-19.5 -37.5t-47 -42.5t-53.5 -38q-11 -7 -25.5 -12t-24.5 -3t-10 14zM254 642q0 13 9.5 36.5t21.5 47t19 35.5q9 14 22.5 21.5t37.5 7.5h21q28 0 38.5 -6.5t10.5 -22.5t-19.5 -37.5t-47 -42.5
t-53.5 -38q-11 -7 -25.5 -12t-24.5 -3t-10 14z" />
    <glyph glyph-name="ohungarumlaut" unicode="&#x151;" horiz-adv-x="683" 
d="M203 0q-66 0 -99 19t-43.5 52.5t-10.5 77.5v151q0 42 11 75.5t43.5 53t98.5 19.5h278q66 0 98.5 -19.5t43 -53t10.5 -75.5v-151q0 -44 -10.5 -77.5t-43 -52.5t-98.5 -19h-278zM283 126h119q48 0 47 40v116q0 20 -10.5 30t-36.5 10h-118q-26 0 -37 -10t-11 -30v-116
q-1 -40 47 -40zM370 504q0 13 9.5 36.5t21.5 47t19 35.5q9 14 22.5 21.5t37.5 7.5h21q28 0 38.5 -6.5t10.5 -22.5t-19.5 -37.5t-47 -42.5t-53.5 -38q-11 -7 -25.5 -12t-24.5 -3t-10 14zM180 502q0 13 9.5 36.5t21.5 47t19 35.5q9 14 22.5 21.5t37.5 7.5h21q28 0 38.5 -6.5
t10.5 -22.5t-19.5 -37.5t-47 -42.5t-53.5 -38q-11 -7 -25.5 -12t-24.5 -3t-10 14z" />
    <glyph glyph-name="OE" unicode="&#x152;" horiz-adv-x="1281" 
d="M273 0q-106 0 -154.5 47.5t-48.5 151.5v191q0 102 48 150t155 48h232q39 0 70 -6v6h642v-136h-447v-83h331v-139h-331v-93h431l60 -126q0 -4 -27 -7.5t-93 -3.5h-566v6q-31 -6 -70 -6h-232zM342 136h155q78 0 78 71v175q0 70 -78 70h-155q-40 0 -60 -16t-20 -54v-175
q0 -37 20 -54t60 -17z" />
    <glyph glyph-name="oe" unicode="&#x153;" horiz-adv-x="1062" 
d="M203 0q-66 0 -99 19t-43.5 52.5t-10.5 77.5v151q0 42 10.5 75.5t43.5 53t99 19.5h194q36 0 65 -5t53 -14q18 9 42 14t55 5h207q78 0 119.5 -18.5t57 -52t15.5 -77.5v-128h-175q-90 0 -136.5 4t-65.5 5v-15q-1 -40 48 -40h31q80 0 148 3.5t101 6.5l60 -95q0 -10 -17 -19
t-59.5 -15.5t-120.5 -6.5h-213q-62 0 -99 18q-23 -9 -52 -13.5t-64 -4.5h-194zM283 126h105q33 0 47 13.5t14 46.5v86q0 23 -10 36.5t-41 13.5h-115q-48 0 -48 -40v-116q-1 -40 48 -40zM634 268h192v14q0 20 -3.5 28t-21.5 10t-61 2h-58q-48 0 -48 -40v-14z" />
    <glyph glyph-name="Racute" unicode="&#x154;" horiz-adv-x="858" 
d="M729 -10q-40 0 -89 12.5t-97 61.5l-42 42q-30 30 -57.5 49t-62.5 28.5t-88 9.5h-8v-193h-195v508l-10 81h463q64 0 103.5 -15.5t61 -41t29.5 -57.5t8 -65v-19q0 -60 -30.5 -107.5t-96.5 -67.5q25 -15 47.5 -30.5t51.5 -32.5q33 -19 61.5 -27.5t47.5 -10.5t22 -2l-30 -113
q-12 -3 -36.5 -6.5t-52.5 -3.5zM401 326q25 0 48.5 1t42.5 3q34 4 46.5 21.5t12.5 42.5v11q0 22 -12.5 34t-45.5 12h-208v-121q25 -1 55 -2.5t61 -1.5zM329 654q0 13 9.5 36.5t21.5 47t19 35.5q9 14 22.5 21.5t37.5 7.5h21q28 0 38.5 -6.5t10.5 -22.5t-19.5 -37.5t-47 -42.5
t-53.5 -38q-11 -7 -25.5 -12t-24.5 -3t-10 14z" />
    <glyph glyph-name="racute" unicode="&#x155;" horiz-adv-x="551" 
d="M60 0v448h142l38 -20q46 30 122 30q50 0 88 -10.5t61.5 -22.5t29.5 -17l-50 -130q-10 7 -37.5 19t-64.5 22.5t-78 10.5h-11q-28 0 -43 -9.5t-15 -41.5v-279h-182zM231 524q0 13 9.5 36.5t21.5 47t19 35.5q9 14 22.5 21.5t37.5 7.5h21q28 0 38.5 -6.5t10.5 -22.5
t-19.5 -37.5t-47 -42.5t-53.5 -38q-11 -7 -25.5 -12t-24.5 -3t-10 14z" />
    <glyph glyph-name="uni0156" unicode="&#x156;" horiz-adv-x="858" 
d="M729 -10q-40 0 -89 12.5t-97 61.5l-42 42q-30 30 -57.5 49t-62.5 28.5t-88 9.5h-8v-193h-195v508l-10 81h463q64 0 103.5 -15.5t61 -41t29.5 -57.5t8 -65v-19q0 -60 -30.5 -107.5t-96.5 -67.5q25 -15 47.5 -30.5t51.5 -32.5q33 -19 61.5 -27.5t47.5 -10.5t22 -2l-30 -113
q-12 -3 -36.5 -6.5t-52.5 -3.5zM401 326q25 0 48.5 1t42.5 3q34 4 46.5 21.5t12.5 42.5v11q0 22 -12.5 34t-45.5 12h-208v-121q25 -1 55 -2.5t61 -1.5zM368.739 -301.054q-17.3564 -4.95898 -20.249 4.5459q-2.89258 9.50391 2.89258 19.4219
q6.6123 9.91797 17.3564 38.0176q10.7441 28.1006 14.876 55.374q-23.9678 5.78516 -40.4971 19.0088t-16.5293 51.2422q0 36.3652 21.9014 52.8945t61.5723 16.5293q44.6299 0 69.0107 -17.7695q24.3818 -17.7686 24.3818 -60.7461q0 -33.0586 -13.6377 -63.2256
q-13.6367 -30.166 -34.7119 -54.1338t-44.2158 -40.084q-23.1416 -16.1162 -42.1504 -21.0752z" />
    <glyph glyph-name="uni0157" unicode="&#x157;" horiz-adv-x="551" 
d="M60 0v448h142l38 -20q46 30 122 30q50 0 88 -10.5t61.5 -22.5t29.5 -17l-50 -130q-10 7 -37.5 19t-64.5 22.5t-78 10.5h-11q-28 0 -43 -9.5t-15 -41.5v-279h-182zM200.739 -301.054q-17.3564 -4.95898 -20.249 4.5459q-2.89258 9.50391 2.89258 19.4219
q6.6123 9.91797 17.3564 38.0176q10.7441 28.1006 14.876 55.374q-23.9678 5.78516 -40.4971 19.0088t-16.5293 51.2422q0 36.3652 21.9014 52.8945t61.5723 16.5293q44.6299 0 69.0107 -17.7695q24.3818 -17.7686 24.3818 -60.7461q0 -33.0586 -13.6377 -63.2256
q-13.6367 -30.166 -34.7119 -54.1338t-44.2158 -40.084q-23.1416 -16.1162 -42.1504 -21.0752z" />
    <glyph glyph-name="Rcaron" unicode="&#x158;" horiz-adv-x="858" 
d="M729 -10q-40 0 -89 12.5t-97 61.5l-42 42q-30 30 -57.5 49t-62.5 28.5t-88 9.5h-8v-193h-195v508l-10 81h463q64 0 103.5 -15.5t61 -41t29.5 -57.5t8 -65v-19q0 -60 -30.5 -107.5t-96.5 -67.5q25 -15 47.5 -30.5t51.5 -32.5q33 -19 61.5 -27.5t47.5 -10.5t22 -2l-30 -113
q-12 -3 -36.5 -6.5t-52.5 -3.5zM401 326q25 0 48.5 1t42.5 3q34 4 46.5 21.5t12.5 42.5v11q0 22 -12.5 34t-45.5 12h-208v-121q25 -1 55 -2.5t61 -1.5zM231 778q0 -16 15.5 -40.5t34.5 -47t30 -32.5t25 -15.5t39 -5.5h20q24 0 39 6t24 15q11 10 28.5 33t32 47.5t14.5 39.5
q0 17 -19 16t-36 -12l-93 -62l-99 62q-21 13 -38 13.5t-17 -17.5z" />
    <glyph glyph-name="rcaron" unicode="&#x159;" horiz-adv-x="551" 
d="M60 0v448h142l38 -20q46 30 122 30q50 0 88 -10.5t61.5 -22.5t29.5 -17l-50 -130q-10 7 -37.5 19t-64.5 22.5t-78 10.5h-11q-28 0 -43 -9.5t-15 -41.5v-279h-182zM133 648q0 -16 15.5 -40.5t34.5 -47t30 -32.5t25 -15.5t39 -5.5h20q24 0 39 6t24 15q11 10 28.5 33
t32 47.5t14.5 39.5q0 17 -19 16t-36 -12l-93 -62l-99 62q-21 13 -38 13.5t-17 -17.5z" />
    <glyph glyph-name="Sacute" unicode="&#x15a;" horiz-adv-x="796" 
d="M193 0q-68 0 -100 6t-32 14l60 129q23 -4 95 -7.5t187 -3.5h79q35 0 47 10t12 29v10q0 24 -12 33t-47 9h-229q-101 0 -147 37.5t-46 122.5v36q0 44 16.5 81t56.5 59.5t110 22.5h332q61 0 101.5 -7t40.5 -15l-30 -124q-28 3 -105.5 6.5t-196.5 3.5l-72 1q-31 0 -44 -8.5
t-14 -31.5v-7q0 -23 14 -32t45 -9h220q64 0 109 -13t69 -47.5t24 -101.5v-36q0 -75 -38.5 -121t-133.5 -46h-371zM333 654q0 13 9.5 36.5t21.5 47t19 35.5q9 14 22.5 21.5t37.5 7.5h21q28 0 38.5 -6.5t10.5 -22.5t-19.5 -37.5t-47 -42.5t-53.5 -38q-11 -7 -25.5 -12
t-24.5 -3t-10 14z" />
    <glyph glyph-name="sacute" unicode="&#x15b;" horiz-adv-x="679" 
d="M173 0q-67 0 -95 7t-28 14l40 105q12 -3 71.5 -6.5t173.5 -3.5h71q25 0 31.5 5.5t6.5 19.5q0 17 -7.5 21.5t-30.5 4.5h-203q-73 0 -113 27.5t-40 98.5v20q0 37 10 67.5t43 49t100 18.5h296q60 0 85 -7t25 -14l-10 -106q-16 3 -80.5 6.5t-177.5 3.5h-71q-25 0 -31.5 -5.5
t-6.5 -18.5t6.5 -18.5t31.5 -5.5h207q78 0 115 -34t37 -95v-19q0 -36 -9 -66.5t-41 -49.5t-102 -19h-304zM284 514q0 13 9.5 36.5t21.5 47t19 35.5q9 14 22.5 21.5t37.5 7.5h21q28 0 38.5 -6.5t10.5 -22.5t-19.5 -37.5t-47 -42.5t-53.5 -38q-11 -7 -25.5 -12t-24.5 -3
t-10 14z" />
    <glyph glyph-name="Scircumflex" unicode="&#x15c;" horiz-adv-x="796" 
d="M193 0q-68 0 -100 6t-32 14l60 129q23 -4 95 -7.5t187 -3.5h79q35 0 47 10t12 29v10q0 24 -12 33t-47 9h-229q-101 0 -147 37.5t-46 122.5v36q0 44 16.5 81t56.5 59.5t110 22.5h332q61 0 101.5 -7t40.5 -15l-30 -124q-28 3 -105.5 6.5t-196.5 3.5l-72 1q-31 0 -44 -8.5
t-14 -31.5v-7q0 -23 14 -32t45 -9h220q64 0 109 -13t69 -47.5t24 -101.5v-36q0 -75 -38.5 -121t-133.5 -46h-371zM235 658q0 16 15.5 40.5t34.5 47t30 32.5t25 15.5t39 5.5h20q24 0 39 -6t24 -15q11 -10 28.5 -33t32 -47.5t14.5 -39.5q0 -17 -19 -16t-36 12l-93 62l-99 -62
q-21 -13 -38 -13.5t-17 17.5z" />
    <glyph glyph-name="scircumflex" unicode="&#x15d;" horiz-adv-x="679" 
d="M173 0q-67 0 -95 7t-28 14l40 105q12 -3 71.5 -6.5t173.5 -3.5h71q25 0 31.5 5.5t6.5 19.5q0 17 -7.5 21.5t-30.5 4.5h-203q-73 0 -113 27.5t-40 98.5v20q0 37 10 67.5t43 49t100 18.5h296q60 0 85 -7t25 -14l-10 -106q-16 3 -80.5 6.5t-177.5 3.5h-71q-25 0 -31.5 -5.5
t-6.5 -18.5t6.5 -18.5t31.5 -5.5h207q78 0 115 -34t37 -95v-19q0 -36 -9 -66.5t-41 -49.5t-102 -19h-304zM186 518q0 16 15.5 40.5t34.5 47t30 32.5t25 15.5t39 5.5h20q24 0 39 -6t24 -15q11 -10 28.5 -33t32 -47.5t14.5 -39.5q0 -17 -19 -16t-36 12l-93 62l-99 -62
q-21 -13 -38 -13.5t-17 17.5z" />
    <glyph glyph-name="Scedilla" unicode="&#x15e;" horiz-adv-x="796" 
d="M193 0q-68 0 -100 6t-32 14l60 129q23 -4 95 -7.5t187 -3.5h79q35 0 47 10t12 29v10q0 24 -12 33t-47 9h-229q-101 0 -147 37.5t-46 122.5v36q0 44 16.5 81t56.5 59.5t110 22.5h332q61 0 101.5 -7t40.5 -15l-30 -124q-28 3 -105.5 6.5t-196.5 3.5l-72 1q-31 0 -44 -8.5
t-14 -31.5v-7q0 -23 14 -32t45 -9h220q64 0 109 -13t69 -47.5t24 -101.5v-36q0 -75 -38.5 -121t-133.5 -46h-371zM384 -230q-43 0 -71.5 20.5t-39.5 42.5q-6 14 -6 23q0 11 6.5 16t16.5 3q19 -5 39.5 -10t46.5 -5q39 0 39 21q0 18 -27 27t-65 6q9 19 22 43.5t25 42.5
q6 9 15.5 13.5t16.5 4.5q8 0 13.5 -4.5t3.5 -13.5q-2 -13 -5 -20t-5 -20q38 -7 64.5 -28t26.5 -67q0 -41 -33 -68t-83 -27z" />
    <glyph glyph-name="scedilla" unicode="&#x15f;" horiz-adv-x="679" 
d="M173 0q-67 0 -95 7t-28 14l40 105q12 -3 71.5 -6.5t173.5 -3.5h71q25 0 31.5 5.5t6.5 19.5q0 17 -7.5 21.5t-30.5 4.5h-203q-73 0 -113 27.5t-40 98.5v20q0 37 10 67.5t43 49t100 18.5h296q60 0 85 -7t25 -14l-10 -106q-16 3 -80.5 6.5t-177.5 3.5h-71q-25 0 -31.5 -5.5
t-6.5 -18.5t6.5 -18.5t31.5 -5.5h207q78 0 115 -34t37 -95v-19q0 -36 -9 -66.5t-41 -49.5t-102 -19h-304zM315 -230q-43 0 -71.5 20.5t-39.5 42.5q-6 14 -6 23q0 11 6.5 16t16.5 3q19 -5 39.5 -10t46.5 -5q39 0 39 21q0 18 -27 27t-65 6q9 19 22 43.5t25 42.5q6 9 15.5 13.5
t16.5 4.5q8 0 13.5 -4.5t3.5 -13.5q-2 -13 -5 -20t-5 -20q38 -7 64.5 -28t26.5 -67q0 -41 -33 -68t-83 -27z" />
    <glyph glyph-name="Scaron" unicode="&#x160;" horiz-adv-x="796" 
d="M193 0q-68 0 -100 6t-32 14l60 129q23 -4 95 -7.5t187 -3.5h79q35 0 47 10t12 29v10q0 24 -12 33t-47 9h-229q-101 0 -147 37.5t-46 122.5v36q0 44 16.5 81t56.5 59.5t110 22.5h332q61 0 101.5 -7t40.5 -15l-30 -124q-28 3 -105.5 6.5t-196.5 3.5l-72 1q-31 0 -44 -8.5
t-14 -31.5v-7q0 -23 14 -32t45 -9h220q64 0 109 -13t69 -47.5t24 -101.5v-36q0 -75 -38.5 -121t-133.5 -46h-371zM235 778q0 -16 15.5 -40.5t34.5 -47t30 -32.5t25 -15.5t39 -5.5h20q24 0 39 6t24 15q11 10 28.5 33t32 47.5t14.5 39.5q0 17 -19 16t-36 -12l-93 -62l-99 62
q-21 13 -38 13.5t-17 -17.5z" />
    <glyph glyph-name="scaron" unicode="&#x161;" horiz-adv-x="679" 
d="M173 0q-67 0 -95 7t-28 14l40 105q12 -3 71.5 -6.5t173.5 -3.5h71q25 0 31.5 5.5t6.5 19.5q0 17 -7.5 21.5t-30.5 4.5h-203q-73 0 -113 27.5t-40 98.5v20q0 37 10 67.5t43 49t100 18.5h296q60 0 85 -7t25 -14l-10 -106q-16 3 -80.5 6.5t-177.5 3.5h-71q-25 0 -31.5 -5.5
t-6.5 -18.5t6.5 -18.5t31.5 -5.5h207q78 0 115 -34t37 -95v-19q0 -36 -9 -66.5t-41 -49.5t-102 -19h-304zM186 638q0 -16 15.5 -40.5t34.5 -47t30 -32.5t25 -15.5t39 -5.5h20q24 0 39 6t24 15q11 10 28.5 33t32 47.5t14.5 39.5q0 17 -19 16t-36 -12l-93 -62l-99 62
q-21 13 -38 13.5t-17 -17.5z" />
    <glyph glyph-name="uni0162" unicode="&#x162;" horiz-adv-x="713" 
d="M258 0v453h-238v136h673v-136h-241v-453h-194zM353 -230q-43 0 -71.5 20.5t-39.5 42.5q-6 14 -6 23q0 11 6.5 16t16.5 3q19 -5 39.5 -10t46.5 -5q39 0 39 21q0 18 -27 27t-65 6q9 19 22 43.5t25 42.5q6 9 15.5 13.5t16.5 4.5q8 0 13.5 -4.5t3.5 -13.5q-2 -13 -5 -20
t-5 -20q38 -7 64.5 -28t26.5 -67q0 -41 -33 -68t-83 -27z" />
    <glyph glyph-name="uni0163" unicode="&#x163;" horiz-adv-x="474" 
d="M234 0q-76 0 -104 32t-28 96v194h-82v126h42q17 0 27.5 6.5t13.5 23.5l19 107h164v-137h167v-126h-167v-155q0 -25 12 -33t36 -8h100l20 -116q-21 -3 -64 -6.5t-94 -3.5h-62zM213 -230q-43 0 -71.5 20.5t-39.5 42.5q-6 14 -6 23q0 11 6.5 16t16.5 3q19 -5 39.5 -10
t46.5 -5q39 0 39 21q0 18 -27 27t-65 6q9 19 22 43.5t25 42.5q6 9 15.5 13.5t16.5 4.5q8 0 13.5 -4.5t3.5 -13.5q-2 -13 -5 -20t-5 -20q38 -7 64.5 -28t26.5 -67q0 -41 -33 -68t-83 -27z" />
    <glyph glyph-name="Tcaron" unicode="&#x164;" horiz-adv-x="713" 
d="M258 0v453h-238v136h673v-136h-241v-453h-194zM204 778q0 -16 15.5 -40.5t34.5 -47t30 -32.5t25 -15.5t39 -5.5h20q24 0 39 6t24 15q11 10 28.5 33t32 47.5t14.5 39.5q0 17 -19 16t-36 -12l-93 -62l-99 62q-21 13 -38 13.5t-17 -17.5z" />
    <glyph glyph-name="tcaron" unicode="&#x165;" horiz-adv-x="474" 
d="M234 0q-76 0 -104 32t-28 96v194h-82v126h42q17 0 27.5 6.5t13.5 23.5l19 107h164v-137h167v-126h-167v-155q0 -25 12 -33t36 -8h100l20 -116q-21 -3 -64 -6.5t-94 -3.5h-62zM361 507q-25 -16 -37 -7.5t-11 28.5q3 57 10 111.5t15 97.5q12 64 80 62q35 -1 47 -15.5
t12 -42.5q0 -32 -13.5 -69.5t-32.5 -72t-38.5 -59.5t-31.5 -33z" />
    <glyph glyph-name="Tbar" unicode="&#x166;" horiz-adv-x="713" 
d="M258 0v453h-238v136h673v-136h-241v-453h-194zM142 245v95h432v-95h-432z" />
    <glyph glyph-name="tbar" unicode="&#x167;" horiz-adv-x="474" 
d="M234 0q-76 0 -104 32t-28 96v194h-82v126h42q17 0 27.5 6.5t13.5 23.5l19 107h164v-137h167v-126h-167v-155q0 -25 12 -33t36 -8h100l20 -116q-21 -3 -64 -6.5t-94 -3.5h-62zM21 185v95h432v-95h-432z" />
    <glyph glyph-name="Utilde" unicode="&#x168;" horiz-adv-x="806" 
d="M268 -10q-100 0 -151.5 47t-51.5 152v399h195v-381q0 -47 23 -63t57 -16h129q32 0 56 16.5t24 62.5v381h192v-399q0 -105 -50.5 -152t-151.5 -47h-271zM475 650q-28 0 -47 7.5t-33 17.5t-28 17.5t-33 7.5t-30 -8t-19 -22q-13 -19 -32 -18.5t-19 27.5q0 44 25.5 77.5
t74.5 33.5q28 0 46 -7.5t31.5 -17.5t28 -17.5t35.5 -7.5q20 0 31 8t18 22q13 24 32.5 22t19.5 -31q0 -27 -10.5 -52.5t-33 -42t-57.5 -16.5z" />
    <glyph glyph-name="utilde" unicode="&#x169;" horiz-adv-x="676" 
d="M207 0q-66 0 -98.5 19.5t-43 53.5t-10.5 75v300h184v-282q0 -40 48 -40h114q22 0 26 4t4 26v292h185v-448h-145l-38 20q-40 -8 -92 -14t-105 -6h-29zM405 510q-28 0 -47 7.5t-33 17.5t-28 17.5t-33 7.5t-30 -8t-19 -22q-13 -19 -32 -18.5t-19 27.5q0 44 25.5 77.5
t74.5 33.5q28 0 46 -7.5t31.5 -17.5t28 -17.5t35.5 -7.5q20 0 31 8t18 22q13 24 32.5 22t19.5 -31q0 -27 -10.5 -52.5t-33 -42t-57.5 -16.5z" />
    <glyph glyph-name="Umacron" unicode="&#x16a;" horiz-adv-x="806" 
d="M268 -10q-100 0 -151.5 47t-51.5 152v399h195v-381q0 -47 23 -63t57 -16h129q32 0 56 16.5t24 62.5v381h192v-399q0 -105 -50.5 -152t-151.5 -47h-271zM309 660q-20 0 -30 6.5t-10 26.5v26q0 20 9 25.5t31 5.5h192q20 0 30 -5.5t10 -25.5v-26q0 -20 -11 -26.5t-29 -6.5
h-192z" />
    <glyph glyph-name="umacron" unicode="&#x16b;" horiz-adv-x="676" 
d="M207 0q-66 0 -98.5 19.5t-43 53.5t-10.5 75v300h184v-282q0 -40 48 -40h114q22 0 26 4t4 26v292h185v-448h-145l-38 20q-40 -8 -92 -14t-105 -6h-29zM239 520q-20 0 -30 6.5t-10 26.5v26q0 20 9 25.5t31 5.5h192q20 0 30 -5.5t10 -25.5v-26q0 -20 -11 -26.5t-29 -6.5
h-192z" />
    <glyph glyph-name="Ubreve" unicode="&#x16c;" horiz-adv-x="806" 
d="M268 -10q-100 0 -151.5 47t-51.5 152v399h195v-381q0 -47 23 -63t57 -16h129q32 0 56 16.5t24 62.5v381h192v-399q0 -105 -50.5 -152t-151.5 -47h-271zM405 640q-58 0 -90.5 16.5t-46 46.5t-13.5 68q0 20 9.5 25t21 0.5t17.5 -14.5q10 -16 20 -28t28.5 -18t53.5 -6
t52.5 6t27.5 18t20 28q7 11 18.5 15t21.5 -1.5t10 -24.5q0 -64 -31.5 -97.5t-118.5 -33.5z" />
    <glyph glyph-name="ubreve" unicode="&#x16d;" horiz-adv-x="676" 
d="M207 0q-66 0 -98.5 19.5t-43 53.5t-10.5 75v300h184v-282q0 -40 48 -40h114q22 0 26 4t4 26v292h185v-448h-145l-38 20q-40 -8 -92 -14t-105 -6h-29zM335 500q-58 0 -90.5 16.5t-46 46.5t-13.5 68q0 20 9.5 25t21 0.5t17.5 -14.5q10 -16 20 -28t28.5 -18t53.5 -6t52.5 6
t27.5 18t20 28q7 11 18.5 15t21.5 -1.5t10 -24.5q0 -64 -31.5 -97.5t-118.5 -33.5z" />
    <glyph glyph-name="Uring" unicode="&#x16e;" horiz-adv-x="806" 
d="M268 -10q-100 0 -151.5 47t-51.5 152v399h195v-381q0 -47 23 -63t57 -16h129q32 0 56 16.5t24 62.5v381h192v-399q0 -105 -50.5 -152t-151.5 -47h-271zM361 640q-44 0 -66 14.5t-29 37t-7 46.5v12q0 20 6.5 43t28 39t67.5 16h88q44 0 66 -16t29 -39t7 -43v-12
q0 -24 -7 -46.5t-29 -37t-66 -14.5h-88zM381 716h48q11 0 15.5 6.5t4.5 13.5v15q0 7 -4.5 13.5t-15.5 6.5h-48q-12 0 -16 -6.5t-4 -13.5v-15q0 -7 4 -13.5t16 -6.5z" />
    <glyph glyph-name="uring" unicode="&#x16f;" horiz-adv-x="676" 
d="M207 0q-66 0 -98.5 19.5t-43 53.5t-10.5 75v300h184v-282q0 -40 48 -40h114q22 0 26 4t4 26v292h185v-448h-145l-38 20q-40 -8 -92 -14t-105 -6h-29zM291 500q-44 0 -66 14.5t-29 37t-7 46.5v12q0 20 6.5 43t28 39t67.5 16h88q44 0 66 -16t29 -39t7 -43v-12
q0 -24 -7 -46.5t-29 -37t-66 -14.5h-88zM311 576h48q11 0 15.5 6.5t4.5 13.5v15q0 7 -4.5 13.5t-15.5 6.5h-48q-12 0 -16 -6.5t-4 -13.5v-15q0 -7 4 -13.5t16 -6.5z" />
    <glyph glyph-name="Uhungarumlaut" unicode="&#x170;" horiz-adv-x="806" 
d="M268 -10q-100 0 -151.5 47t-51.5 152v399h195v-381q0 -47 23 -63t57 -16h129q32 0 56 16.5t24 62.5v381h192v-399q0 -105 -50.5 -152t-151.5 -47h-271zM430 644q0 13 9.5 36.5t21.5 47t19 35.5q9 14 22.5 21.5t37.5 7.5h21q28 0 38.5 -6.5t10.5 -22.5t-19.5 -37.5
t-47 -42.5t-53.5 -38q-11 -7 -25.5 -12t-24.5 -3t-10 14zM240 642q0 13 9.5 36.5t21.5 47t19 35.5q9 14 22.5 21.5t37.5 7.5h21q28 0 38.5 -6.5t10.5 -22.5t-19.5 -37.5t-47 -42.5t-53.5 -38q-11 -7 -25.5 -12t-24.5 -3t-10 14z" />
    <glyph glyph-name="uhungarumlaut" unicode="&#x171;" horiz-adv-x="676" 
d="M207 0q-66 0 -98.5 19.5t-43 53.5t-10.5 75v300h184v-282q0 -40 48 -40h114q22 0 26 4t4 26v292h185v-448h-145l-38 20q-40 -8 -92 -14t-105 -6h-29zM360 504q0 13 9.5 36.5t21.5 47t19 35.5q9 14 22.5 21.5t37.5 7.5h21q28 0 38.5 -6.5t10.5 -22.5t-19.5 -37.5
t-47 -42.5t-53.5 -38q-11 -7 -25.5 -12t-24.5 -3t-10 14zM170 502q0 13 9.5 36.5t21.5 47t19 35.5q9 14 22.5 21.5t37.5 7.5h21q28 0 38.5 -6.5t10.5 -22.5t-19.5 -37.5t-47 -42.5t-53.5 -38q-11 -7 -25.5 -12t-24.5 -3t-10 14z" />
    <glyph glyph-name="Uogonek" unicode="&#x172;" horiz-adv-x="806" 
d="M268 -10q-100 0 -151.5 47t-51.5 152v399h195v-381q0 -47 23 -63t57 -16h129q32 0 56 16.5t24 62.5v381h192v-399q0 -105 -50.5 -152t-151.5 -47h-271zM427 -192q-52 0 -79 26t-27 70q0 45 24 72.5t53 37.5q17 6 38 7.5t36 -1.5t15 -9q0 -7 -11 -13t-26 -14.5t-26 -21.5
t-11 -33q0 -31 37 -31q28 0 46.5 9.5t35.5 9.5q13 0 14 -12.5t-8 -31.5q-10 -22 -39.5 -43.5t-71.5 -21.5z" />
    <glyph glyph-name="uogonek" unicode="&#x173;" horiz-adv-x="676" 
d="M207 0q-66 0 -98.5 19.5t-43 53.5t-10.5 75v300h184v-282q0 -40 48 -40h114q22 0 26 4t4 26v292h185v-448h-145l-38 20q-40 -8 -92 -14t-105 -6h-29zM508 -190q-52 0 -79 26t-27 70q0 45 24 72.5t53 37.5q17 6 38 7.5t36 -1.5t15 -9q0 -7 -11 -13t-26 -14.5t-26 -21.5
t-11 -33q0 -31 37 -31q28 0 46.5 9.5t35.5 9.5q13 0 14 -12.5t-8 -31.5q-10 -22 -39.5 -43.5t-71.5 -21.5z" />
    <glyph glyph-name="Wcircumflex" unicode="&#x174;" horiz-adv-x="1153" 
d="M214 0l-214 587h213l100 -334l23 -87h10l13 58l103 363h230l109 -363l18 -58h10l23 87l91 334h210l-10 -60l-206 -527h-230l-106 323l-20 84h-10l-19 -84l-105 -323h-233zM423 658q0 16 15.5 40.5t34.5 47t30 32.5t25 15.5t39 5.5h20q24 0 39 -6t24 -15q11 -10 28.5 -33
t32 -47.5t14.5 -39.5q0 -17 -19 -16t-36 12l-93 62l-99 -62q-21 -13 -38 -13.5t-17 17.5z" />
    <glyph glyph-name="wcircumflex" unicode="&#x175;" horiz-adv-x="943" 
d="M171 0l-161 448h201l60 -224l16 -79h10l15 69l59 234h200l63 -234l14 -69h10l17 81l56 222h202l-16 -61l-146 -387h-220l-63 255l-10 47h-10l-13 -52l-64 -250h-220zM321 518q0 16 15.5 40.5t34.5 47t30 32.5t25 15.5t39 5.5h20q24 0 39 -6t24 -15q11 -10 28.5 -33
t32 -47.5t14.5 -39.5q0 -17 -19 -16t-36 12l-93 62l-99 -62q-21 -13 -38 -13.5t-17 17.5z" />
    <glyph glyph-name="Ycircumflex" unicode="&#x176;" horiz-adv-x="780" 
d="M292 0v243l-292 345h241l99 -137l46 -73h10l46 73l97 137h241l-39 -60l-256 -289v-239h-193zM238 658q0 16 15.5 40.5t34.5 47t30 32.5t25 15.5t39 5.5h20q24 0 39 -6t24 -15q11 -10 28.5 -33t32 -47.5t14.5 -39.5q0 -17 -19 -16t-36 12l-93 62l-99 -62
q-21 -13 -38 -13.5t-17 17.5z" />
    <glyph glyph-name="ycircumflex" unicode="&#x177;" horiz-adv-x="632" 
d="M122 -196q-55 0 -100 10.5t-62 20.5l40 123q30 -13 64.5 -20t65.5 -7h11q87 0 126 69h-61l-196 448h201l86 -266l15 -61h10l15 61l87 266h198l-16 -61q-19 -39 -43.5 -89.5t-50.5 -104.5t-50.5 -104t-43.5 -89q-49 -100 -113 -148t-156 -48h-27zM168 518q0 16 15.5 40.5
t34.5 47t30 32.5t25 15.5t39 5.5h20q24 0 39 -6t24 -15q11 -10 28.5 -33t32 -47.5t14.5 -39.5q0 -17 -19 -16t-36 12l-93 62l-99 -62q-21 -13 -38 -13.5t-17 17.5z" />
    <glyph glyph-name="Ydieresis" unicode="&#x178;" horiz-adv-x="780" 
d="M292 0v243l-292 345h241l99 -137l46 -73h10l46 73l97 137h241l-39 -60l-256 -289v-239h-193zM494.593 655q-83.4746 0 -83.4746 71.0771q0 39.6709 21.0752 54.9609q21.0752 15.2891 62.3994 15.2891q43.8027 0 64.0518 -15.2891q20.248 -15.29 20.248 -54.9609
q0 -71.0771 -84.2998 -71.0771zM287.593 655q-83.4746 0 -83.4746 71.0771q0 39.6709 21.0752 54.9609q21.0752 15.2891 62.3994 15.2891q43.8027 0 64.0518 -15.2891q20.248 -15.29 20.248 -54.9609q0 -71.0771 -84.2998 -71.0771z" />
    <glyph glyph-name="Zacute" unicode="&#x179;" horiz-adv-x="776" 
d="M50 0v117l384 335h-384v136h661v-116l-393 -335h368l60 -126q0 -4 -27 -7.5t-93 -3.5h-576zM328 654q0 13 9.5 36.5t21.5 47t19 35.5q9 14 22.5 21.5t37.5 7.5h21q28 0 38.5 -6.5t10.5 -22.5t-19.5 -37.5t-47 -42.5t-53.5 -38q-11 -7 -25.5 -12t-24.5 -3t-10 14z" />
    <glyph glyph-name="zacute" unicode="&#x17a;" horiz-adv-x="629" 
d="M40 0v90l253 231h-233v127h510v-90l-272 -232h261l50 -115q0 -4 -30 -7.5t-101 -3.5h-438zM260 514q0 13 9.5 36.5t21.5 47t19 35.5q9 14 22.5 21.5t37.5 7.5h21q28 0 38.5 -6.5t10.5 -22.5t-19.5 -37.5t-47 -42.5t-53.5 -38q-11 -7 -25.5 -12t-24.5 -3t-10 14z" />
    <glyph glyph-name="Zdotaccent" unicode="&#x17b;" horiz-adv-x="776" 
d="M50 0v117l384 335h-384v136h661v-116l-393 -335h368l60 -126q0 -4 -27 -7.5t-93 -3.5h-576zM383.593 655q-83.4746 0 -83.4746 71.0771q0 39.6709 21.0752 54.9609q21.0752 15.2891 62.3994 15.2891q43.8027 0 64.0518 -15.2891q20.248 -15.29 20.248 -54.9609
q0 -71.0771 -84.2998 -71.0771z" />
    <glyph glyph-name="zdotaccent" unicode="&#x17c;" horiz-adv-x="629" 
d="M40 0v90l253 231h-233v127h510v-90l-272 -232h261l50 -115q0 -4 -30 -7.5t-101 -3.5h-438zM315.593 515q-83.4746 0 -83.4746 71.0771q0 39.6709 21.0752 54.9609q21.0752 15.2891 62.3994 15.2891q43.8027 0 64.0518 -15.2891q20.248 -15.29 20.248 -54.9609
q0 -71.0771 -84.2998 -71.0771z" />
    <glyph glyph-name="Zcaron" unicode="&#x17d;" horiz-adv-x="776" 
d="M50 0v117l384 335h-384v136h661v-116l-393 -335h368l60 -126q0 -4 -27 -7.5t-93 -3.5h-576zM230 778q0 -16 15.5 -40.5t34.5 -47t30 -32.5t25 -15.5t39 -5.5h20q24 0 39 6t24 15q11 10 28.5 33t32 47.5t14.5 39.5q0 17 -19 16t-36 -12l-93 -62l-99 62q-21 13 -38 13.5
t-17 -17.5z" />
    <glyph glyph-name="zcaron" unicode="&#x17e;" horiz-adv-x="629" 
d="M40 0v90l253 231h-233v127h510v-90l-272 -232h261l50 -115q0 -4 -30 -7.5t-101 -3.5h-438zM162 638q0 -16 15.5 -40.5t34.5 -47t30 -32.5t25 -15.5t39 -5.5h20q24 0 39 6t24 15q11 10 28.5 33t32 47.5t14.5 39.5q0 17 -19 16t-36 -12l-93 -62l-99 62q-21 13 -38 13.5
t-17 -17.5z" />
    <glyph glyph-name="uni018F" unicode="&#x18f;" horiz-adv-x="739" 
d="M214 0q-76 0 -120 35.5t-44 97.5v228h204q83 0 138.5 -1.5t95.5 -6.5v59q0 13 -11 26.5t-37 13.5h-100q-109 0 -160.5 -3.5t-57.5 -6.5l-11 126q0 14 76 17t254 3h111q50 0 77 -15.5t38.5 -38.5t14 -46t2.5 -38v-268q0 -64 -19 -97t-57 -53q-45 -24 -105 -28t-116 -4
h-173zM292 137h136q34 0 47 12t13 37v47h-244v-44q0 -28 10 -40t38 -12z" />
    <glyph glyph-name="florin" unicode="&#x192;" horiz-adv-x="689" 
d="M169 -84q-29 0 -59 4.5t-50 11.5t-20 14l30 100q9 -3 28 -6.5t44 -3.5q32 0 51.5 14t29 50t9.5 102v121h-62v125h62v106q0 48 15 86t52.5 60t104.5 22h10q83 0 135 -15.5t76 -34.5t24 -30l-60 -96q-17 18 -47 34t-70 16h-10q-25 0 -36.5 -9t-11.5 -31v-107h128v-126h-128
v-121q0 -109 -29.5 -171t-82 -88.5t-123.5 -26.5h-10z" />
    <glyph glyph-name="uni019D" unicode="&#x19d;" horiz-adv-x="960" 
d="M159 -176q-29 0 -64 7.5t-60 17t-25 16.5l30 89q12 -3 34.5 -6.5t47.5 -3.5q27 0 43.5 13t16.5 53v498l-10 80h184l282 -286l39 -44h11v330h192v-588h-167l-290 289l-39 47h-10v-345q0 -62 -26 -98.5t-71.5 -52.5t-104.5 -16h-13z" />
    <glyph glyph-name="Ohorn" unicode="&#x1a0;" horiz-adv-x="837" 
d="M273 0q-106 0 -154.5 47.5t-48.5 151.5v191q0 102 48 150t155 48h292q105 0 153.5 -48t48.5 -150v-191q0 -104 -49 -151.5t-153 -47.5h-292zM342 136h155q78 0 78 71v175q0 70 -78 70h-155q-40 0 -60 -16t-20 -54v-175q0 -37 20 -54t60 -17zM808 398q-31 0 -57 9t-37 17
t-13 21t13 13h32q37 0 48 14.5t11 48.5v39q0 30 30 30h71q30 0 30 -30v-24q0 -67 -37.5 -102.5t-90.5 -35.5z" />
    <glyph glyph-name="ohorn" unicode="&#x1a1;" horiz-adv-x="683" 
d="M203 0q-66 0 -99 19t-43.5 52.5t-10.5 77.5v151q0 42 11 75.5t43.5 53t98.5 19.5h278q66 0 98.5 -19.5t43 -53t10.5 -75.5v-151q0 -44 -10.5 -77.5t-43 -52.5t-98.5 -19h-278zM283 126h119q48 0 47 40v116q0 20 -10.5 30t-36.5 10h-118q-26 0 -37 -10t-11 -30v-116
q-1 -40 47 -40zM661 288q-31 0 -57 9t-37 17t-13 21t13 13h32q37 0 48 14.5t11 48.5v39q0 30 30 30h71q30 0 30 -30v-24q0 -67 -37.5 -102.5t-90.5 -35.5z" />
    <glyph glyph-name="Uhorn" unicode="&#x1af;" horiz-adv-x="806" 
d="M268 -10q-100 0 -151.5 47t-51.5 152v399h195v-381q0 -47 23 -63t57 -16h129q32 0 56 16.5t24 62.5v381h192v-399q0 -105 -50.5 -152t-151.5 -47h-271zM742 528q-31 0 -57 9t-37 17t-13 21t13 13h32q37 0 48 14.5t11 48.5v39q0 30 30 30h71q30 0 30 -30v-24
q0 -67 -37.5 -102.5t-90.5 -35.5z" />
    <glyph glyph-name="uhorn" unicode="&#x1b0;" horiz-adv-x="676" 
d="M207 0q-66 0 -98.5 19.5t-43 53.5t-10.5 75v300h184v-282q0 -40 48 -40h114q22 0 26 4t4 26v292h185v-448h-145l-38 20q-40 -8 -92 -14t-105 -6h-29zM636 388q-31 0 -57 9t-37 17t-13 21t13 13h32q37 0 48 14.5t11 48.5v39q0 30 30 30h71q30 0 30 -30v-24
q0 -67 -37.5 -102.5t-90.5 -35.5z" />
    <glyph glyph-name="uni01C4" unicode="&#x1c4;" horiz-adv-x="1604" 
d="M90 0v508l-10 80h464q121 0 181.5 -48t60.5 -150v-191q0 -104 -60 -151.5t-182 -47.5h-454zM285 138h229q77 0 78 71v173q0 29 -17 49.5t-61 20.5h-229v-314zM878 0v117l384 335h-384v136h661v-116l-393 -335h368l60 -126q0 -4 -27 -7.5t-93 -3.5h-576zM643 778
q0 -16 15.5 -40.5t34.5 -47t30 -32.5t25 -15.5t39 -5.5h20q24 0 39 6t24 15q11 10 28.5 33t32 47.5t14.5 39.5q0 17 -19 16t-36 -12l-93 -62l-99 62q-21 13 -38 13.5t-17 -17.5z" />
    <glyph glyph-name="uni01C5" unicode="&#x1c5;" horiz-adv-x="1475" 
d="M90 0v508l-10 80h464q121 0 181.5 -48t60.5 -150v-191q0 -104 -60 -151.5t-182 -47.5h-454zM285 138h229q77 0 78 71v173q0 29 -17 49.5t-61 20.5h-229v-314zM886 0v90l253 231h-233v127h510v-90l-272 -232h261l50 -115q0 -4 -30 -7.5t-101 -3.5h-438zM1008 638
q0 -16 15.5 -40.5t34.5 -47t30 -32.5t25 -15.5t39 -5.5h20q24 0 39 6t24 15q11 10 28.5 33t32 47.5t14.5 39.5q0 17 -19 16t-36 -12l-93 -62l-99 62q-21 13 -38 13.5t-17 -17.5z" />
    <glyph glyph-name="uni01C6" unicode="&#x1c6;" horiz-adv-x="1321" 
d="M202 0q-66 0 -98.5 19.5t-43 53t-10.5 76.5v151q0 38 10.5 71.5t43 55t98.5 21.5h31q73 0 132.5 -4t81.5 -7v197h185v-634h-145l-39 20q-42 -7 -90.5 -13.5t-125.5 -6.5h-30zM283 126h133q21 0 26 5t5 25v159q-25 2 -59 4.5t-75 2.5h-30q-48 0 -48 -40v-116q0 -20 11 -30
t37 -10zM732 0v90l253 231h-233v127h510v-90l-272 -232h261l50 -115q0 -4 -30 -7.5t-101 -3.5h-438zM854 638q0 -16 15.5 -40.5t34.5 -47t30 -32.5t25 -15.5t39 -5.5h20q24 0 39 6t24 15q11 10 28.5 33t32 47.5t14.5 39.5q0 17 -19 16t-36 -12l-93 -62l-99 62
q-21 13 -38 13.5t-17 -17.5z" />
    <glyph glyph-name="uni01C7" unicode="&#x1c7;" horiz-adv-x="1363" 
d="M80 0l10 80v508h192v-451h354l60 -126q0 -4 -27 -7.5t-93 -3.5h-496zM968 0q-72 0 -131.5 3.5t-95 12.5t-35.5 25l70 119q29 -13 80.5 -17.5t136.5 -4.5h33q47 0 62 22.5t15 48.5v299l-8 80h203v-409q0 -50 -12.5 -91t-51 -64.5t-117.5 -23.5h-149z" />
    <glyph glyph-name="uni01C8" unicode="&#x1c8;" horiz-adv-x="1054" 
d="M80 0l10 80v508h192v-451h354l60 -126q0 -4 -27 -7.5t-93 -3.5h-496zM892 491q-101 0 -101 87q0 47 25.5 65.5t75.5 18.5q53 0 77.5 -18.5t24.5 -65.5q0 -87 -102 -87zM755 -176q-64 0 -101.5 15t-37.5 25l40 90q12 -3 34.5 -6.5t47.5 -3.5q27 0 43.5 13t16.5 53v438h185
v-458q0 -60 -25 -96.5t-68 -53t-99 -16.5h-36z" />
    <glyph glyph-name="uni01C9" unicode="&#x1c9;" horiz-adv-x="670" 
d="M70 0v554l-10 80h192v-634h-182zM508 491q-101 0 -101 87q0 47 25.5 65.5t75.5 18.5q53 0 77.5 -18.5t24.5 -65.5q0 -87 -102 -87zM371 -176q-64 0 -101.5 15t-37.5 25l40 90q12 -3 34.5 -6.5t47.5 -3.5q27 0 43.5 13t16.5 53v438h185v-458q0 -60 -25 -96.5t-68 -53
t-99 -16.5h-36z" />
    <glyph glyph-name="uni01CA" unicode="&#x1ca;" horiz-adv-x="1535" 
d="M90 0v508l-10 80h184l282 -286l39 -44h11v330h192v-588h-167l-290 289l-39 47h-10v-336h-192zM1140 0q-72 0 -131.5 3.5t-95 12.5t-35.5 25l70 119q29 -13 80.5 -17.5t136.5 -4.5h33q47 0 62 22.5t15 48.5v299l-8 80h203v-409q0 -50 -12.5 -91t-51 -64.5t-117.5 -23.5
h-149z" />
    <glyph glyph-name="uni01CB" unicode="&#x1cb;" horiz-adv-x="1226" 
d="M90 0v508l-10 80h184l282 -286l39 -44h11v330h192v-588h-167l-290 289l-39 47h-10v-336h-192zM1064 491q-101 0 -101 87q0 47 25.5 65.5t75.5 18.5q53 0 77.5 -18.5t24.5 -65.5q0 -87 -102 -87zM927 -176q-64 0 -101.5 15t-37.5 25l40 90q12 -3 34.5 -6.5t47.5 -3.5
q27 0 43.5 13t16.5 53v438h185v-458q0 -60 -25 -96.5t-68 -53t-99 -16.5h-36z" />
    <glyph glyph-name="uni01CC" unicode="&#x1cc;" horiz-adv-x="1053" 
d="M60 0v448h145l40 -20q42 8 101.5 14t111.5 6h50q50 0 77 -14t38.5 -35t14 -42.5t2.5 -36.5v-320h-183v282q0 40 -48 40h-134q-19 0 -24.5 -3.5t-5.5 -18.5v-300h-185zM891 491q-101 0 -101 87q0 47 25.5 65.5t75.5 18.5q53 0 77.5 -18.5t24.5 -65.5q0 -87 -102 -87z
M754 -176q-64 0 -101.5 15t-37.5 25l40 90q12 -3 34.5 -6.5t47.5 -3.5q27 0 43.5 13t16.5 53v438h185v-458q0 -60 -25 -96.5t-68 -53t-99 -16.5h-36z" />
    <glyph glyph-name="Gcaron" unicode="&#x1e6;" horiz-adv-x="835" 
d="M273 0q-107 0 -155 47t-48 152v183q0 108 53 157.5t150 49.5h334q69 0 105.5 -7.5t36.5 -15.5l-31 -125q-25 3 -97.5 6.5t-182.5 3.5h-93q-47 0 -63.5 -17.5t-16.5 -53.5v-171q0 -34 14.5 -52.5t65.5 -18.5h81q46 0 83 0.5t65 1.5v76l-40 -1l-131 -10v138h362v-301
l10 -21q0 -8 -42 -14.5t-142 -6.5h-318zM310 778q0 -16 15.5 -40.5t34.5 -47t30 -32.5t25 -15.5t39 -5.5h20q24 0 39 6t24 15q11 10 28.5 33t32 47.5t14.5 39.5q0 17 -19 16t-36 -12l-93 -62l-99 62q-21 13 -38 13.5t-17 -17.5z" />
    <glyph glyph-name="gcaron" unicode="&#x1e7;" horiz-adv-x="691" 
d="M369 -176q-103 0 -168 3.5t-100 9.5t-48 13.5t-13 14.5l50 105q11 -3 49 -11.5t111 -8.5h151q26 0 37.5 9t10.5 31v41q-31 -9 -86.5 -14.5t-129.5 -5.5h-29q-66 0 -98.5 18.5t-43 51.5t-10.5 79v140q0 24 5.5 50t21 48t46 36t79.5 14h30q70 0 114 -2t70.5 -5t44.5 -6
l26 13h142v-476q0 -66 -42 -107t-140 -41h-80zM285 137h133q23 0 27 4t4 26v148q-22 2 -42.5 3.5t-46 2.5t-64.5 1h-11q-48 0 -48 -40v-105q-1 -40 48 -40zM208 638q0 -16 15.5 -40.5t34.5 -47t30 -32.5t25 -15.5t39 -5.5h20q24 0 39 6t24 15q11 10 28.5 33t32 47.5
t14.5 39.5q0 17 -19 16t-36 -12l-93 -62l-99 62q-21 13 -38 13.5t-17 -17.5z" />
    <glyph glyph-name="uni01EA" unicode="&#x1ea;" horiz-adv-x="837" 
d="M273 0q-106 0 -154.5 47.5t-48.5 151.5v191q0 102 48 150t155 48h292q105 0 153.5 -48t48.5 -150v-191q0 -104 -49 -151.5t-153 -47.5h-292zM342 136h155q78 0 78 71v175q0 70 -78 70h-155q-40 0 -60 -16t-20 -54v-175q0 -37 20 -54t60 -17zM444 -179q-52 0 -79 26
t-27 70q0 45 24 72.5t53 37.5q17 6 38 7.5t36 -1.5t15 -9q0 -7 -11 -13t-26 -14.5t-26 -21.5t-11 -33q0 -31 37 -31q28 0 46.5 9.5t35.5 9.5q13 0 14 -12.5t-8 -31.5q-10 -22 -39.5 -43.5t-71.5 -21.5z" />
    <glyph glyph-name="uni01EB" unicode="&#x1eb;" horiz-adv-x="683" 
d="M203 0q-66 0 -99 19t-43.5 52.5t-10.5 77.5v151q0 42 11 75.5t43.5 53t98.5 19.5h278q66 0 98.5 -19.5t43 -53t10.5 -75.5v-151q0 -44 -10.5 -77.5t-43 -52.5t-98.5 -19h-278zM283 126h119q48 0 47 40v116q0 20 -10.5 30t-36.5 10h-118q-26 0 -37 -10t-11 -30v-116
q-1 -40 47 -40zM483 -180q-52 0 -79 26t-27 70q0 45 24 72.5t53 37.5q17 6 38 7.5t36 -1.5t15 -9q0 -7 -11 -13t-26 -14.5t-26 -21.5t-11 -33q0 -31 37 -31q28 0 46.5 9.5t35.5 9.5q13 0 14 -12.5t-8 -31.5q-10 -22 -39.5 -43.5t-71.5 -21.5z" />
    <glyph glyph-name="uni01F1" unicode="&#x1f1;" horiz-adv-x="1604" 
d="M90 0v508l-10 80h464q121 0 181.5 -48t60.5 -150v-191q0 -104 -60 -151.5t-182 -47.5h-454zM285 138h229q77 0 78 71v173q0 29 -17 49.5t-61 20.5h-229v-314zM878 0v117l384 335h-384v136h661v-116l-393 -335h368l60 -126q0 -4 -27 -7.5t-93 -3.5h-576z" />
    <glyph glyph-name="uni01F2" unicode="&#x1f2;" horiz-adv-x="1475" 
d="M90 0v508l-10 80h464q121 0 181.5 -48t60.5 -150v-191q0 -104 -60 -151.5t-182 -47.5h-454zM285 138h229q77 0 78 71v173q0 29 -17 49.5t-61 20.5h-229v-314zM886 0v90l253 231h-233v127h510v-90l-272 -232h261l50 -115q0 -4 -30 -7.5t-101 -3.5h-438z" />
    <glyph glyph-name="uni01F3" unicode="&#x1f3;" horiz-adv-x="1321" 
d="M202 0q-66 0 -98.5 19.5t-43 53t-10.5 76.5v151q0 38 10.5 71.5t43 55t98.5 21.5h31q73 0 132.5 -4t81.5 -7v197h185v-634h-145l-39 20q-42 -7 -90.5 -13.5t-125.5 -6.5h-30zM283 126h133q21 0 26 5t5 25v159q-25 2 -59 4.5t-75 2.5h-30q-48 0 -48 -40v-116q0 -20 11 -30
t37 -10zM732 0v90l253 231h-233v127h510v-90l-272 -232h261l50 -115q0 -4 -30 -7.5t-101 -3.5h-438z" />
    <glyph glyph-name="Aringacute" unicode="&#x1fa;" horiz-adv-x="861" 
d="M8 0l293 588h260l292 -588h-215l-49 107h-316l-55 -107h-210zM328 245h205l-97 213h-10zM389 640q-44 0 -66 14.5t-29 37t-7 46.5v12q0 20 6.5 43t28 39t67.5 16h88q44 0 66 -16t29 -39t7 -43v-12q0 -24 -7 -46.5t-29 -37t-66 -14.5h-88zM409 716h48q11 0 15.5 6.5
t4.5 13.5v15q0 7 -4.5 13.5t-15.5 6.5h-48q-12 0 -16 -6.5t-4 -13.5v-15q0 -7 4 -13.5t16 -6.5zM378 912q0 13 9.5 36.5t21.5 47t19 35.5q9 14 22.5 21.5t37.5 7.5h21q28 0 38.5 -6.5t10.5 -22.5t-19.5 -37.5t-47 -42.5t-53.5 -38q-11 -7 -25.5 -12t-24.5 -3t-10 14z" />
    <glyph glyph-name="aringacute" unicode="&#x1fb;" horiz-adv-x="672" 
d="M209 0q-88 0 -126 33t-38 110q0 71 39.5 103t124.5 32h31q56 0 107 -4t88 -8v16q0 14 -6 27t-42 13h-50q-109 0 -168 -3.5t-73 -6.5l-11 106q0 10 35 16.5t96 10t139 3.5h100q66 0 101 -19.5t48 -52.5t13 -76v-300h-142l-39 20q-24 -5 -76.5 -12.5t-120.5 -7.5h-30z
M267 118h138q22 0 26 4t4 25v35h-168q-19 0 -28 -7t-9 -27q0 -19 9 -24.5t28 -5.5zM302 500q-44 0 -66 14.5t-29 37t-7 46.5v12q0 20 6.5 43t28 39t67.5 16h88q44 0 66 -16t29 -39t7 -43v-12q0 -24 -7 -46.5t-29 -37t-66 -14.5h-88zM322 576h48q11 0 15.5 6.5t4.5 13.5v15
q0 7 -4.5 13.5t-15.5 6.5h-48q-12 0 -16 -6.5t-4 -13.5v-15q0 -7 4 -13.5t16 -6.5zM291 772q0 13 9.5 36.5t21.5 47t19 35.5q9 14 22.5 21.5t37.5 7.5h21q28 0 38.5 -6.5t10.5 -22.5t-19.5 -37.5t-47 -42.5t-53.5 -38q-11 -7 -25.5 -12t-24.5 -3t-10 14z" />
    <glyph glyph-name="AEacute" unicode="&#x1fc;" horiz-adv-x="1216" 
d="M10 0l293 588h849v-136h-447v-83h331v-139h-331v-93h431l60 -126q0 -4 -27 -7.5t-93 -3.5h-566v107h-235l-55 -107h-210zM330 245h180v213h-82zM533 654q0 13 9.5 36.5t21.5 47t19 35.5q9 14 22.5 21.5t37.5 7.5h21q28 0 38.5 -6.5t10.5 -22.5t-19.5 -37.5t-47 -42.5
t-53.5 -38q-11 -7 -25.5 -12t-24.5 -3t-10 14z" />
    <glyph glyph-name="aeacute" unicode="&#x1fd;" horiz-adv-x="1048" 
d="M209 0q-88 0 -126 33t-38 110q0 71 39.5 103t124.5 32h31q56 0 110 -5t85 -17v26q0 11 -3 21t-18 16.5t-51 6.5h-50q-92 0 -147.5 -4.5t-69.5 -9.5l-15 112q35 10 90 17t124 7h39q47 0 82 -9.5t60 -25.5q19 16 48.5 25.5t73.5 9.5h207q78 0 119.5 -18.5t57 -52
t15.5 -77.5v-128h-175q-90 0 -136.5 4t-65.5 5v-15q-1 -40 48 -40h31q80 0 148 3.5t101 6.5l60 -95q0 -10 -17 -19t-59.5 -15.5t-120.5 -6.5h-213q-46 0 -76.5 9.5t-49.5 26.5q-33 -18 -81 -27t-112 -9h-70zM620 268h192v14q0 20 -3.5 28t-21.5 10t-61 2h-58q-48 0 -48 -40
v-14zM267 118h138q20 0 25 4.5t5 14.5v5q0 8 -5.5 17.5t-28 16t-73.5 6.5h-61q-19 0 -28 -7t-9 -27q0 -19 9 -24.5t28 -5.5zM455 514q0 13 9.5 36.5t21.5 47t19 35.5q9 14 22.5 21.5t37.5 7.5h21q28 0 38.5 -6.5t10.5 -22.5t-19.5 -37.5t-47 -42.5t-53.5 -38
q-11 -7 -25.5 -12t-24.5 -3t-10 14z" />
    <glyph glyph-name="Oslashacute" unicode="&#x1fe;" horiz-adv-x="837" 
d="M273 0q-106 0 -154.5 47.5t-48.5 151.5v191q0 102 48 150t155 48h292q105 0 153.5 -48t48.5 -150v-191q0 -104 -49 -151.5t-153 -47.5h-292zM342 136h155q78 0 78 71v175q0 70 -78 70h-155q-40 0 -60 -16t-20 -54v-175q0 -37 20 -54t60 -17zM146 -49l417 668h130
l-418 -668h-129zM354 654q0 13 9.5 36.5t21.5 47t19 35.5q9 14 22.5 21.5t37.5 7.5h21q28 0 38.5 -6.5t10.5 -22.5t-19.5 -37.5t-47 -42.5t-53.5 -38q-11 -7 -25.5 -12t-24.5 -3t-10 14z" />
    <glyph glyph-name="oslashacute" unicode="&#x1ff;" horiz-adv-x="683" 
d="M203 0q-66 0 -99 19t-43.5 52.5t-10.5 77.5v151q0 42 11 75.5t43.5 53t98.5 19.5h278q66 0 98.5 -19.5t43 -53t10.5 -75.5v-151q0 -44 -10.5 -77.5t-43 -52.5t-98.5 -19h-278zM283 126h119q48 0 47 40v116q0 20 -10.5 30t-36.5 10h-118q-26 0 -37 -10t-11 -30v-116
q-1 -40 47 -40zM67 -121l417 668h130l-418 -668h-129zM285 514q0 13 9.5 36.5t21.5 47t19 35.5q9 14 22.5 21.5t37.5 7.5h21q28 0 38.5 -6.5t10.5 -22.5t-19.5 -37.5t-47 -42.5t-53.5 -38q-11 -7 -25.5 -12t-24.5 -3t-10 14z" />
    <glyph glyph-name="uni0200" unicode="&#x200;" horiz-adv-x="861" 
d="M8 0l293 588h260l292 -588h-215l-49 107h-316l-55 -107h-210zM328 245h205l-97 213h-10zM408 654q0 13 -9.5 36.5t-21.5 47t-19 35.5q-9 14 -22.5 21.5t-37.5 7.5h-21q-28 0 -38.5 -6.5t-10.5 -22.5t19.5 -37.5t47 -42.5t53.5 -38q11 -7 25.5 -12t24.5 -3t10 14zM598 652
q0 13 -9.5 36.5t-21.5 47t-19 35.5q-9 14 -22.5 21.5t-37.5 7.5h-21q-28 0 -38.5 -6.5t-10.5 -22.5t19.5 -37.5t47 -42.5t53.5 -38q11 -7 25.5 -12t24.5 -3t10 14z" />
    <glyph glyph-name="uni0201" unicode="&#x201;" horiz-adv-x="672" 
d="M209 0q-88 0 -126 33t-38 110q0 71 39.5 103t124.5 32h31q56 0 107 -4t88 -8v16q0 14 -6 27t-42 13h-50q-109 0 -168 -3.5t-73 -6.5l-11 106q0 10 35 16.5t96 10t139 3.5h100q66 0 101 -19.5t48 -52.5t13 -76v-300h-142l-39 20q-24 -5 -76.5 -12.5t-120.5 -7.5h-30z
M267 118h138q22 0 26 4t4 25v35h-168q-19 0 -28 -7t-9 -27q0 -19 9 -24.5t28 -5.5zM321 514q0 13 -9.5 36.5t-21.5 47t-19 35.5q-9 14 -22.5 21.5t-37.5 7.5h-21q-28 0 -38.5 -6.5t-10.5 -22.5t19.5 -37.5t47 -42.5t53.5 -38q11 -7 25.5 -12t24.5 -3t10 14zM511 512
q0 13 -9.5 36.5t-21.5 47t-19 35.5q-9 14 -22.5 21.5t-37.5 7.5h-21q-28 0 -38.5 -6.5t-10.5 -22.5t19.5 -37.5t47 -42.5t53.5 -38q11 -7 25.5 -12t24.5 -3t10 14z" />
    <glyph glyph-name="uni0202" unicode="&#x202;" horiz-adv-x="861" 
d="M8 0l293 588h260l292 -588h-215l-49 107h-316l-55 -107h-210zM328 245h205l-97 213h-10zM433 796q-58 0 -90.5 -16.5t-46 -46.5t-13.5 -68q0 -20 9.5 -25t21 -0.5t17.5 14.5q10 16 20 28t28.5 18t53.5 6t52.5 -6t27.5 -18t20 -28q7 -11 18.5 -15t21.5 1.5t10 24.5
q0 64 -31.5 97.5t-118.5 33.5z" />
    <glyph glyph-name="uni0203" unicode="&#x203;" horiz-adv-x="672" 
d="M209 0q-88 0 -126 33t-38 110q0 71 39.5 103t124.5 32h31q56 0 107 -4t88 -8v16q0 14 -6 27t-42 13h-50q-109 0 -168 -3.5t-73 -6.5l-11 106q0 10 35 16.5t96 10t139 3.5h100q66 0 101 -19.5t48 -52.5t13 -76v-300h-142l-39 20q-24 -5 -76.5 -12.5t-120.5 -7.5h-30z
M267 118h138q22 0 26 4t4 25v35h-168q-19 0 -28 -7t-9 -27q0 -19 9 -24.5t28 -5.5zM346 656q-58 0 -90.5 -16.5t-46 -46.5t-13.5 -68q0 -20 9.5 -25t21 -0.5t17.5 14.5q10 16 20 28t28.5 18t53.5 6t52.5 -6t27.5 -18t20 -28q7 -11 18.5 -15t21.5 1.5t10 24.5
q0 64 -31.5 97.5t-118.5 33.5z" />
    <glyph glyph-name="uni0204" unicode="&#x204;" horiz-adv-x="786" 
d="M80 0v588h642v-136h-447v-83h331v-139h-331v-93h431l60 -126q0 -4 -27 -7.5t-93 -3.5h-566zM378 654q0 13 -9.5 36.5t-21.5 47t-19 35.5q-9 14 -22.5 21.5t-37.5 7.5h-21q-28 0 -38.5 -6.5t-10.5 -22.5t19.5 -37.5t47 -42.5t53.5 -38q11 -7 25.5 -12t24.5 -3t10 14z
M568 652q0 13 -9.5 36.5t-21.5 47t-19 35.5q-9 14 -22.5 21.5t-37.5 7.5h-21q-28 0 -38.5 -6.5t-10.5 -22.5t19.5 -37.5t47 -42.5t53.5 -38q11 -7 25.5 -12t24.5 -3t10 14z" />
    <glyph glyph-name="uni0205" unicode="&#x205;" horiz-adv-x="663" 
d="M213 0q-66 0 -101.5 19t-48.5 52.5t-13 77.5v151q0 40 13.5 73.5t48.5 54t101 20.5h207q78 0 119.5 -18.5t57 -52t15.5 -77.5v-128h-175q-90 0 -136.5 4t-65.5 5v-15q-1 -40 48 -40h31q80 0 148 3.5t101 6.5l60 -95q0 -10 -17 -19t-59.5 -15.5t-120.5 -6.5h-213zM235 268
h192v14q0 20 -3.5 28t-21.5 10t-61 2h-58q-48 0 -48 -40v-14zM310 514q0 13 -9.5 36.5t-21.5 47t-19 35.5q-9 14 -22.5 21.5t-37.5 7.5h-21q-28 0 -38.5 -6.5t-10.5 -22.5t19.5 -37.5t47 -42.5t53.5 -38q11 -7 25.5 -12t24.5 -3t10 14zM500 512q0 13 -9.5 36.5t-21.5 47
t-19 35.5q-9 14 -22.5 21.5t-37.5 7.5h-21q-28 0 -38.5 -6.5t-10.5 -22.5t19.5 -37.5t47 -42.5t53.5 -38q11 -7 25.5 -12t24.5 -3t10 14z" />
    <glyph glyph-name="uni0206" unicode="&#x206;" horiz-adv-x="786" 
d="M80 0v588h642v-136h-447v-83h331v-139h-331v-93h431l60 -126q0 -4 -27 -7.5t-93 -3.5h-566zM403 796q-58 0 -90.5 -16.5t-46 -46.5t-13.5 -68q0 -20 9.5 -25t21 -0.5t17.5 14.5q10 16 20 28t28.5 18t53.5 6t52.5 -6t27.5 -18t20 -28q7 -11 18.5 -15t21.5 1.5t10 24.5
q0 64 -31.5 97.5t-118.5 33.5z" />
    <glyph glyph-name="uni0207" unicode="&#x207;" horiz-adv-x="663" 
d="M213 0q-66 0 -101.5 19t-48.5 52.5t-13 77.5v151q0 40 13.5 73.5t48.5 54t101 20.5h207q78 0 119.5 -18.5t57 -52t15.5 -77.5v-128h-175q-90 0 -136.5 4t-65.5 5v-15q-1 -40 48 -40h31q80 0 148 3.5t101 6.5l60 -95q0 -10 -17 -19t-59.5 -15.5t-120.5 -6.5h-213zM235 268
h192v14q0 20 -3.5 28t-21.5 10t-61 2h-58q-48 0 -48 -40v-14zM335 656q-58 0 -90.5 -16.5t-46 -46.5t-13.5 -68q0 -20 9.5 -25t21 -0.5t17.5 14.5q10 16 20 28t28.5 18t53.5 6t52.5 -6t27.5 -18t20 -28q7 -11 18.5 -15t21.5 1.5t10 24.5q0 64 -31.5 97.5t-118.5 33.5z" />
    <glyph glyph-name="uni0208" unicode="&#x208;" horiz-adv-x="352" 
d="M80 0v588h192v-588h-192zM151 654q0 13 -9.5 36.5t-21.5 47t-19 35.5q-9 14 -22.5 21.5t-37.5 7.5h-21q-28 0 -38.5 -6.5t-10.5 -22.5t19.5 -37.5t47 -42.5t53.5 -38q11 -7 25.5 -12t24.5 -3t10 14zM341 652q0 13 -9.5 36.5t-21.5 47t-19 35.5q-9 14 -22.5 21.5
t-37.5 7.5h-21q-28 0 -38.5 -6.5t-10.5 -22.5t19.5 -37.5t47 -42.5t53.5 -38q11 -7 25.5 -12t24.5 -3t10 14z" />
    <glyph glyph-name="uni0209" unicode="&#x209;" horiz-adv-x="302" 
d="M60 0v448h182v-448h-182zM126 514q0 13 -9.5 36.5t-21.5 47t-19 35.5q-9 14 -22.5 21.5t-37.5 7.5h-21q-28 0 -38.5 -6.5t-10.5 -22.5t19.5 -37.5t47 -42.5t53.5 -38q11 -7 25.5 -12t24.5 -3t10 14zM316 512q0 13 -9.5 36.5t-21.5 47t-19 35.5q-9 14 -22.5 21.5
t-37.5 7.5h-21q-28 0 -38.5 -6.5t-10.5 -22.5t19.5 -37.5t47 -42.5t53.5 -38q11 -7 25.5 -12t24.5 -3t10 14z" />
    <glyph glyph-name="uni020A" unicode="&#x20a;" horiz-adv-x="352" 
d="M80 0v588h192v-588h-192zM176 796q-58 0 -90.5 -16.5t-46 -46.5t-13.5 -68q0 -20 9.5 -25t21 -0.5t17.5 14.5q10 16 20 28t28.5 18t53.5 6t52.5 -6t27.5 -18t20 -28q7 -11 18.5 -15t21.5 1.5t10 24.5q0 64 -31.5 97.5t-118.5 33.5z" />
    <glyph glyph-name="uni020B" unicode="&#x20b;" horiz-adv-x="302" 
d="M60 0v448h182v-448h-182zM151 656q-58 0 -90.5 -16.5t-46 -46.5t-13.5 -68q0 -20 9.5 -25t21 -0.5t17.5 14.5q10 16 20 28t28.5 18t53.5 6t52.5 -6t27.5 -18t20 -28q7 -11 18.5 -15t21.5 1.5t10 24.5q0 64 -31.5 97.5t-118.5 33.5z" />
    <glyph glyph-name="uni020C" unicode="&#x20c;" horiz-adv-x="837" 
d="M273 0q-106 0 -154.5 47.5t-48.5 151.5v191q0 102 48 150t155 48h292q105 0 153.5 -48t48.5 -150v-191q0 -104 -49 -151.5t-153 -47.5h-292zM342 136h155q78 0 78 71v175q0 70 -78 70h-155q-40 0 -60 -16t-20 -54v-175q0 -37 20 -54t60 -17zM394 654q0 13 -9.5 36.5
t-21.5 47t-19 35.5q-9 14 -22.5 21.5t-37.5 7.5h-21q-28 0 -38.5 -6.5t-10.5 -22.5t19.5 -37.5t47 -42.5t53.5 -38q11 -7 25.5 -12t24.5 -3t10 14zM584 652q0 13 -9.5 36.5t-21.5 47t-19 35.5q-9 14 -22.5 21.5t-37.5 7.5h-21q-28 0 -38.5 -6.5t-10.5 -22.5t19.5 -37.5
t47 -42.5t53.5 -38q11 -7 25.5 -12t24.5 -3t10 14z" />
    <glyph glyph-name="uni020D" unicode="&#x20d;" horiz-adv-x="683" 
d="M203 0q-66 0 -99 19t-43.5 52.5t-10.5 77.5v151q0 42 11 75.5t43.5 53t98.5 19.5h278q66 0 98.5 -19.5t43 -53t10.5 -75.5v-151q0 -44 -10.5 -77.5t-43 -52.5t-98.5 -19h-278zM283 126h119q48 0 47 40v116q0 20 -10.5 30t-36.5 10h-118q-26 0 -37 -10t-11 -30v-116
q-1 -40 47 -40zM320 514q0 13 -9.5 36.5t-21.5 47t-19 35.5q-9 14 -22.5 21.5t-37.5 7.5h-21q-28 0 -38.5 -6.5t-10.5 -22.5t19.5 -37.5t47 -42.5t53.5 -38q11 -7 25.5 -12t24.5 -3t10 14zM510 512q0 13 -9.5 36.5t-21.5 47t-19 35.5q-9 14 -22.5 21.5t-37.5 7.5h-21
q-28 0 -38.5 -6.5t-10.5 -22.5t19.5 -37.5t47 -42.5t53.5 -38q11 -7 25.5 -12t24.5 -3t10 14z" />
    <glyph glyph-name="uni020E" unicode="&#x20e;" horiz-adv-x="837" 
d="M273 0q-106 0 -154.5 47.5t-48.5 151.5v191q0 102 48 150t155 48h292q105 0 153.5 -48t48.5 -150v-191q0 -104 -49 -151.5t-153 -47.5h-292zM342 136h155q78 0 78 71v175q0 70 -78 70h-155q-40 0 -60 -16t-20 -54v-175q0 -37 20 -54t60 -17zM419 796q-58 0 -90.5 -16.5
t-46 -46.5t-13.5 -68q0 -20 9.5 -25t21 -0.5t17.5 14.5q10 16 20 28t28.5 18t53.5 6t52.5 -6t27.5 -18t20 -28q7 -11 18.5 -15t21.5 1.5t10 24.5q0 64 -31.5 97.5t-118.5 33.5z" />
    <glyph glyph-name="uni020F" unicode="&#x20f;" horiz-adv-x="683" 
d="M203 0q-66 0 -99 19t-43.5 52.5t-10.5 77.5v151q0 42 11 75.5t43.5 53t98.5 19.5h278q66 0 98.5 -19.5t43 -53t10.5 -75.5v-151q0 -44 -10.5 -77.5t-43 -52.5t-98.5 -19h-278zM283 126h119q48 0 47 40v116q0 20 -10.5 30t-36.5 10h-118q-26 0 -37 -10t-11 -30v-116
q-1 -40 47 -40zM345 656q-58 0 -90.5 -16.5t-46 -46.5t-13.5 -68q0 -20 9.5 -25t21 -0.5t17.5 14.5q10 16 20 28t28.5 18t53.5 6t52.5 -6t27.5 -18t20 -28q7 -11 18.5 -15t21.5 1.5t10 24.5q0 64 -31.5 97.5t-118.5 33.5z" />
    <glyph glyph-name="uni0210" unicode="&#x210;" horiz-adv-x="858" 
d="M729 -10q-40 0 -89 12.5t-97 61.5l-42 42q-30 30 -57.5 49t-62.5 28.5t-88 9.5h-8v-193h-195v508l-10 81h463q64 0 103.5 -15.5t61 -41t29.5 -57.5t8 -65v-19q0 -60 -30.5 -107.5t-96.5 -67.5q25 -15 47.5 -30.5t51.5 -32.5q33 -19 61.5 -27.5t47.5 -10.5t22 -2l-30 -113
q-12 -3 -36.5 -6.5t-52.5 -3.5zM401 326q25 0 48.5 1t42.5 3q34 4 46.5 21.5t12.5 42.5v11q0 22 -12.5 34t-45.5 12h-208v-121q25 -1 55 -2.5t61 -1.5zM359 654q0 13 -9.5 36.5t-21.5 47t-19 35.5q-9 14 -22.5 21.5t-37.5 7.5h-21q-28 0 -38.5 -6.5t-10.5 -22.5t19.5 -37.5
t47 -42.5t53.5 -38q11 -7 25.5 -12t24.5 -3t10 14zM549 652q0 13 -9.5 36.5t-21.5 47t-19 35.5q-9 14 -22.5 21.5t-37.5 7.5h-21q-28 0 -38.5 -6.5t-10.5 -22.5t19.5 -37.5t47 -42.5t53.5 -38q11 -7 25.5 -12t24.5 -3t10 14z" />
    <glyph glyph-name="uni0211" unicode="&#x211;" horiz-adv-x="551" 
d="M60 0v448h142l38 -20q46 30 122 30q50 0 88 -10.5t61.5 -22.5t29.5 -17l-50 -130q-10 7 -37.5 19t-64.5 22.5t-78 10.5h-11q-28 0 -43 -9.5t-15 -41.5v-279h-182zM261 524q0 13 -9.5 36.5t-21.5 47t-19 35.5q-9 14 -22.5 21.5t-37.5 7.5h-21q-28 0 -38.5 -6.5
t-10.5 -22.5t19.5 -37.5t47 -42.5t53.5 -38q11 -7 25.5 -12t24.5 -3t10 14zM451 522q0 13 -9.5 36.5t-21.5 47t-19 35.5q-9 14 -22.5 21.5t-37.5 7.5h-21q-28 0 -38.5 -6.5t-10.5 -22.5t19.5 -37.5t47 -42.5t53.5 -38q11 -7 25.5 -12t24.5 -3t10 14z" />
    <glyph glyph-name="uni0212" unicode="&#x212;" horiz-adv-x="858" 
d="M729 -10q-40 0 -89 12.5t-97 61.5l-42 42q-30 30 -57.5 49t-62.5 28.5t-88 9.5h-8v-193h-195v508l-10 81h463q64 0 103.5 -15.5t61 -41t29.5 -57.5t8 -65v-19q0 -60 -30.5 -107.5t-96.5 -67.5q25 -15 47.5 -30.5t51.5 -32.5q33 -19 61.5 -27.5t47.5 -10.5t22 -2l-30 -113
q-12 -3 -36.5 -6.5t-52.5 -3.5zM401 326q25 0 48.5 1t42.5 3q34 4 46.5 21.5t12.5 42.5v11q0 22 -12.5 34t-45.5 12h-208v-121q25 -1 55 -2.5t61 -1.5zM384 796q-58 0 -90.5 -16.5t-46 -46.5t-13.5 -68q0 -20 9.5 -25t21 -0.5t17.5 14.5q10 16 20 28t28.5 18t53.5 6t52.5 -6
t27.5 -18t20 -28q7 -11 18.5 -15t21.5 1.5t10 24.5q0 64 -31.5 97.5t-118.5 33.5z" />
    <glyph glyph-name="uni0213" unicode="&#x213;" horiz-adv-x="551" 
d="M60 0v448h142l38 -20q46 30 122 30q50 0 88 -10.5t61.5 -22.5t29.5 -17l-50 -130q-10 7 -37.5 19t-64.5 22.5t-78 10.5h-11q-28 0 -43 -9.5t-15 -41.5v-279h-182zM286 666q-58 0 -90.5 -16.5t-46 -46.5t-13.5 -68q0 -20 9.5 -25t21 -0.5t17.5 14.5q10 16 20 28t28.5 18
t53.5 6t52.5 -6t27.5 -18t20 -28q7 -11 18.5 -15t21.5 1.5t10 24.5q0 64 -31.5 97.5t-118.5 33.5z" />
    <glyph glyph-name="uni0214" unicode="&#x214;" horiz-adv-x="806" 
d="M268 -10q-100 0 -151.5 47t-51.5 152v399h195v-381q0 -47 23 -63t57 -16h129q32 0 56 16.5t24 62.5v381h192v-399q0 -105 -50.5 -152t-151.5 -47h-271zM380 654q0 13 -9.5 36.5t-21.5 47t-19 35.5q-9 14 -22.5 21.5t-37.5 7.5h-21q-28 0 -38.5 -6.5t-10.5 -22.5
t19.5 -37.5t47 -42.5t53.5 -38q11 -7 25.5 -12t24.5 -3t10 14zM570 652q0 13 -9.5 36.5t-21.5 47t-19 35.5q-9 14 -22.5 21.5t-37.5 7.5h-21q-28 0 -38.5 -6.5t-10.5 -22.5t19.5 -37.5t47 -42.5t53.5 -38q11 -7 25.5 -12t24.5 -3t10 14z" />
    <glyph glyph-name="uni0215" unicode="&#x215;" horiz-adv-x="676" 
d="M207 0q-66 0 -98.5 19.5t-43 53.5t-10.5 75v300h184v-282q0 -40 48 -40h114q22 0 26 4t4 26v292h185v-448h-145l-38 20q-40 -8 -92 -14t-105 -6h-29zM310 514q0 13 -9.5 36.5t-21.5 47t-19 35.5q-9 14 -22.5 21.5t-37.5 7.5h-21q-28 0 -38.5 -6.5t-10.5 -22.5t19.5 -37.5
t47 -42.5t53.5 -38q11 -7 25.5 -12t24.5 -3t10 14zM500 512q0 13 -9.5 36.5t-21.5 47t-19 35.5q-9 14 -22.5 21.5t-37.5 7.5h-21q-28 0 -38.5 -6.5t-10.5 -22.5t19.5 -37.5t47 -42.5t53.5 -38q11 -7 25.5 -12t24.5 -3t10 14z" />
    <glyph glyph-name="uni0216" unicode="&#x216;" horiz-adv-x="806" 
d="M268 -10q-100 0 -151.5 47t-51.5 152v399h195v-381q0 -47 23 -63t57 -16h129q32 0 56 16.5t24 62.5v381h192v-399q0 -105 -50.5 -152t-151.5 -47h-271zM405 796q-58 0 -90.5 -16.5t-46 -46.5t-13.5 -68q0 -20 9.5 -25t21 -0.5t17.5 14.5q10 16 20 28t28.5 18t53.5 6
t52.5 -6t27.5 -18t20 -28q7 -11 18.5 -15t21.5 1.5t10 24.5q0 64 -31.5 97.5t-118.5 33.5z" />
    <glyph glyph-name="uni0217" unicode="&#x217;" horiz-adv-x="676" 
d="M207 0q-66 0 -98.5 19.5t-43 53.5t-10.5 75v300h184v-282q0 -40 48 -40h114q22 0 26 4t4 26v292h185v-448h-145l-38 20q-40 -8 -92 -14t-105 -6h-29zM335 656q-58 0 -90.5 -16.5t-46 -46.5t-13.5 -68q0 -20 9.5 -25t21 -0.5t17.5 14.5q10 16 20 28t28.5 18t53.5 6
t52.5 -6t27.5 -18t20 -28q7 -11 18.5 -15t21.5 1.5t10 24.5q0 64 -31.5 97.5t-118.5 33.5z" />
    <glyph glyph-name="uni0218" unicode="&#x218;" horiz-adv-x="796" 
d="M193 0q-68 0 -100 6t-32 14l60 129q23 -4 95 -7.5t187 -3.5h79q35 0 47 10t12 29v10q0 24 -12 33t-47 9h-229q-101 0 -147 37.5t-46 122.5v36q0 44 16.5 81t56.5 59.5t110 22.5h332q61 0 101.5 -7t40.5 -15l-30 -124q-28 3 -105.5 6.5t-196.5 3.5l-72 1q-31 0 -44 -8.5
t-14 -31.5v-7q0 -23 14 -32t45 -9h220q64 0 109 -13t69 -47.5t24 -101.5v-36q0 -75 -38.5 -121t-133.5 -46h-371zM332.739 -301.054q-17.3564 -4.95898 -20.249 4.5459q-2.89258 9.50391 2.89258 19.4219q6.6123 9.91797 17.3564 38.0176q10.7441 28.1006 14.876 55.374
q-23.9678 5.78516 -40.4971 19.0088t-16.5293 51.2422q0 36.3652 21.9014 52.8945t61.5723 16.5293q44.6299 0 69.0107 -17.7695q24.3818 -17.7686 24.3818 -60.7461q0 -33.0586 -13.6377 -63.2256q-13.6367 -30.166 -34.7119 -54.1338t-44.2158 -40.084
q-23.1416 -16.1162 -42.1504 -21.0752z" />
    <glyph glyph-name="uni0219" unicode="&#x219;" horiz-adv-x="679" 
d="M173 0q-67 0 -95 7t-28 14l40 105q12 -3 71.5 -6.5t173.5 -3.5h71q25 0 31.5 5.5t6.5 19.5q0 17 -7.5 21.5t-30.5 4.5h-203q-73 0 -113 27.5t-40 98.5v20q0 37 10 67.5t43 49t100 18.5h296q60 0 85 -7t25 -14l-10 -106q-16 3 -80.5 6.5t-177.5 3.5h-71q-25 0 -31.5 -5.5
t-6.5 -18.5t6.5 -18.5t31.5 -5.5h207q78 0 115 -34t37 -95v-19q0 -36 -9 -66.5t-41 -49.5t-102 -19h-304zM263.739 -301.054q-17.3564 -4.95898 -20.249 4.5459q-2.89258 9.50391 2.89258 19.4219q6.6123 9.91797 17.3564 38.0176q10.7441 28.1006 14.876 55.374
q-23.9678 5.78516 -40.4971 19.0088t-16.5293 51.2422q0 36.3652 21.9014 52.8945t61.5723 16.5293q44.6299 0 69.0107 -17.7695q24.3818 -17.7686 24.3818 -60.7461q0 -33.0586 -13.6377 -63.2256q-13.6367 -30.166 -34.7119 -54.1338t-44.2158 -40.084
q-23.1416 -16.1162 -42.1504 -21.0752z" />
    <glyph glyph-name="uni021A" unicode="&#x21a;" horiz-adv-x="713" 
d="M258 0v453h-238v136h673v-136h-241v-453h-194zM301.739 -301.054q-17.3564 -4.95898 -20.249 4.5459q-2.89258 9.50391 2.89258 19.4219q6.6123 9.91797 17.3564 38.0176q10.7441 28.1006 14.876 55.374q-23.9678 5.78516 -40.4971 19.0088t-16.5293 51.2422
q0 36.3652 21.9014 52.8945t61.5723 16.5293q44.6299 0 69.0107 -17.7695q24.3818 -17.7686 24.3818 -60.7461q0 -33.0586 -13.6377 -63.2256q-13.6367 -30.166 -34.7119 -54.1338t-44.2158 -40.084q-23.1416 -16.1162 -42.1504 -21.0752z" />
    <glyph glyph-name="uni021B" unicode="&#x21b;" horiz-adv-x="474" 
d="M234 0q-76 0 -104 32t-28 96v194h-82v126h42q17 0 27.5 6.5t13.5 23.5l19 107h164v-137h167v-126h-167v-155q0 -25 12 -33t36 -8h100l20 -116q-21 -3 -64 -6.5t-94 -3.5h-62zM161.739 -301.054q-17.3564 -4.95898 -20.249 4.5459q-2.89258 9.50391 2.89258 19.4219
q6.6123 9.91797 17.3564 38.0176q10.7441 28.1006 14.876 55.374q-23.9678 5.78516 -40.4971 19.0088t-16.5293 51.2422q0 36.3652 21.9014 52.8945t61.5723 16.5293q44.6299 0 69.0107 -17.7695q24.3818 -17.7686 24.3818 -60.7461q0 -33.0586 -13.6377 -63.2256
q-13.6367 -30.166 -34.7119 -54.1338t-44.2158 -40.084q-23.1416 -16.1162 -42.1504 -21.0752z" />
    <glyph glyph-name="uni022A" unicode="&#x22a;" horiz-adv-x="837" 
d="M273 0q-106 0 -154.5 47.5t-48.5 151.5v191q0 102 48 150t155 48h292q105 0 153.5 -48t48.5 -150v-191q0 -104 -49 -151.5t-153 -47.5h-292zM342 136h155q78 0 78 71v175q0 70 -78 70h-155q-40 0 -60 -16t-20 -54v-175q0 -37 20 -54t60 -17zM522.593 655
q-83.4746 0 -83.4746 71.0771q0 39.6709 21.0752 54.9609q21.0752 15.2891 62.3994 15.2891q43.8027 0 64.0518 -15.2891q20.248 -15.29 20.248 -54.9609q0 -71.0771 -84.2998 -71.0771zM315.593 655q-83.4746 0 -83.4746 71.0771q0 39.6709 21.0752 54.9609
q21.0752 15.2891 62.3994 15.2891q43.8027 0 64.0518 -15.2891q20.248 -15.29 20.248 -54.9609q0 -71.0771 -84.2998 -71.0771zM323 852q-20 0 -30 6.5t-10 26.5v26q0 20 9 25.5t31 5.5h192q20 0 30 -5.5t10 -25.5v-26q0 -20 -11 -26.5t-29 -6.5h-192z" />
    <glyph glyph-name="uni022B" unicode="&#x22b;" horiz-adv-x="683" 
d="M203 0q-66 0 -99 19t-43.5 52.5t-10.5 77.5v151q0 42 11 75.5t43.5 53t98.5 19.5h278q66 0 98.5 -19.5t43 -53t10.5 -75.5v-151q0 -44 -10.5 -77.5t-43 -52.5t-98.5 -19h-278zM283 126h119q48 0 47 40v116q0 20 -10.5 30t-36.5 10h-118q-26 0 -37 -10t-11 -30v-116
q-1 -40 47 -40zM448.593 515q-83.4746 0 -83.4746 71.0771q0 39.6709 21.0752 54.9609q21.0752 15.2891 62.3994 15.2891q43.8027 0 64.0518 -15.2891q20.248 -15.29 20.248 -54.9609q0 -71.0771 -84.2998 -71.0771zM241.593 515q-83.4746 0 -83.4746 71.0771
q0 39.6709 21.0752 54.9609q21.0752 15.2891 62.3994 15.2891q43.8027 0 64.0518 -15.2891q20.248 -15.29 20.248 -54.9609q0 -71.0771 -84.2998 -71.0771zM249 712q-20 0 -30 6.5t-10 26.5v26q0 20 9 25.5t31 5.5h192q20 0 30 -5.5t10 -25.5v-26q0 -20 -11 -26.5t-29 -6.5
h-192z" />
    <glyph glyph-name="uni022C" unicode="&#x22c;" horiz-adv-x="837" 
d="M273 0q-106 0 -154.5 47.5t-48.5 151.5v191q0 102 48 150t155 48h292q105 0 153.5 -48t48.5 -150v-191q0 -104 -49 -151.5t-153 -47.5h-292zM342 136h155q78 0 78 71v175q0 70 -78 70h-155q-40 0 -60 -16t-20 -54v-175q0 -37 20 -54t60 -17zM489 650q-28 0 -47 7.5
t-33 17.5t-28 17.5t-33 7.5t-30 -8t-19 -22q-13 -19 -32 -18.5t-19 27.5q0 44 25.5 77.5t74.5 33.5q28 0 46 -7.5t31.5 -17.5t28 -17.5t35.5 -7.5q20 0 31 8t18 22q13 24 32.5 22t19.5 -31q0 -27 -10.5 -52.5t-33 -42t-57.5 -16.5zM323 862q-20 0 -30 6.5t-10 26.5v26
q0 20 9 25.5t31 5.5h192q20 0 30 -5.5t10 -25.5v-26q0 -20 -11 -26.5t-29 -6.5h-192z" />
    <glyph glyph-name="uni022D" unicode="&#x22d;" horiz-adv-x="683" 
d="M203 0q-66 0 -99 19t-43.5 52.5t-10.5 77.5v151q0 42 11 75.5t43.5 53t98.5 19.5h278q66 0 98.5 -19.5t43 -53t10.5 -75.5v-151q0 -44 -10.5 -77.5t-43 -52.5t-98.5 -19h-278zM283 126h119q48 0 47 40v116q0 20 -10.5 30t-36.5 10h-118q-26 0 -37 -10t-11 -30v-116
q-1 -40 47 -40zM415 510q-28 0 -47 7.5t-33 17.5t-28 17.5t-33 7.5t-30 -8t-19 -22q-13 -19 -32 -18.5t-19 27.5q0 44 25.5 77.5t74.5 33.5q28 0 46 -7.5t31.5 -17.5t28 -17.5t35.5 -7.5q20 0 31 8t18 22q13 24 32.5 22t19.5 -31q0 -27 -10.5 -52.5t-33 -42t-57.5 -16.5z
M249 722q-20 0 -30 6.5t-10 26.5v26q0 20 9 25.5t31 5.5h192q20 0 30 -5.5t10 -25.5v-26q0 -20 -11 -26.5t-29 -6.5h-192z" />
    <glyph glyph-name="uni0230" unicode="&#x230;" horiz-adv-x="837" 
d="M273 0q-106 0 -154.5 47.5t-48.5 151.5v191q0 102 48 150t155 48h292q105 0 153.5 -48t48.5 -150v-191q0 -104 -49 -151.5t-153 -47.5h-292zM342 136h155q78 0 78 71v175q0 70 -78 70h-155q-40 0 -60 -16t-20 -54v-175q0 -37 20 -54t60 -17zM419.593 655
q-83.4746 0 -83.4746 71.0771q0 39.6709 21.0752 54.9609q21.0752 15.2891 62.3994 15.2891q43.8027 0 64.0518 -15.2891q20.248 -15.29 20.248 -54.9609q0 -71.0771 -84.2998 -71.0771zM323 852q-20 0 -30 6.5t-10 26.5v26q0 20 9 25.5t31 5.5h192q20 0 30 -5.5t10 -25.5
v-26q0 -20 -11 -26.5t-29 -6.5h-192z" />
    <glyph glyph-name="uni0231" unicode="&#x231;" horiz-adv-x="683" 
d="M203 0q-66 0 -99 19t-43.5 52.5t-10.5 77.5v151q0 42 11 75.5t43.5 53t98.5 19.5h278q66 0 98.5 -19.5t43 -53t10.5 -75.5v-151q0 -44 -10.5 -77.5t-43 -52.5t-98.5 -19h-278zM283 126h119q48 0 47 40v116q0 20 -10.5 30t-36.5 10h-118q-26 0 -37 -10t-11 -30v-116
q-1 -40 47 -40zM345.593 515q-83.4746 0 -83.4746 71.0771q0 39.6709 21.0752 54.9609q21.0752 15.2891 62.3994 15.2891q43.8027 0 64.0518 -15.2891q20.248 -15.29 20.248 -54.9609q0 -71.0771 -84.2998 -71.0771zM249 712q-20 0 -30 6.5t-10 26.5v26q0 20 9 25.5t31 5.5
h192q20 0 30 -5.5t10 -25.5v-26q0 -20 -11 -26.5t-29 -6.5h-192z" />
    <glyph glyph-name="uni0232" unicode="&#x232;" horiz-adv-x="780" 
d="M292 0v243l-292 345h241l99 -137l46 -73h10l46 73l97 137h241l-39 -60l-256 -289v-239h-193zM295 660q-20 0 -30 6.5t-10 26.5v26q0 20 9 25.5t31 5.5h192q20 0 30 -5.5t10 -25.5v-26q0 -20 -11 -26.5t-29 -6.5h-192z" />
    <glyph glyph-name="uni0233" unicode="&#x233;" horiz-adv-x="632" 
d="M122 -196q-55 0 -100 10.5t-62 20.5l40 123q30 -13 64.5 -20t65.5 -7h11q87 0 126 69h-61l-196 448h201l86 -266l15 -61h10l15 61l87 266h198l-16 -61q-19 -39 -43.5 -89.5t-50.5 -104.5t-50.5 -104t-43.5 -89q-49 -100 -113 -148t-156 -48h-27zM225 520q-20 0 -30 6.5
t-10 26.5v26q0 20 9 25.5t31 5.5h192q20 0 30 -5.5t10 -25.5v-26q0 -20 -11 -26.5t-29 -6.5h-192z" />
    <glyph glyph-name="uni0237" unicode="&#x237;" horiz-adv-x="347" 
d="M59 -176q-64 0 -101.5 15t-37.5 25l40 90q12 -3 34.5 -6.5t47.5 -3.5q27 0 43.5 13t16.5 53v438h185v-458q0 -60 -25 -96.5t-68 -53t-99 -16.5h-36z" />
    <glyph glyph-name="uni0259" unicode="&#x259;" horiz-adv-x="676" 
d="M214 0q-76 0 -120 35.5t-44 97.5v145h152q75 0 135 -3.5t99 -8.5v26q0 12 -6 21t-42 9h-50q-109 0 -160.5 -3.5t-57.5 -6.5l-11 116q0 14 76 17t254 3h50q50 0 77 -14t38.5 -35t14 -42.5t2.5 -36.5v-189q0 -40 -14 -63.5t-52 -40.5q-34 -15 -101.5 -21t-159.5 -6h-80z
M271 127h115q26 0 38 8.5t12 30.5v16h-202v-23q0 -19 10 -25.5t27 -6.5z" />
    <glyph glyph-name="uni0272" unicode="&#x272;" horiz-adv-x="727" 
d="M59 -176q-33 0 -65 7t-53 16.5t-21 16.5l30 90q12 -3 34.5 -6.5t47.5 -3.5q27 0 43.5 8.5t16.5 37.5v458h145l40 -20q42 8 101.5 14t111.5 6h50q50 0 77 -14t38.5 -35t14 -42.5t2.5 -36.5v-320h-183v282q0 40 -48 40h-134q-19 0 -24.5 -3.5t-5.5 -18.5v-310
q0 -48 -17.5 -85.5t-62 -59t-125.5 -21.5h-13z" />
    <glyph glyph-name="uni02B9" unicode="&#x2b9;" horiz-adv-x="600" 
d="M130 460q-15 0 -28.5 18.5t-24.5 47.5t-19.5 62t-13 62t-4.5 47q0 40 20 57t70 17q53 0 72.5 -17t19.5 -57q0 -17 -4.5 -46.5t-13 -62t-20.5 -62t-25.5 -48t-28.5 -18.5z" />
    <glyph glyph-name="uni02BA" unicode="&#x2ba;" horiz-adv-x="482" 
d="M350 460q-15 0 -28.5 18.5t-24.5 47.5t-19.5 62t-13 62t-4.5 47q0 40 20 57t70 17q53 0 72.5 -17t19.5 -57q0 -17 -4.5 -46.5t-13 -62t-20.5 -62t-25.5 -48t-28.5 -18.5zM130 460q-15 0 -28.5 18.5t-24.5 47.5t-19.5 62t-13 62t-4.5 47q0 40 20 57t70 17q53 0 72.5 -17
t19.5 -57q0 -17 -4.5 -46.5t-13 -62t-20.5 -62t-25.5 -48t-28.5 -18.5z" />
    <glyph glyph-name="uni02BC" unicode="&#x2bc;" horiz-adv-x="193" 
d="M121 482q-21 -6 -24.5 5.5t3.5 23.5q8 12 21 46t18 67q-29 7 -49 23t-20 62q0 44 26.5 64t74.5 20q54 0 83.5 -21.5t29.5 -73.5q0 -40 -16.5 -76.5t-42 -65.5t-53.5 -48.5t-51 -25.5z" />
    <glyph glyph-name="circumflex" unicode="&#x2c6;" horiz-adv-x="321" 
d="M10 518q0 16 15.5 40.5t34.5 47t30 32.5t25 15.5t39 5.5h20q24 0 39 -6t24 -15q11 -10 28.5 -33t32 -47.5t14.5 -39.5q0 -17 -19 -16t-36 12l-93 62l-99 -62q-21 -13 -38 -13.5t-17 17.5z" />
    <glyph glyph-name="caron" unicode="&#x2c7;" horiz-adv-x="321" 
d="M47 638q0 -16 15.5 -40.5t34.5 -47t30 -32.5t25 -15.5t39 -5.5h20q24 0 39 6t24 15q11 10 28.5 33t32 47.5t14.5 39.5q0 17 -19 16t-36 -12l-93 -62l-99 62q-21 13 -38 13.5t-17 -17.5z" />
    <glyph glyph-name="uni02C9" unicode="&#x2c9;" horiz-adv-x="600" 
d="M170 526q-20 0 -30 6.5t-10 26.5v26q0 20 9 25.5t31 5.5h192q20 0 30 -5.5t10 -25.5v-26q0 -20 -11 -26.5t-29 -6.5h-192z" />
    <glyph glyph-name="breve" unicode="&#x2d8;" horiz-adv-x="340" 
d="M170 500q-58 0 -90.5 16.5t-46 46.5t-13.5 68q0 20 9.5 25t21 0.5t17.5 -14.5q10 -16 20 -28t28.5 -18t53.5 -6t52.5 6t27.5 18t20 28q7 11 18.5 15t21.5 -1.5t10 -24.5q0 -64 -31.5 -97.5t-118.5 -33.5z" />
    <glyph glyph-name="dotaccent" unicode="&#x2d9;" horiz-adv-x="192" 
d="M96.5928 525q-83.4746 0 -83.4746 71.0771q0 39.6709 21.0752 54.9609q21.0752 15.2891 62.3994 15.2891q43.8027 0 64.0518 -15.2891q20.248 -15.29 20.248 -54.9609q0 -71.0771 -84.2998 -71.0771z" />
    <glyph glyph-name="ring" unicode="&#x2da;" horiz-adv-x="292" 
d="M102 500q-44 0 -66 14.5t-29 37t-7 46.5v12q0 20 6.5 43t28 39t67.5 16h88q44 0 66 -16t29 -39t7 -43v-12q0 -24 -7 -46.5t-29 -37t-66 -14.5h-88zM122 576h48q11 0 15.5 6.5t4.5 13.5v15q0 7 -4.5 13.5t-15.5 6.5h-48q-12 0 -16 -6.5t-4 -13.5v-15q0 -7 4 -13.5t16 -6.5
z" />
    <glyph glyph-name="ogonek" unicode="&#x2db;" horiz-adv-x="261" 
d="M126 -200q-52 0 -79 26t-27 70q0 45 24 72.5t53 37.5q17 6 38 7.5t36 -1.5t15 -9q0 -7 -11 -13t-26 -14.5t-26 -21.5t-11 -33q0 -31 37 -31q28 0 46.5 9.5t35.5 9.5q13 0 14 -12.5t-8 -31.5q-10 -22 -39.5 -43.5t-71.5 -21.5z" />
    <glyph glyph-name="tilde" unicode="&#x2dc;" horiz-adv-x="402" 
d="M291 500q-28 0 -47 7.5t-33 17.5t-28 17.5t-33 7.5t-30 -8t-19 -22q-13 -19 -32 -18.5t-19 27.5q0 44 25.5 77.5t74.5 33.5q28 0 46 -7.5t31.5 -17.5t28 -17.5t35.5 -7.5q20 0 31 8t18 22q13 24 32.5 22t19.5 -31q0 -27 -10.5 -52.5t-33 -42t-57.5 -16.5z" />
    <glyph glyph-name="hungarumlaut" unicode="&#x2dd;" horiz-adv-x="390" 
d="M220 504q0 13 9.5 36.5t21.5 47t19 35.5q9 14 22.5 21.5t37.5 7.5h21q28 0 38.5 -6.5t10.5 -22.5t-19.5 -37.5t-47 -42.5t-53.5 -38q-11 -7 -25.5 -12t-24.5 -3t-10 14zM30 502q0 13 9.5 36.5t21.5 47t19 35.5q9 14 22.5 21.5t37.5 7.5h21q28 0 38.5 -6.5t10.5 -22.5
t-19.5 -37.5t-47 -42.5t-53.5 -38q-11 -7 -25.5 -12t-24.5 -3t-10 14z" />
    <glyph glyph-name="gravecomb" unicode="&#x300;" 
d="M-130 514q0 13 -9.5 36.5t-21.5 47t-19 35.5q-9 14 -22.5 21.5t-37.5 7.5h-21q-28 0 -38.5 -6.5t-10.5 -22.5t19.5 -37.5t47 -42.5t53.5 -38q11 -7 25.5 -12t24.5 -3t10 14z" />
    <glyph glyph-name="acutecomb" unicode="&#x301;" 
d="M-410 514q0 13 9.5 36.5t21.5 47t19 35.5q9 14 22.5 21.5t37.5 7.5h21q28 0 38.5 -6.5t10.5 -22.5t-19.5 -37.5t-47 -42.5t-53.5 -38q-11 -7 -25.5 -12t-24.5 -3t-10 14z" />
    <glyph glyph-name="uni0302" unicode="&#x302;" 
d="M-410 518q0 16 15.5 40.5t34.5 47t30 32.5t25 15.5t39 5.5h20q24 0 39 -6t24 -15q11 -10 28.5 -33t32 -47.5t14.5 -39.5q0 -17 -19 -16t-36 12l-93 62l-99 -62q-21 -13 -38 -13.5t-17 17.5z" />
    <glyph glyph-name="tildecomb" unicode="&#x303;" 
d="M-159 500q-28 0 -47 7.5t-33 17.5t-28 17.5t-33 7.5t-30 -8t-19 -22q-13 -19 -32 -18.5t-19 27.5q0 44 25.5 77.5t74.5 33.5q28 0 46 -7.5t31.5 -17.5t28 -17.5t35.5 -7.5q20 0 31 8t18 22q13 24 32.5 22t19.5 -31q0 -27 -10.5 -52.5t-33 -42t-57.5 -16.5z" />
    <glyph glyph-name="uni0304" unicode="&#x304;" 
d="M-300 530q-20 0 -30 6.5t-10 26.5v26q0 20 9 25.5t31 5.5h192q20 0 30 -5.5t10 -25.5v-26q0 -20 -11 -26.5t-29 -6.5h-192z" />
    <glyph glyph-name="uni0306" unicode="&#x306;" 
d="M-250 500q-58 0 -90.5 16.5t-46 46.5t-13.5 68q0 20 9.5 25t21 0.5t17.5 -14.5q10 -16 20 -28t28.5 -18t53.5 -6t52.5 6t27.5 18t20 28q7 11 18.5 15t21.5 -1.5t10 -24.5q0 -64 -31.5 -97.5t-118.5 -33.5z" />
    <glyph glyph-name="uni0307" unicode="&#x307;" 
d="M-233.407 525q-83.4746 0 -83.4746 71.0771q0 39.6709 21.0752 54.9609q21.0752 15.2891 62.3994 15.2891q43.8027 0 64.0518 -15.2891q20.248 -15.29 20.248 -54.9609q0 -71.0771 -84.2998 -71.0771z" />
    <glyph glyph-name="uni0308" unicode="&#x308;" 
d="M-230.407 545q-83.4746 0 -83.4746 71.0771q0 39.6709 21.0752 54.9609q21.0752 15.2891 62.3994 15.2891q43.8027 0 64.0518 -15.2891q20.248 -15.29 20.248 -54.9609q0 -71.0771 -84.2998 -71.0771zM-437.407 545q-83.4746 0 -83.4746 71.0771
q0 39.6709 21.0752 54.9609q21.0752 15.2891 62.3994 15.2891q43.8027 0 64.0518 -15.2891q20.248 -15.29 20.248 -54.9609q0 -71.0771 -84.2998 -71.0771z" />
    <glyph glyph-name="hookabovecomb" unicode="&#x309;" 
d="M-230 522q-7 7 -10.5 18t-0.5 34q26 9 45.5 23.5t19.5 30.5q0 18 -20 18q-16 0 -37 -5.5t-38 -13.5q-19 -8 -34 -2.5t-15 27.5q0 24 18.5 43t49.5 30t66 11h10q43 0 74.5 -21.5t31.5 -59.5q0 -28 -8.5 -47.5t-28.5 -39.5q-19 -19 -37 -29.5t-35 -18.5q-15 -7 -29 -6
t-22 8z" />
    <glyph glyph-name="uni030A" unicode="&#x30a;" 
d="M-288 500q-44 0 -66 14.5t-29 37t-7 46.5v12q0 20 6.5 43t28 39t67.5 16h88q44 0 66 -16t29 -39t7 -43v-12q0 -24 -7 -46.5t-29 -37t-66 -14.5h-88zM-268 576h48q11 0 15.5 6.5t4.5 13.5v15q0 7 -4.5 13.5t-15.5 6.5h-48q-12 0 -16 -6.5t-4 -13.5v-15q0 -7 4 -13.5
t16 -6.5z" />
    <glyph glyph-name="uni030B" unicode="&#x30b;" 
d="M-270 504q0 13 9.5 36.5t21.5 47t19 35.5q9 14 22.5 21.5t37.5 7.5h21q28 0 38.5 -6.5t10.5 -22.5t-19.5 -37.5t-47 -42.5t-53.5 -38q-11 -7 -25.5 -12t-24.5 -3t-10 14zM-460 502q0 13 9.5 36.5t21.5 47t19 35.5q9 14 22.5 21.5t37.5 7.5h21q28 0 38.5 -6.5t10.5 -22.5
t-19.5 -37.5t-47 -42.5t-53.5 -38q-11 -7 -25.5 -12t-24.5 -3t-10 14z" />
    <glyph glyph-name="uni030C" unicode="&#x30c;" 
d="M-373 638q0 -16 15.5 -40.5t34.5 -47t30 -32.5t25 -15.5t39 -5.5h20q24 0 39 6t24 15q11 10 28.5 33t32 47.5t14.5 39.5q0 17 -19 16t-36 -12l-93 -62l-99 62q-21 13 -38 13.5t-17 -17.5z" />
    <glyph glyph-name="uni030F" unicode="&#x30f;" 
d="M-340 544q0 13 -9.5 36.5t-21.5 47t-19 35.5q-9 14 -22.5 21.5t-37.5 7.5h-21q-28 0 -38.5 -6.5t-10.5 -22.5t19.5 -37.5t47 -42.5t53.5 -38q11 -7 25.5 -12t24.5 -3t10 14zM-150 542q0 13 -9.5 36.5t-21.5 47t-19 35.5q-9 14 -22.5 21.5t-37.5 7.5h-21q-28 0 -38.5 -6.5
t-10.5 -22.5t19.5 -37.5t47 -42.5t53.5 -38q11 -7 25.5 -12t24.5 -3t10 14z" />
    <glyph glyph-name="uni0311" unicode="&#x311;" 
d="M-250 716q-58 0 -90.5 -16.5t-46 -46.5t-13.5 -68q0 -20 9.5 -25t21 -0.5t17.5 14.5q10 16 20 28t28.5 18t53.5 6t52.5 -6t27.5 -18t20 -28q7 -11 18.5 -15t21.5 1.5t10 24.5q0 64 -31.5 97.5t-118.5 33.5z" />
    <glyph glyph-name="uni0312" unicode="&#x312;" 
d="M-159 796q21 6 24.5 -5.5t-3.5 -23.5q-8 -12 -21 -46t-18 -67q29 -7 49 -23t20 -62q0 -44 -26.5 -64t-74.5 -20q-54 0 -83.5 21.5t-29.5 73.5q0 40 16.5 76.5t42 65.5t53.5 48.5t51 25.5z" />
    <glyph glyph-name="uni031B" unicode="&#x31b;" 
d="M87 300q-31 0 -57 9t-37 17t-13 21t13 13h32q37 0 48 14.5t11 48.5v39q0 30 30 30h71q30 0 30 -30v-24q0 -67 -37.5 -102.5t-90.5 -35.5z" />
    <glyph glyph-name="uni0321" unicode="&#x321;" 
d="M-191 -180q-38 0 -69.5 17t-45.5 43q-7 14 -0.5 23.5t21.5 6.5q14 -3 26 -6.5t31 -3.5q28 0 36 16.5t8 47.5v39h121v-59q0 -58 -33 -91t-95 -33z" />
    <glyph glyph-name="dotbelowcomb" unicode="&#x323;" 
d="M-236.449 -207q-91.8213 0 -91.8213 78.1846q0 43.6377 23.1826 60.4561t68.6387 16.8184q48.1826 0 70.4561 -16.8184t22.2734 -60.4561q0 -78.1846 -92.7295 -78.1846z" />
    <glyph glyph-name="uni0324" unicode="&#x324;" 
d="M-248.427 -250.57q-68.9893 0 -68.9893 58.7441q0 32.7871 17.418 45.4238q17.418 12.6357 51.5713 12.6357q36.2021 0 52.9375 -12.6357q16.7344 -12.6367 16.7344 -45.4238q0 -58.7441 -69.6719 -58.7441zM-419.507 -250.57q-68.9902 0 -68.9902 58.7441
q0 32.7871 17.418 45.4238q17.4189 12.6357 51.5723 12.6357q36.2021 0 52.9375 -12.6357q16.7344 -12.6367 16.7344 -45.4238q0 -58.7441 -69.6719 -58.7441z" />
    <glyph glyph-name="uni0326" unicode="&#x326;" 
d="M-299.261 -301.054q-17.3564 -4.95898 -20.249 4.5459q-2.89258 9.50391 2.89258 19.4219q6.6123 9.91797 17.3564 38.0176q10.7441 28.1006 14.876 55.374q-23.9678 5.78516 -40.4971 19.0088t-16.5293 51.2422q0 36.3652 21.9014 52.8945t61.5723 16.5293
q44.6299 0 69.0107 -17.7695q24.3818 -17.7686 24.3818 -60.7461q0 -33.0586 -13.6377 -63.2256q-13.6367 -30.166 -34.7119 -54.1338t-44.2158 -40.084q-23.1416 -16.1162 -42.1504 -21.0752z" />
    <glyph glyph-name="uni0327" unicode="&#x327;" 
d="M117 -230q-43 0 -71.5 20.5t-39.5 42.5q-6 14 -6 23q0 11 6.5 16t16.5 3q19 -5 39.5 -10t46.5 -5q39 0 39 21q0 18 -27 27t-65 6q9 19 22 43.5t25 42.5q6 9 15.5 13.5t16.5 4.5q8 0 13.5 -4.5t3.5 -13.5q-2 -13 -5 -20t-5 -20q38 -7 64.5 -28t26.5 -67q0 -41 -33 -68
t-83 -27z" />
    <glyph glyph-name="uni0328" unicode="&#x328;" 
d="M-204 -200q-52 0 -79 26t-27 70q0 45 24 72.5t53 37.5q17 6 38 7.5t36 -1.5t15 -9q0 -7 -11 -13t-26 -14.5t-26 -21.5t-11 -33q0 -31 37 -31q28 0 46.5 9.5t35.5 9.5q13 0 14 -12.5t-8 -31.5q-10 -22 -39.5 -43.5t-71.5 -21.5z" />
    <glyph glyph-name="uni032E" unicode="&#x32e;" 
d="M-250 -300q-58 0 -90.5 16.5t-46 46.5t-13.5 68q0 20 9.5 25t21 0.5t17.5 -14.5q10 -16 20 -28t28.5 -18t53.5 -6t52.5 6t27.5 18t20 28q7 11 18.5 15t21.5 -1.5t10 -24.5q0 -64 -31.5 -97.5t-118.5 -33.5z" />
    <glyph glyph-name="uni0331" unicode="&#x331;" 
d="M-300 -280q-20 0 -30 6.5t-10 26.5v26q0 20 9 25.5t31 5.5h192q20 0 30 -5.5t10 -25.5v-26q0 -20 -11 -26.5t-29 -6.5h-192z" />
    <glyph glyph-name="uni0335" unicode="&#x335;" 
d="M-500 185v95h432v-95h-432z" />
    <glyph glyph-name="uni0336" unicode="&#x336;" 
d="M-550 190v96h501v-96h-501z" />
    <glyph glyph-name="uni0337" unicode="&#x337;" 
d="M-500 29l1 123l347 157v-123z" />
    <glyph glyph-name="uni0338" unicode="&#x338;" 
d="M-540 -80l417 668h130l-418 -668h-129z" />
    <glyph glyph-name="uni0394" unicode="&#x394;" horiz-adv-x="779" 
d="M10 0l325 625h113l321 -625h-759zM271 135h238l-117 254h-2z" />
    <glyph glyph-name="uni03A9" unicode="&#x3a9;" horiz-adv-x="919" 
d="M172 0q-34 0 -64.5 6t-49 17.5t-18.5 27.5l60 109q12 -12 40 -17t47 -5h99v20q-85 16 -130.5 68.5t-45.5 131.5v42q0 86 48 137t155 51h291q105 0 153.5 -51t48.5 -137v-42q0 -157 -170 -199v-21h193l50 -117q0 -7 -27 -14t-93 -7h-145q-58 0 -94 27t-36 73q0 27 5 45
t18.5 34t38.5 36q30 24 49 53t19 78v46q0 29 -16 44.5t-52 15.5h-174q-70 0 -70 -60v-46q0 -50 16.5 -78t53.5 -53q36 -25 51 -47t15 -68q0 -21 -10.5 -44t-36.5 -39.5t-73 -16.5h-146z" />
    <glyph glyph-name="uni03BC" unicode="&#x3bc;" horiz-adv-x="640" 
d="M60 -170v260q-3 13 -4 28t-1 30v300h184v-282q0 -40 48 -40h114q22 0 26 4t4 26v292h185v-448h-145l-38 20q-40 -8 -92 -14t-105 -6h-24l30 -126v-44h-182z" />
    <glyph glyph-name="pi" unicode="&#x3c0;" horiz-adv-x="926" 
d="M634 -21q-82 0 -117 36t-35 103v334h-149v-452h-193v452h-60v136h658v-136h-61v-304q0 -16 12 -23.5t26 -7.5h21q21 0 36.5 3.5t22.5 7.5l51 -118q0 -5 -19 -12.5t-49 -13t-63 -5.5h-81z" />
    <glyph glyph-name="Wgrave" unicode="&#x1e80;" horiz-adv-x="1153" 
d="M214 0l-214 587h213l100 -334l23 -87h10l13 58l103 363h230l109 -363l18 -58h10l23 87l91 334h210l-10 -60l-206 -527h-230l-106 323l-20 84h-10l-19 -84l-105 -323h-233zM661 654q0 13 -9.5 36.5t-21.5 47t-19 35.5q-9 14 -22.5 21.5t-37.5 7.5h-21q-28 0 -38.5 -6.5
t-10.5 -22.5t19.5 -37.5t47 -42.5t53.5 -38q11 -7 25.5 -12t24.5 -3t10 14z" />
    <glyph glyph-name="wgrave" unicode="&#x1e81;" horiz-adv-x="943" 
d="M171 0l-161 448h201l60 -224l16 -79h10l15 69l59 234h200l63 -234l14 -69h10l17 81l56 222h202l-16 -61l-146 -387h-220l-63 255l-10 47h-10l-13 -52l-64 -250h-220zM559 514q0 13 -9.5 36.5t-21.5 47t-19 35.5q-9 14 -22.5 21.5t-37.5 7.5h-21q-28 0 -38.5 -6.5
t-10.5 -22.5t19.5 -37.5t47 -42.5t53.5 -38q11 -7 25.5 -12t24.5 -3t10 14z" />
    <glyph glyph-name="Wacute" unicode="&#x1e82;" horiz-adv-x="1153" 
d="M214 0l-214 587h213l100 -334l23 -87h10l13 58l103 363h230l109 -363l18 -58h10l23 87l91 334h210l-10 -60l-206 -527h-230l-106 323l-20 84h-10l-19 -84l-105 -323h-233zM521 654q0 13 9.5 36.5t21.5 47t19 35.5q9 14 22.5 21.5t37.5 7.5h21q28 0 38.5 -6.5t10.5 -22.5
t-19.5 -37.5t-47 -42.5t-53.5 -38q-11 -7 -25.5 -12t-24.5 -3t-10 14z" />
    <glyph glyph-name="wacute" unicode="&#x1e83;" horiz-adv-x="943" 
d="M171 0l-161 448h201l60 -224l16 -79h10l15 69l59 234h200l63 -234l14 -69h10l17 81l56 222h202l-16 -61l-146 -387h-220l-63 255l-10 47h-10l-13 -52l-64 -250h-220zM419 514q0 13 9.5 36.5t21.5 47t19 35.5q9 14 22.5 21.5t37.5 7.5h21q28 0 38.5 -6.5t10.5 -22.5
t-19.5 -37.5t-47 -42.5t-53.5 -38q-11 -7 -25.5 -12t-24.5 -3t-10 14z" />
    <glyph glyph-name="Wdieresis" unicode="&#x1e84;" horiz-adv-x="1153" 
d="M214 0l-214 587h213l100 -334l23 -87h10l13 58l103 363h230l109 -363l18 -58h10l23 87l91 334h210l-10 -60l-206 -527h-230l-106 323l-20 84h-10l-19 -84l-105 -323h-233zM679.593 655q-83.4746 0 -83.4746 71.0771q0 39.6709 21.0752 54.9609
q21.0752 15.2891 62.3994 15.2891q43.8027 0 64.0518 -15.2891q20.248 -15.29 20.248 -54.9609q0 -71.0771 -84.2998 -71.0771zM472.593 655q-83.4746 0 -83.4746 71.0771q0 39.6709 21.0752 54.9609q21.0752 15.2891 62.3994 15.2891q43.8027 0 64.0518 -15.2891
q20.248 -15.29 20.248 -54.9609q0 -71.0771 -84.2998 -71.0771z" />
    <glyph glyph-name="wdieresis" unicode="&#x1e85;" horiz-adv-x="943" 
d="M171 0l-161 448h201l60 -224l16 -79h10l15 69l59 234h200l63 -234l14 -69h10l17 81l56 222h202l-16 -61l-146 -387h-220l-63 255l-10 47h-10l-13 -52l-64 -250h-220zM577.593 515q-83.4746 0 -83.4746 71.0771q0 39.6709 21.0752 54.9609
q21.0752 15.2891 62.3994 15.2891q43.8027 0 64.0518 -15.2891q20.248 -15.29 20.248 -54.9609q0 -71.0771 -84.2998 -71.0771zM370.593 515q-83.4746 0 -83.4746 71.0771q0 39.6709 21.0752 54.9609q21.0752 15.2891 62.3994 15.2891q43.8027 0 64.0518 -15.2891
q20.248 -15.29 20.248 -54.9609q0 -71.0771 -84.2998 -71.0771z" />
    <glyph glyph-name="uni1E9E" unicode="&#x1e9e;" horiz-adv-x="835" 
d="M80 0v424q0 77 23 128.5t63.5 81.5t93.5 42.5t114 12.5q64 0 118.5 -5t90.5 -11.5t43 -11.5v-102l-94 -132h101q78 0 110 -35.5t32 -84.5v-179q0 -18 -2.5 -40t-14.5 -42t-39 -33t-76 -13h-162q-93 0 -132.5 11t-39.5 19l50 119q15 -4 53 -7.5t93 -3.5h29q29 0 39 7.5
t9 32.5v70q1 22 -9.5 32t-38.5 10l-151 1q-15 0 -23 8.5t-8 21.5v84l72 133v3h-18q-56 0 -85.5 -17.5t-39.5 -53.5t-10 -93v-377h-191z" />
    <glyph glyph-name="uni1EA0" unicode="&#x1ea0;" horiz-adv-x="861" 
d="M8 0l293 588h260l292 -588h-215l-49 107h-316l-55 -107h-210zM328 245h205l-97 213h-10zM427.551 -147q-91.8213 0 -91.8213 78.1846q0 43.6377 23.1826 60.4561t68.6387 16.8184q48.1826 0 70.4561 -16.8184t22.2734 -60.4561q0 -78.1846 -92.7295 -78.1846z" />
    <glyph glyph-name="uni1EA1" unicode="&#x1ea1;" horiz-adv-x="672" 
d="M209 0q-88 0 -126 33t-38 110q0 71 39.5 103t124.5 32h31q56 0 107 -4t88 -8v16q0 14 -6 27t-42 13h-50q-109 0 -168 -3.5t-73 -6.5l-11 106q0 10 35 16.5t96 10t139 3.5h100q66 0 101 -19.5t48 -52.5t13 -76v-300h-142l-39 20q-24 -5 -76.5 -12.5t-120.5 -7.5h-30z
M267 118h138q22 0 26 4t4 25v35h-168q-19 0 -28 -7t-9 -27q0 -19 9 -24.5t28 -5.5zM343.551 -207q-91.8213 0 -91.8213 78.1846q0 43.6377 23.1826 60.4561t68.6387 16.8184q48.1826 0 70.4561 -16.8184t22.2734 -60.4561q0 -78.1846 -92.7295 -78.1846z" />
    <glyph glyph-name="uni1EA2" unicode="&#x1ea2;" horiz-adv-x="861" 
d="M8 0l293 588h260l292 -588h-215l-49 107h-316l-55 -107h-210zM328 245h205l-97 213h-10zM398 652q-7 7 -10.5 18t-0.5 34q26 9 45.5 23.5t19.5 30.5q0 18 -20 18q-16 0 -37 -5.5t-38 -13.5q-19 -8 -34 -2.5t-15 27.5q0 24 18.5 43t49.5 30t66 11h10q43 0 74.5 -21.5
t31.5 -59.5q0 -28 -8.5 -47.5t-28.5 -39.5q-19 -19 -37 -29.5t-35 -18.5q-15 -7 -29 -6t-22 8z" />
    <glyph glyph-name="uni1EA3" unicode="&#x1ea3;" horiz-adv-x="672" 
d="M209 0q-88 0 -126 33t-38 110q0 71 39.5 103t124.5 32h31q56 0 107 -4t88 -8v16q0 14 -6 27t-42 13h-50q-109 0 -168 -3.5t-73 -6.5l-11 106q0 10 35 16.5t96 10t139 3.5h100q66 0 101 -19.5t48 -52.5t13 -76v-300h-142l-39 20q-24 -5 -76.5 -12.5t-120.5 -7.5h-30z
M267 118h138q22 0 26 4t4 25v35h-168q-19 0 -28 -7t-9 -27q0 -19 9 -24.5t28 -5.5zM311 512q-7 7 -10.5 18t-0.5 34q26 9 45.5 23.5t19.5 30.5q0 18 -20 18q-16 0 -37 -5.5t-38 -13.5q-19 -8 -34 -2.5t-15 27.5q0 24 18.5 43t49.5 30t66 11h10q43 0 74.5 -21.5t31.5 -59.5
q0 -28 -8.5 -47.5t-28.5 -39.5q-19 -19 -37 -29.5t-35 -18.5q-15 -7 -29 -6t-22 8z" />
    <glyph glyph-name="uni1EA4" unicode="&#x1ea4;" horiz-adv-x="861" 
d="M8 0l293 588h260l292 -588h-215l-49 107h-316l-55 -107h-210zM328 245h205l-97 213h-10zM276 658q0 16 15.5 40.5t34.5 47t30 32.5t25 15.5t39 5.5h20q24 0 39 -6t24 -15q11 -10 28.5 -33t32 -47.5t14.5 -39.5q0 -17 -19 -16t-36 12l-93 62l-99 -62q-21 -13 -38 -13.5
t-17 17.5zM375 842q0 13 9.5 36.5t21.5 47t19 35.5q9 14 22.5 21.5t37.5 7.5h21q28 0 38.5 -6.5t10.5 -22.5t-19.5 -37.5t-47 -42.5t-53.5 -38q-11 -7 -25.5 -12t-24.5 -3t-10 14z" />
    <glyph glyph-name="uni1EA5" unicode="&#x1ea5;" horiz-adv-x="672" 
d="M209 0q-88 0 -126 33t-38 110q0 71 39.5 103t124.5 32h31q56 0 107 -4t88 -8v16q0 14 -6 27t-42 13h-50q-109 0 -168 -3.5t-73 -6.5l-11 106q0 10 35 16.5t96 10t139 3.5h100q66 0 101 -19.5t48 -52.5t13 -76v-300h-142l-39 20q-24 -5 -76.5 -12.5t-120.5 -7.5h-30z
M267 118h138q22 0 26 4t4 25v35h-168q-19 0 -28 -7t-9 -27q0 -19 9 -24.5t28 -5.5zM189 518q0 16 15.5 40.5t34.5 47t30 32.5t25 15.5t39 5.5h20q24 0 39 -6t24 -15q11 -10 28.5 -33t32 -47.5t14.5 -39.5q0 -17 -19 -16t-36 12l-93 62l-99 -62q-21 -13 -38 -13.5t-17 17.5z
M288 702q0 13 9.5 36.5t21.5 47t19 35.5q9 14 22.5 21.5t37.5 7.5h21q28 0 38.5 -6.5t10.5 -22.5t-19.5 -37.5t-47 -42.5t-53.5 -38q-11 -7 -25.5 -12t-24.5 -3t-10 14z" />
    <glyph glyph-name="uni1EA6" unicode="&#x1ea6;" horiz-adv-x="861" 
d="M8 0l293 588h260l292 -588h-215l-49 107h-316l-55 -107h-210zM328 245h205l-97 213h-10zM276 658q0 16 15.5 40.5t34.5 47t30 32.5t25 15.5t39 5.5h20q24 0 39 -6t24 -15q11 -10 28.5 -33t32 -47.5t14.5 -39.5q0 -17 -19 -16t-36 12l-93 62l-99 -62q-21 -13 -38 -13.5
t-17 17.5zM515 842q0 13 -9.5 36.5t-21.5 47t-19 35.5q-9 14 -22.5 21.5t-37.5 7.5h-21q-28 0 -38.5 -6.5t-10.5 -22.5t19.5 -37.5t47 -42.5t53.5 -38q11 -7 25.5 -12t24.5 -3t10 14z" />
    <glyph glyph-name="uni1EA7" unicode="&#x1ea7;" horiz-adv-x="672" 
d="M209 0q-88 0 -126 33t-38 110q0 71 39.5 103t124.5 32h31q56 0 107 -4t88 -8v16q0 14 -6 27t-42 13h-50q-109 0 -168 -3.5t-73 -6.5l-11 106q0 10 35 16.5t96 10t139 3.5h100q66 0 101 -19.5t48 -52.5t13 -76v-300h-142l-39 20q-24 -5 -76.5 -12.5t-120.5 -7.5h-30z
M267 118h138q22 0 26 4t4 25v35h-168q-19 0 -28 -7t-9 -27q0 -19 9 -24.5t28 -5.5zM189 518q0 16 15.5 40.5t34.5 47t30 32.5t25 15.5t39 5.5h20q24 0 39 -6t24 -15q11 -10 28.5 -33t32 -47.5t14.5 -39.5q0 -17 -19 -16t-36 12l-93 62l-99 -62q-21 -13 -38 -13.5t-17 17.5z
M428 702q0 13 -9.5 36.5t-21.5 47t-19 35.5q-9 14 -22.5 21.5t-37.5 7.5h-21q-28 0 -38.5 -6.5t-10.5 -22.5t19.5 -37.5t47 -42.5t53.5 -38q11 -7 25.5 -12t24.5 -3t10 14z" />
    <glyph glyph-name="uni1EA8" unicode="&#x1ea8;" horiz-adv-x="861" 
d="M8 0l293 588h260l292 -588h-215l-49 107h-316l-55 -107h-210zM328 245h205l-97 213h-10zM283 658q0 16 15.5 40.5t34.5 47t30 32.5t25 15.5t39 5.5h20q24 0 39 -6t24 -15q11 -10 28.5 -33t32 -47.5t14.5 -39.5q0 -17 -19 -16t-36 12l-93 62l-99 -62q-21 -13 -38 -13.5
t-17 17.5zM402 840q-7 7 -10.5 18t-0.5 34q26 9 45.5 23.5t19.5 30.5q0 18 -20 18q-16 0 -37 -5.5t-38 -13.5q-19 -8 -34 -2.5t-15 27.5q0 24 18.5 43t49.5 30t66 11h10q43 0 74.5 -21.5t31.5 -59.5q0 -28 -8.5 -47.5t-28.5 -39.5q-19 -19 -37 -29.5t-35 -18.5
q-15 -7 -29 -6t-22 8z" />
    <glyph glyph-name="uni1EA9" unicode="&#x1ea9;" horiz-adv-x="672" 
d="M209 0q-88 0 -126 33t-38 110q0 71 39.5 103t124.5 32h31q56 0 107 -4t88 -8v16q0 14 -6 27t-42 13h-50q-109 0 -168 -3.5t-73 -6.5l-11 106q0 10 35 16.5t96 10t139 3.5h100q66 0 101 -19.5t48 -52.5t13 -76v-300h-142l-39 20q-24 -5 -76.5 -12.5t-120.5 -7.5h-30z
M267 118h138q22 0 26 4t4 25v35h-168q-19 0 -28 -7t-9 -27q0 -19 9 -24.5t28 -5.5zM196 518q0 16 15.5 40.5t34.5 47t30 32.5t25 15.5t39 5.5h20q24 0 39 -6t24 -15q11 -10 28.5 -33t32 -47.5t14.5 -39.5q0 -17 -19 -16t-36 12l-93 62l-99 -62q-21 -13 -38 -13.5t-17 17.5z
M315 700q-7 7 -10.5 18t-0.5 34q26 9 45.5 23.5t19.5 30.5q0 18 -20 18q-16 0 -37 -5.5t-38 -13.5q-19 -8 -34 -2.5t-15 27.5q0 24 18.5 43t49.5 30t66 11h10q43 0 74.5 -21.5t31.5 -59.5q0 -28 -8.5 -47.5t-28.5 -39.5q-19 -19 -37 -29.5t-35 -18.5q-15 -7 -29 -6t-22 8z
" />
    <glyph glyph-name="uni1EAA" unicode="&#x1eaa;" horiz-adv-x="861" 
d="M8 0l293 588h260l292 -588h-215l-49 107h-316l-55 -107h-210zM328 245h205l-97 213h-10zM283 658q0 16 15.5 40.5t34.5 47t30 32.5t25 15.5t39 5.5h20q24 0 39 -6t24 -15q11 -10 28.5 -33t32 -47.5t14.5 -39.5q0 -17 -19 -16t-36 12l-93 62l-99 -62q-21 -13 -38 -13.5
t-17 17.5zM507 838q-28 0 -47 7.5t-33 17.5t-28 17.5t-33 7.5t-30 -8t-19 -22q-13 -19 -32 -18.5t-19 27.5q0 44 25.5 77.5t74.5 33.5q28 0 46 -7.5t31.5 -17.5t28 -17.5t35.5 -7.5q20 0 31 8t18 22q13 24 32.5 22t19.5 -31q0 -27 -10.5 -52.5t-33 -42t-57.5 -16.5z" />
    <glyph glyph-name="uni1EAB" unicode="&#x1eab;" horiz-adv-x="672" 
d="M209 0q-88 0 -126 33t-38 110q0 71 39.5 103t124.5 32h31q56 0 107 -4t88 -8v16q0 14 -6 27t-42 13h-50q-109 0 -168 -3.5t-73 -6.5l-11 106q0 10 35 16.5t96 10t139 3.5h100q66 0 101 -19.5t48 -52.5t13 -76v-300h-142l-39 20q-24 -5 -76.5 -12.5t-120.5 -7.5h-30z
M267 118h138q22 0 26 4t4 25v35h-168q-19 0 -28 -7t-9 -27q0 -19 9 -24.5t28 -5.5zM196 518q0 16 15.5 40.5t34.5 47t30 32.5t25 15.5t39 5.5h20q24 0 39 -6t24 -15q11 -10 28.5 -33t32 -47.5t14.5 -39.5q0 -17 -19 -16t-36 12l-93 62l-99 -62q-21 -13 -38 -13.5t-17 17.5z
M420 698q-28 0 -47 7.5t-33 17.5t-28 17.5t-33 7.5t-30 -8t-19 -22q-13 -19 -32 -18.5t-19 27.5q0 44 25.5 77.5t74.5 33.5q28 0 46 -7.5t31.5 -17.5t28 -17.5t35.5 -7.5q20 0 31 8t18 22q13 24 32.5 22t19.5 -31q0 -27 -10.5 -52.5t-33 -42t-57.5 -16.5z" />
    <glyph glyph-name="uni1EAC" unicode="&#x1eac;" horiz-adv-x="861" 
d="M8 0l293 588h260l292 -588h-215l-49 107h-316l-55 -107h-210zM328 245h205l-97 213h-10zM427.551 -147q-91.8213 0 -91.8213 78.1846q0 43.6377 23.1826 60.4561t68.6387 16.8184q48.1826 0 70.4561 -16.8184t22.2734 -60.4561q0 -78.1846 -92.7295 -78.1846zM280 658
q0 16 15.5 40.5t34.5 47t30 32.5t25 15.5t39 5.5h20q24 0 39 -6t24 -15q11 -10 28.5 -33t32 -47.5t14.5 -39.5q0 -17 -19 -16t-36 12l-93 62l-99 -62q-21 -13 -38 -13.5t-17 17.5z" />
    <glyph glyph-name="uni1EAD" unicode="&#x1ead;" horiz-adv-x="672" 
d="M209 0q-88 0 -126 33t-38 110q0 71 39.5 103t124.5 32h31q56 0 107 -4t88 -8v16q0 14 -6 27t-42 13h-50q-109 0 -168 -3.5t-73 -6.5l-11 106q0 10 35 16.5t96 10t139 3.5h100q66 0 101 -19.5t48 -52.5t13 -76v-300h-142l-39 20q-24 -5 -76.5 -12.5t-120.5 -7.5h-30z
M267 118h138q22 0 26 4t4 25v35h-168q-19 0 -28 -7t-9 -27q0 -19 9 -24.5t28 -5.5zM343.551 -207q-91.8213 0 -91.8213 78.1846q0 43.6377 23.1826 60.4561t68.6387 16.8184q48.1826 0 70.4561 -16.8184t22.2734 -60.4561q0 -78.1846 -92.7295 -78.1846zM193 518
q0 16 15.5 40.5t34.5 47t30 32.5t25 15.5t39 5.5h20q24 0 39 -6t24 -15q11 -10 28.5 -33t32 -47.5t14.5 -39.5q0 -17 -19 -16t-36 12l-93 62l-99 -62q-21 -13 -38 -13.5t-17 17.5z" />
    <glyph glyph-name="uni1EAE" unicode="&#x1eae;" horiz-adv-x="861" 
d="M8 0l293 588h260l292 -588h-215l-49 107h-316l-55 -107h-210zM328 245h205l-97 213h-10zM431 640q-58 0 -90.5 16.5t-46 46.5t-13.5 68q0 20 9.5 25t21 0.5t17.5 -14.5q10 -16 20 -28t28.5 -18t53.5 -6t52.5 6t27.5 18t20 28q7 11 18.5 15t21.5 -1.5t10 -24.5
q0 -64 -31.5 -97.5t-118.5 -33.5zM376 842q0 13 9.5 36.5t21.5 47t19 35.5q9 14 22.5 21.5t37.5 7.5h21q28 0 38.5 -6.5t10.5 -22.5t-19.5 -37.5t-47 -42.5t-53.5 -38q-11 -7 -25.5 -12t-24.5 -3t-10 14z" />
    <glyph glyph-name="uni1EAF" unicode="&#x1eaf;" horiz-adv-x="672" 
d="M209 0q-88 0 -126 33t-38 110q0 71 39.5 103t124.5 32h31q56 0 107 -4t88 -8v16q0 14 -6 27t-42 13h-50q-109 0 -168 -3.5t-73 -6.5l-11 106q0 10 35 16.5t96 10t139 3.5h100q66 0 101 -19.5t48 -52.5t13 -76v-300h-142l-39 20q-24 -5 -76.5 -12.5t-120.5 -7.5h-30z
M267 118h138q22 0 26 4t4 25v35h-168q-19 0 -28 -7t-9 -27q0 -19 9 -24.5t28 -5.5zM344 500q-58 0 -90.5 16.5t-46 46.5t-13.5 68q0 20 9.5 25t21 0.5t17.5 -14.5q10 -16 20 -28t28.5 -18t53.5 -6t52.5 6t27.5 18t20 28q7 11 18.5 15t21.5 -1.5t10 -24.5q0 -64 -31.5 -97.5
t-118.5 -33.5zM289 702q0 13 9.5 36.5t21.5 47t19 35.5q9 14 22.5 21.5t37.5 7.5h21q28 0 38.5 -6.5t10.5 -22.5t-19.5 -37.5t-47 -42.5t-53.5 -38q-11 -7 -25.5 -12t-24.5 -3t-10 14z" />
    <glyph glyph-name="uni1EB0" unicode="&#x1eb0;" horiz-adv-x="861" 
d="M8 0l293 588h260l292 -588h-215l-49 107h-316l-55 -107h-210zM328 245h205l-97 213h-10zM431 640q-58 0 -90.5 16.5t-46 46.5t-13.5 68q0 20 9.5 25t21 0.5t17.5 -14.5q10 -16 20 -28t28.5 -18t53.5 -6t52.5 6t27.5 18t20 28q7 11 18.5 15t21.5 -1.5t10 -24.5
q0 -64 -31.5 -97.5t-118.5 -33.5zM516 842q0 13 -9.5 36.5t-21.5 47t-19 35.5q-9 14 -22.5 21.5t-37.5 7.5h-21q-28 0 -38.5 -6.5t-10.5 -22.5t19.5 -37.5t47 -42.5t53.5 -38q11 -7 25.5 -12t24.5 -3t10 14z" />
    <glyph glyph-name="uni1EB1" unicode="&#x1eb1;" horiz-adv-x="672" 
d="M209 0q-88 0 -126 33t-38 110q0 71 39.5 103t124.5 32h31q56 0 107 -4t88 -8v16q0 14 -6 27t-42 13h-50q-109 0 -168 -3.5t-73 -6.5l-11 106q0 10 35 16.5t96 10t139 3.5h100q66 0 101 -19.5t48 -52.5t13 -76v-300h-142l-39 20q-24 -5 -76.5 -12.5t-120.5 -7.5h-30z
M267 118h138q22 0 26 4t4 25v35h-168q-19 0 -28 -7t-9 -27q0 -19 9 -24.5t28 -5.5zM344 500q-58 0 -90.5 16.5t-46 46.5t-13.5 68q0 20 9.5 25t21 0.5t17.5 -14.5q10 -16 20 -28t28.5 -18t53.5 -6t52.5 6t27.5 18t20 28q7 11 18.5 15t21.5 -1.5t10 -24.5q0 -64 -31.5 -97.5
t-118.5 -33.5zM429 702q0 13 -9.5 36.5t-21.5 47t-19 35.5q-9 14 -22.5 21.5t-37.5 7.5h-21q-28 0 -38.5 -6.5t-10.5 -22.5t19.5 -37.5t47 -42.5t53.5 -38q11 -7 25.5 -12t24.5 -3t10 14z" />
    <glyph glyph-name="uni1EB2" unicode="&#x1eb2;" horiz-adv-x="861" 
d="M8 0l293 588h260l292 -588h-215l-49 107h-316l-55 -107h-210zM328 245h205l-97 213h-10zM433 640q-58 0 -90.5 16.5t-46 46.5t-13.5 68q0 20 9.5 25t21 0.5t17.5 -14.5q10 -16 20 -28t28.5 -18t53.5 -6t52.5 6t27.5 18t20 28q7 11 18.5 15t21.5 -1.5t10 -24.5
q0 -64 -31.5 -97.5t-118.5 -33.5zM398 840q-7 7 -10.5 18t-0.5 34q26 9 45.5 23.5t19.5 30.5q0 18 -20 18q-16 0 -37 -5.5t-38 -13.5q-19 -8 -34 -2.5t-15 27.5q0 24 18.5 43t49.5 30t66 11h10q43 0 74.5 -21.5t31.5 -59.5q0 -28 -8.5 -47.5t-28.5 -39.5q-19 -19 -37 -29.5
t-35 -18.5q-15 -7 -29 -6t-22 8z" />
    <glyph glyph-name="uni1EB3" unicode="&#x1eb3;" horiz-adv-x="672" 
d="M209 0q-88 0 -126 33t-38 110q0 71 39.5 103t124.5 32h31q56 0 107 -4t88 -8v16q0 14 -6 27t-42 13h-50q-109 0 -168 -3.5t-73 -6.5l-11 106q0 10 35 16.5t96 10t139 3.5h100q66 0 101 -19.5t48 -52.5t13 -76v-300h-142l-39 20q-24 -5 -76.5 -12.5t-120.5 -7.5h-30z
M267 118h138q22 0 26 4t4 25v35h-168q-19 0 -28 -7t-9 -27q0 -19 9 -24.5t28 -5.5zM346 500q-58 0 -90.5 16.5t-46 46.5t-13.5 68q0 20 9.5 25t21 0.5t17.5 -14.5q10 -16 20 -28t28.5 -18t53.5 -6t52.5 6t27.5 18t20 28q7 11 18.5 15t21.5 -1.5t10 -24.5q0 -64 -31.5 -97.5
t-118.5 -33.5zM311 700q-7 7 -10.5 18t-0.5 34q26 9 45.5 23.5t19.5 30.5q0 18 -20 18q-16 0 -37 -5.5t-38 -13.5q-19 -8 -34 -2.5t-15 27.5q0 24 18.5 43t49.5 30t66 11h10q43 0 74.5 -21.5t31.5 -59.5q0 -28 -8.5 -47.5t-28.5 -39.5q-19 -19 -37 -29.5t-35 -18.5
q-15 -7 -29 -6t-22 8z" />
    <glyph glyph-name="uni1EB4" unicode="&#x1eb4;" horiz-adv-x="861" 
d="M8 0l293 588h260l292 -588h-215l-49 107h-316l-55 -107h-210zM328 245h205l-97 213h-10zM433 640q-58 0 -90.5 16.5t-46 46.5t-13.5 68q0 20 9.5 25t21 0.5t17.5 -14.5q10 -16 20 -28t28.5 -18t53.5 -6t52.5 6t27.5 18t20 28q7 11 18.5 15t21.5 -1.5t10 -24.5
q0 -64 -31.5 -97.5t-118.5 -33.5zM503 838q-28 0 -47 7.5t-33 17.5t-28 17.5t-33 7.5t-30 -8t-19 -22q-13 -19 -32 -18.5t-19 27.5q0 44 25.5 77.5t74.5 33.5q28 0 46 -7.5t31.5 -17.5t28 -17.5t35.5 -7.5q20 0 31 8t18 22q13 24 32.5 22t19.5 -31q0 -27 -10.5 -52.5
t-33 -42t-57.5 -16.5z" />
    <glyph glyph-name="uni1EB5" unicode="&#x1eb5;" horiz-adv-x="672" 
d="M209 0q-88 0 -126 33t-38 110q0 71 39.5 103t124.5 32h31q56 0 107 -4t88 -8v16q0 14 -6 27t-42 13h-50q-109 0 -168 -3.5t-73 -6.5l-11 106q0 10 35 16.5t96 10t139 3.5h100q66 0 101 -19.5t48 -52.5t13 -76v-300h-142l-39 20q-24 -5 -76.5 -12.5t-120.5 -7.5h-30z
M267 118h138q22 0 26 4t4 25v35h-168q-19 0 -28 -7t-9 -27q0 -19 9 -24.5t28 -5.5zM346 500q-58 0 -90.5 16.5t-46 46.5t-13.5 68q0 20 9.5 25t21 0.5t17.5 -14.5q10 -16 20 -28t28.5 -18t53.5 -6t52.5 6t27.5 18t20 28q7 11 18.5 15t21.5 -1.5t10 -24.5q0 -64 -31.5 -97.5
t-118.5 -33.5zM416 698q-28 0 -47 7.5t-33 17.5t-28 17.5t-33 7.5t-30 -8t-19 -22q-13 -19 -32 -18.5t-19 27.5q0 44 25.5 77.5t74.5 33.5q28 0 46 -7.5t31.5 -17.5t28 -17.5t35.5 -7.5q20 0 31 8t18 22q13 24 32.5 22t19.5 -31q0 -27 -10.5 -52.5t-33 -42t-57.5 -16.5z" />
    <glyph glyph-name="uni1EB6" unicode="&#x1eb6;" horiz-adv-x="861" 
d="M8 0l293 588h260l292 -588h-215l-49 107h-316l-55 -107h-210zM328 245h205l-97 213h-10zM427.551 -147q-91.8213 0 -91.8213 78.1846q0 43.6377 23.1826 60.4561t68.6387 16.8184q48.1826 0 70.4561 -16.8184t22.2734 -60.4561q0 -78.1846 -92.7295 -78.1846zM433 640
q-58 0 -90.5 16.5t-46 46.5t-13.5 68q0 20 9.5 25t21 0.5t17.5 -14.5q10 -16 20 -28t28.5 -18t53.5 -6t52.5 6t27.5 18t20 28q7 11 18.5 15t21.5 -1.5t10 -24.5q0 -64 -31.5 -97.5t-118.5 -33.5z" />
    <glyph glyph-name="uni1EB7" unicode="&#x1eb7;" horiz-adv-x="672" 
d="M209 0q-88 0 -126 33t-38 110q0 71 39.5 103t124.5 32h31q56 0 107 -4t88 -8v16q0 14 -6 27t-42 13h-50q-109 0 -168 -3.5t-73 -6.5l-11 106q0 10 35 16.5t96 10t139 3.5h100q66 0 101 -19.5t48 -52.5t13 -76v-300h-142l-39 20q-24 -5 -76.5 -12.5t-120.5 -7.5h-30z
M267 118h138q22 0 26 4t4 25v35h-168q-19 0 -28 -7t-9 -27q0 -19 9 -24.5t28 -5.5zM343.551 -207q-91.8213 0 -91.8213 78.1846q0 43.6377 23.1826 60.4561t68.6387 16.8184q48.1826 0 70.4561 -16.8184t22.2734 -60.4561q0 -78.1846 -92.7295 -78.1846zM346 500
q-58 0 -90.5 16.5t-46 46.5t-13.5 68q0 20 9.5 25t21 0.5t17.5 -14.5q10 -16 20 -28t28.5 -18t53.5 -6t52.5 6t27.5 18t20 28q7 11 18.5 15t21.5 -1.5t10 -24.5q0 -64 -31.5 -97.5t-118.5 -33.5z" />
    <glyph glyph-name="uni1EB8" unicode="&#x1eb8;" horiz-adv-x="786" 
d="M80 0v588h642v-136h-447v-83h331v-139h-331v-93h431l60 -126q0 -4 -27 -7.5t-93 -3.5h-566zM410.551 -207q-91.8213 0 -91.8213 78.1846q0 43.6377 23.1826 60.4561t68.6387 16.8184q48.1826 0 70.4561 -16.8184t22.2734 -60.4561q0 -78.1846 -92.7295 -78.1846z" />
    <glyph glyph-name="uni1EB9" unicode="&#x1eb9;" horiz-adv-x="663" 
d="M213 0q-66 0 -101.5 19t-48.5 52.5t-13 77.5v151q0 40 13.5 73.5t48.5 54t101 20.5h207q78 0 119.5 -18.5t57 -52t15.5 -77.5v-128h-175q-90 0 -136.5 4t-65.5 5v-15q-1 -40 48 -40h31q80 0 148 3.5t101 6.5l60 -95q0 -10 -17 -19t-59.5 -15.5t-120.5 -6.5h-213zM235 268
h192v14q0 20 -3.5 28t-21.5 10t-61 2h-58q-48 0 -48 -40v-14zM312.551 -207q-91.8213 0 -91.8213 78.1846q0 43.6377 23.1826 60.4561t68.6387 16.8184q48.1826 0 70.4561 -16.8184t22.2734 -60.4561q0 -78.1846 -92.7295 -78.1846z" />
    <glyph glyph-name="uni1EBA" unicode="&#x1eba;" horiz-adv-x="786" 
d="M80 0v588h642v-136h-447v-83h331v-139h-331v-93h431l60 -126q0 -4 -27 -7.5t-93 -3.5h-566zM368 652q-7 7 -10.5 18t-0.5 34q26 9 45.5 23.5t19.5 30.5q0 18 -20 18q-16 0 -37 -5.5t-38 -13.5q-19 -8 -34 -2.5t-15 27.5q0 24 18.5 43t49.5 30t66 11h10q43 0 74.5 -21.5
t31.5 -59.5q0 -28 -8.5 -47.5t-28.5 -39.5q-19 -19 -37 -29.5t-35 -18.5q-15 -7 -29 -6t-22 8z" />
    <glyph glyph-name="uni1EBB" unicode="&#x1ebb;" horiz-adv-x="663" 
d="M213 0q-66 0 -101.5 19t-48.5 52.5t-13 77.5v151q0 40 13.5 73.5t48.5 54t101 20.5h207q78 0 119.5 -18.5t57 -52t15.5 -77.5v-128h-175q-90 0 -136.5 4t-65.5 5v-15q-1 -40 48 -40h31q80 0 148 3.5t101 6.5l60 -95q0 -10 -17 -19t-59.5 -15.5t-120.5 -6.5h-213zM235 268
h192v14q0 20 -3.5 28t-21.5 10t-61 2h-58q-48 0 -48 -40v-14zM300 512q-7 7 -10.5 18t-0.5 34q26 9 45.5 23.5t19.5 30.5q0 18 -20 18q-16 0 -37 -5.5t-38 -13.5q-19 -8 -34 -2.5t-15 27.5q0 24 18.5 43t49.5 30t66 11h10q43 0 74.5 -21.5t31.5 -59.5q0 -28 -8.5 -47.5
t-28.5 -39.5q-19 -19 -37 -29.5t-35 -18.5q-15 -7 -29 -6t-22 8z" />
    <glyph glyph-name="uni1EBC" unicode="&#x1ebc;" horiz-adv-x="786" 
d="M80 0v588h642v-136h-447v-83h331v-139h-331v-93h431l60 -126q0 -4 -27 -7.5t-93 -3.5h-566zM473 650q-28 0 -47 7.5t-33 17.5t-28 17.5t-33 7.5t-30 -8t-19 -22q-13 -19 -32 -18.5t-19 27.5q0 44 25.5 77.5t74.5 33.5q28 0 46 -7.5t31.5 -17.5t28 -17.5t35.5 -7.5
q20 0 31 8t18 22q13 24 32.5 22t19.5 -31q0 -27 -10.5 -52.5t-33 -42t-57.5 -16.5z" />
    <glyph glyph-name="uni1EBD" unicode="&#x1ebd;" horiz-adv-x="663" 
d="M213 0q-66 0 -101.5 19t-48.5 52.5t-13 77.5v151q0 40 13.5 73.5t48.5 54t101 20.5h207q78 0 119.5 -18.5t57 -52t15.5 -77.5v-128h-175q-90 0 -136.5 4t-65.5 5v-15q-1 -40 48 -40h31q80 0 148 3.5t101 6.5l60 -95q0 -10 -17 -19t-59.5 -15.5t-120.5 -6.5h-213zM235 268
h192v14q0 20 -3.5 28t-21.5 10t-61 2h-58q-48 0 -48 -40v-14zM405 510q-28 0 -47 7.5t-33 17.5t-28 17.5t-33 7.5t-30 -8t-19 -22q-13 -19 -32 -18.5t-19 27.5q0 44 25.5 77.5t74.5 33.5q28 0 46 -7.5t31.5 -17.5t28 -17.5t35.5 -7.5q20 0 31 8t18 22q13 24 32.5 22
t19.5 -31q0 -27 -10.5 -52.5t-33 -42t-57.5 -16.5z" />
    <glyph glyph-name="uni1EBE" unicode="&#x1ebe;" horiz-adv-x="786" 
d="M80 0v588h642v-136h-447v-83h331v-139h-331v-93h431l60 -126q0 -4 -27 -7.5t-93 -3.5h-566zM246 658q0 16 15.5 40.5t34.5 47t30 32.5t25 15.5t39 5.5h20q24 0 39 -6t24 -15q11 -10 28.5 -33t32 -47.5t14.5 -39.5q0 -17 -19 -16t-36 12l-93 62l-99 -62q-21 -13 -38 -13.5
t-17 17.5zM345 842q0 13 9.5 36.5t21.5 47t19 35.5q9 14 22.5 21.5t37.5 7.5h21q28 0 38.5 -6.5t10.5 -22.5t-19.5 -37.5t-47 -42.5t-53.5 -38q-11 -7 -25.5 -12t-24.5 -3t-10 14z" />
    <glyph glyph-name="uni1EBF" unicode="&#x1ebf;" horiz-adv-x="663" 
d="M213 0q-66 0 -101.5 19t-48.5 52.5t-13 77.5v151q0 40 13.5 73.5t48.5 54t101 20.5h207q78 0 119.5 -18.5t57 -52t15.5 -77.5v-128h-175q-90 0 -136.5 4t-65.5 5v-15q-1 -40 48 -40h31q80 0 148 3.5t101 6.5l60 -95q0 -10 -17 -19t-59.5 -15.5t-120.5 -6.5h-213zM235 268
h192v14q0 20 -3.5 28t-21.5 10t-61 2h-58q-48 0 -48 -40v-14zM178 518q0 16 15.5 40.5t34.5 47t30 32.5t25 15.5t39 5.5h20q24 0 39 -6t24 -15q11 -10 28.5 -33t32 -47.5t14.5 -39.5q0 -17 -19 -16t-36 12l-93 62l-99 -62q-21 -13 -38 -13.5t-17 17.5zM277 702
q0 13 9.5 36.5t21.5 47t19 35.5q9 14 22.5 21.5t37.5 7.5h21q28 0 38.5 -6.5t10.5 -22.5t-19.5 -37.5t-47 -42.5t-53.5 -38q-11 -7 -25.5 -12t-24.5 -3t-10 14z" />
    <glyph glyph-name="uni1EC0" unicode="&#x1ec0;" horiz-adv-x="786" 
d="M80 0v588h642v-136h-447v-83h331v-139h-331v-93h431l60 -126q0 -4 -27 -7.5t-93 -3.5h-566zM246 658q0 16 15.5 40.5t34.5 47t30 32.5t25 15.5t39 5.5h20q24 0 39 -6t24 -15q11 -10 28.5 -33t32 -47.5t14.5 -39.5q0 -17 -19 -16t-36 12l-93 62l-99 -62q-21 -13 -38 -13.5
t-17 17.5zM485 842q0 13 -9.5 36.5t-21.5 47t-19 35.5q-9 14 -22.5 21.5t-37.5 7.5h-21q-28 0 -38.5 -6.5t-10.5 -22.5t19.5 -37.5t47 -42.5t53.5 -38q11 -7 25.5 -12t24.5 -3t10 14z" />
    <glyph glyph-name="uni1EC1" unicode="&#x1ec1;" horiz-adv-x="663" 
d="M213 0q-66 0 -101.5 19t-48.5 52.5t-13 77.5v151q0 40 13.5 73.5t48.5 54t101 20.5h207q78 0 119.5 -18.5t57 -52t15.5 -77.5v-128h-175q-90 0 -136.5 4t-65.5 5v-15q-1 -40 48 -40h31q80 0 148 3.5t101 6.5l60 -95q0 -10 -17 -19t-59.5 -15.5t-120.5 -6.5h-213zM235 268
h192v14q0 20 -3.5 28t-21.5 10t-61 2h-58q-48 0 -48 -40v-14zM178 518q0 16 15.5 40.5t34.5 47t30 32.5t25 15.5t39 5.5h20q24 0 39 -6t24 -15q11 -10 28.5 -33t32 -47.5t14.5 -39.5q0 -17 -19 -16t-36 12l-93 62l-99 -62q-21 -13 -38 -13.5t-17 17.5zM417 702
q0 13 -9.5 36.5t-21.5 47t-19 35.5q-9 14 -22.5 21.5t-37.5 7.5h-21q-28 0 -38.5 -6.5t-10.5 -22.5t19.5 -37.5t47 -42.5t53.5 -38q11 -7 25.5 -12t24.5 -3t10 14z" />
    <glyph glyph-name="uni1EC2" unicode="&#x1ec2;" horiz-adv-x="786" 
d="M80 0v588h642v-136h-447v-83h331v-139h-331v-93h431l60 -126q0 -4 -27 -7.5t-93 -3.5h-566zM253 658q0 16 15.5 40.5t34.5 47t30 32.5t25 15.5t39 5.5h20q24 0 39 -6t24 -15q11 -10 28.5 -33t32 -47.5t14.5 -39.5q0 -17 -19 -16t-36 12l-93 62l-99 -62q-21 -13 -38 -13.5
t-17 17.5zM372 840q-7 7 -10.5 18t-0.5 34q26 9 45.5 23.5t19.5 30.5q0 18 -20 18q-16 0 -37 -5.5t-38 -13.5q-19 -8 -34 -2.5t-15 27.5q0 24 18.5 43t49.5 30t66 11h10q43 0 74.5 -21.5t31.5 -59.5q0 -28 -8.5 -47.5t-28.5 -39.5q-19 -19 -37 -29.5t-35 -18.5
q-15 -7 -29 -6t-22 8z" />
    <glyph glyph-name="uni1EC3" unicode="&#x1ec3;" horiz-adv-x="663" 
d="M213 0q-66 0 -101.5 19t-48.5 52.5t-13 77.5v151q0 40 13.5 73.5t48.5 54t101 20.5h207q78 0 119.5 -18.5t57 -52t15.5 -77.5v-128h-175q-90 0 -136.5 4t-65.5 5v-15q-1 -40 48 -40h31q80 0 148 3.5t101 6.5l60 -95q0 -10 -17 -19t-59.5 -15.5t-120.5 -6.5h-213zM235 268
h192v14q0 20 -3.5 28t-21.5 10t-61 2h-58q-48 0 -48 -40v-14zM185 518q0 16 15.5 40.5t34.5 47t30 32.5t25 15.5t39 5.5h20q24 0 39 -6t24 -15q11 -10 28.5 -33t32 -47.5t14.5 -39.5q0 -17 -19 -16t-36 12l-93 62l-99 -62q-21 -13 -38 -13.5t-17 17.5zM304 700
q-7 7 -10.5 18t-0.5 34q26 9 45.5 23.5t19.5 30.5q0 18 -20 18q-16 0 -37 -5.5t-38 -13.5q-19 -8 -34 -2.5t-15 27.5q0 24 18.5 43t49.5 30t66 11h10q43 0 74.5 -21.5t31.5 -59.5q0 -28 -8.5 -47.5t-28.5 -39.5q-19 -19 -37 -29.5t-35 -18.5q-15 -7 -29 -6t-22 8z" />
    <glyph glyph-name="uni1EC4" unicode="&#x1ec4;" horiz-adv-x="786" 
d="M80 0v588h642v-136h-447v-83h331v-139h-331v-93h431l60 -126q0 -4 -27 -7.5t-93 -3.5h-566zM253 658q0 16 15.5 40.5t34.5 47t30 32.5t25 15.5t39 5.5h20q24 0 39 -6t24 -15q11 -10 28.5 -33t32 -47.5t14.5 -39.5q0 -17 -19 -16t-36 12l-93 62l-99 -62q-21 -13 -38 -13.5
t-17 17.5zM477 838q-28 0 -47 7.5t-33 17.5t-28 17.5t-33 7.5t-30 -8t-19 -22q-13 -19 -32 -18.5t-19 27.5q0 44 25.5 77.5t74.5 33.5q28 0 46 -7.5t31.5 -17.5t28 -17.5t35.5 -7.5q20 0 31 8t18 22q13 24 32.5 22t19.5 -31q0 -27 -10.5 -52.5t-33 -42t-57.5 -16.5z" />
    <glyph glyph-name="uni1EC5" unicode="&#x1ec5;" horiz-adv-x="663" 
d="M213 0q-66 0 -101.5 19t-48.5 52.5t-13 77.5v151q0 40 13.5 73.5t48.5 54t101 20.5h207q78 0 119.5 -18.5t57 -52t15.5 -77.5v-128h-175q-90 0 -136.5 4t-65.5 5v-15q-1 -40 48 -40h31q80 0 148 3.5t101 6.5l60 -95q0 -10 -17 -19t-59.5 -15.5t-120.5 -6.5h-213zM235 268
h192v14q0 20 -3.5 28t-21.5 10t-61 2h-58q-48 0 -48 -40v-14zM185 518q0 16 15.5 40.5t34.5 47t30 32.5t25 15.5t39 5.5h20q24 0 39 -6t24 -15q11 -10 28.5 -33t32 -47.5t14.5 -39.5q0 -17 -19 -16t-36 12l-93 62l-99 -62q-21 -13 -38 -13.5t-17 17.5zM409 698
q-28 0 -47 7.5t-33 17.5t-28 17.5t-33 7.5t-30 -8t-19 -22q-13 -19 -32 -18.5t-19 27.5q0 44 25.5 77.5t74.5 33.5q28 0 46 -7.5t31.5 -17.5t28 -17.5t35.5 -7.5q20 0 31 8t18 22q13 24 32.5 22t19.5 -31q0 -27 -10.5 -52.5t-33 -42t-57.5 -16.5z" />
    <glyph glyph-name="uni1EC6" unicode="&#x1ec6;" horiz-adv-x="786" 
d="M80 0v588h642v-136h-447v-83h331v-139h-331v-93h431l60 -126q0 -4 -27 -7.5t-93 -3.5h-566zM410.551 -207q-91.8213 0 -91.8213 78.1846q0 43.6377 23.1826 60.4561t68.6387 16.8184q48.1826 0 70.4561 -16.8184t22.2734 -60.4561q0 -78.1846 -92.7295 -78.1846zM250 658
q0 16 15.5 40.5t34.5 47t30 32.5t25 15.5t39 5.5h20q24 0 39 -6t24 -15q11 -10 28.5 -33t32 -47.5t14.5 -39.5q0 -17 -19 -16t-36 12l-93 62l-99 -62q-21 -13 -38 -13.5t-17 17.5z" />
    <glyph glyph-name="uni1EC7" unicode="&#x1ec7;" horiz-adv-x="663" 
d="M213 0q-66 0 -101.5 19t-48.5 52.5t-13 77.5v151q0 40 13.5 73.5t48.5 54t101 20.5h207q78 0 119.5 -18.5t57 -52t15.5 -77.5v-128h-175q-90 0 -136.5 4t-65.5 5v-15q-1 -40 48 -40h31q80 0 148 3.5t101 6.5l60 -95q0 -10 -17 -19t-59.5 -15.5t-120.5 -6.5h-213zM235 268
h192v14q0 20 -3.5 28t-21.5 10t-61 2h-58q-48 0 -48 -40v-14zM312.551 -207q-91.8213 0 -91.8213 78.1846q0 43.6377 23.1826 60.4561t68.6387 16.8184q48.1826 0 70.4561 -16.8184t22.2734 -60.4561q0 -78.1846 -92.7295 -78.1846zM182 518q0 16 15.5 40.5t34.5 47t30 32.5
t25 15.5t39 5.5h20q24 0 39 -6t24 -15q11 -10 28.5 -33t32 -47.5t14.5 -39.5q0 -17 -19 -16t-36 12l-93 62l-99 -62q-21 -13 -38 -13.5t-17 17.5z" />
    <glyph glyph-name="uni1EC8" unicode="&#x1ec8;" horiz-adv-x="352" 
d="M80 0v588h192v-588h-192zM141 652q-7 7 -10.5 18t-0.5 34q26 9 45.5 23.5t19.5 30.5q0 18 -20 18q-16 0 -37 -5.5t-38 -13.5q-19 -8 -34 -2.5t-15 27.5q0 24 18.5 43t49.5 30t66 11h10q43 0 74.5 -21.5t31.5 -59.5q0 -28 -8.5 -47.5t-28.5 -39.5q-19 -19 -37 -29.5
t-35 -18.5q-15 -7 -29 -6t-22 8z" />
    <glyph glyph-name="uni1EC9" unicode="&#x1ec9;" horiz-adv-x="302" 
d="M60 0v448h182v-448h-182zM116 512q-7 7 -10.5 18t-0.5 34q26 9 45.5 23.5t19.5 30.5q0 18 -20 18q-16 0 -37 -5.5t-38 -13.5q-19 -8 -34 -2.5t-15 27.5q0 24 18.5 43t49.5 30t66 11h10q43 0 74.5 -21.5t31.5 -59.5q0 -28 -8.5 -47.5t-28.5 -39.5q-19 -19 -37 -29.5
t-35 -18.5q-15 -7 -29 -6t-22 8z" />
    <glyph glyph-name="uni1ECA" unicode="&#x1eca;" horiz-adv-x="352" 
d="M80 0v588h192v-588h-192zM173.551 -207q-91.8213 0 -91.8213 78.1846q0 43.6377 23.1826 60.4561t68.6387 16.8184q48.1826 0 70.4561 -16.8184t22.2734 -60.4561q0 -78.1846 -92.7295 -78.1846z" />
    <glyph glyph-name="uni1ECB" unicode="&#x1ecb;" horiz-adv-x="323" 
d="M161 491q-101 0 -101 86q0 48 25.5 66.5t75.5 18.5q53 0 77.5 -18.5t24.5 -66.5q0 -86 -102 -86zM69 0v448h182v-448h-182zM163.551 -207q-91.8213 0 -91.8213 78.1846q0 43.6377 23.1826 60.4561t68.6387 16.8184q48.1826 0 70.4561 -16.8184t22.2734 -60.4561
q0 -78.1846 -92.7295 -78.1846z" />
    <glyph glyph-name="uni1ECC" unicode="&#x1ecc;" horiz-adv-x="837" 
d="M273 0q-106 0 -154.5 47.5t-48.5 151.5v191q0 102 48 150t155 48h292q105 0 153.5 -48t48.5 -150v-191q0 -104 -49 -151.5t-153 -47.5h-292zM342 136h155q78 0 78 71v175q0 70 -78 70h-155q-40 0 -60 -16t-20 -54v-175q0 -37 20 -54t60 -17zM426.551 -207
q-91.8213 0 -91.8213 78.1846q0 43.6377 23.1826 60.4561t68.6387 16.8184q48.1826 0 70.4561 -16.8184t22.2734 -60.4561q0 -78.1846 -92.7295 -78.1846z" />
    <glyph glyph-name="uni1ECD" unicode="&#x1ecd;" horiz-adv-x="683" 
d="M203 0q-66 0 -99 19t-43.5 52.5t-10.5 77.5v151q0 42 11 75.5t43.5 53t98.5 19.5h278q66 0 98.5 -19.5t43 -53t10.5 -75.5v-151q0 -44 -10.5 -77.5t-43 -52.5t-98.5 -19h-278zM283 126h119q48 0 47 40v116q0 20 -10.5 30t-36.5 10h-118q-26 0 -37 -10t-11 -30v-116
q-1 -40 47 -40zM342.551 -207q-91.8213 0 -91.8213 78.1846q0 43.6377 23.1826 60.4561t68.6387 16.8184q48.1826 0 70.4561 -16.8184t22.2734 -60.4561q0 -78.1846 -92.7295 -78.1846z" />
    </font>
</defs>
</svg>
